#TITLE:Future Fuckballs 2010;
#SUBTITLE:(From AVGN Adventures);
#ARTIST:Sam Beddoes;
#TITLETRANSLIT:;
#SUBTITLETRANSLIT:;
#ARTISTTRANSLIT:;
#GENRE:;
#CREDIT:;
#MUSIC:Future Fuckballs 2010.mp3;
#BANNER:Future Fuckballs 2010-bn.png;
#BACKGROUND:Future Fuckballs 2010-bg.png;
#CDTITLE:;
#SAMPLESTART:0.057;
#SAMPLELENGTH:26.667;
#SELECTABLE:YES;
#OFFSET:-0.057;
#BPMS:0.000=144.000;
#STOPS:;
#BGCHANGES:;
#FGCHANGES:;

//--------------- dance-single - ----------------
#NOTES:
     dance-single:
     :
     Beginner:
     2:
     0,0,0,0,0:
1000
0000
0100
0000
,
0010
0000
0100
0000
,
1000
0000
0100
0000
,
0010
0000
0100
0000
,
1000
0000
0010
0000
,
0100
0000
0010
0000
,
1000
0000
0010
0000
,
0100
0000
0010
0000
,
1000
0000
0000
0000
,
0100
0000
0000
0000
,
0001
0000
0000
0000
,
0100
0000
0000
0000
,
1000
0000
0000
0000
,
0010
0000
0000
0000
,
0001
0000
0000
0000
,
0010
0000
0000
0000
,
2000
0000
3200
0000
,
0320
0032
0003
0000
,
0002
0000
0023
0000
,
0230
2300
3000
0000
,
2000
0000
3020
0000
,
0230
0302
0003
0000
,
0002
0000
0203
0000
,
0320
2030
3000
0001
,
2000
0000
3200
0000
,
0320
0030
0020
0030
0020
0000
0030
0000
0000
0000
0000
0000
0000
0000
0000
0000
,
0002
0000
0023
0000
,
0230
0300
0200
0300
0200
0000
0300
0000
0000
0000
0000
0000
0000
0000
0000
0000
,
2000
0000
3020
0000
,
0230
0300
0200
0300
0200
0000
0300
0000
0000
0000
0000
0000
0000
0000
0000
0000
,
0002
0000
0203
0000
,
0320
0030
0020
0030
0020
0000
0030
0000
0000
0000
0000
0000
0000
0000
0000
0000
,
0001
0000
0010
0000
,
0100
0000
0010
0000
,
0001
0000
0010
0000
,
0100
0000
0010
0000
,
0001
0000
0100
0000
,
0010
0000
0100
0000
,
0001
0000
0100
0000
,
0010
0000
0100
0000
,
0001
0000
0000
0000
,
0010
0000
0000
0000
,
1000
0000
0000
0000
,
0010
0000
0000
0000
,
0001
0000
0000
0000
,
0100
0000
0000
0000
,
1000
0000
0000
0000
,
0100
0000
0000
0000
,
0002
0000
0023
0000
,
0230
2300
3000
0000
,
2000
0000
3200
0000
,
0320
0032
0003
0000
,
0002
0000
0203
0000
,
0320
2030
3000
0000
,
2000
0000
3020
0000
,
0230
0302
0003
1000
,
0002
0000
0023
0000
,
0230
0300
0200
0300
0200
0000
0300
0000
0000
0000
0000
0000
0000
0000
0000
0000
,
2000
0000
3200
0000
,
0320
0030
0020
0030
0020
0000
0030
0000
0000
0000
0000
0000
0000
0000
0000
0000
,
0002
0000
0203
0000
,
0320
0030
0020
0030
0020
0000
0030
0000
0000
0000
0000
0000
0000
0000
0000
0000
,
2000
0000
3020
0000
,
0230
0300
0200
0300
0200
0000
0300
0000
0000
0000
0000
0000
0000
0000
0000
0000
,
2002
3003
0000
0000
0000
0000
0000
0000
0000
0000
0000
0000
0000
0000
0000
0000
;

//--------------- dance-single - ----------------
#NOTES:
     dance-single:
     :
     Easy:
     4:
     0,0,0,0,0:
1000
0100
0010
0001
,
1000
0100
0001
0100
,
1000
0010
0100
0001
,
1000
0010
0001
0010
,
1000
0100
0100
0001
,
0010
1000
0010
0001
,
1000
0010
0010
0001
,
0100
1000
0100
0001
,
1000
1000
0100
0100
,
0010
0010
0001
0001
,
0100
0100
0010
0010
,
1000
1000
0100
0100
,
1000
1000
0010
0010
,
0100
0100
0001
0001
,
0010
0010
0100
0100
,
1000
1000
0001
0001
,
2000
0000
3200
0000
,
0320
0000
0032
0000
,
2003
0000
3020
0000
,
0230
0000
0302
0000
,
2003
0000
3200
0000
,
0320
0000
0230
0000
,
2300
0000
3020
0000
,
0230
0000
0320
0000
,
1030
0100
0010
0001
,
1000
0010
0100
0000
0001
0000
0010
0000
,
0001
0100
0010
1000
,
0001
0010
0100
0000
1000
0000
0010
0000
,
1000
0100
0010
0100
,
1000
0010
0100
0000
0001
0000
0010
0000
,
0100
0010
0100
1000
,
0010
0100
0001
0000
0010
0100
1000
0000
,
0001
0010
0100
1000
,
0001
0010
1000
0010
,
0001
0100
0010
1000
,
0001
0100
1000
0100
,
0001
0010
0010
1000
,
0100
0001
0100
1000
,
0001
0100
0100
1000
,
0010
0001
0010
1000
,
0001
0001
0010
0010
,
0100
0100
1000
1000
,
0010
0010
0100
0100
,
0001
0001
0010
0010
,
0001
0001
0100
0100
,
0010
0010
1000
1000
,
0100
0100
0010
0010
,
0001
0001
1000
1000
,
0002
0000
0023
0000
,
0230
0000
2300
0000
,
3002
0000
0203
0000
,
0320
0000
2030
0000
,
3002
0000
0023
0000
,
0230
0000
0320
0000
,
0032
0000
0203
0000
,
0320
0000
0230
0000
,
0301
0010
0100
1000
,
0001
0100
0010
0000
1000
0000
0100
0000
,
1000
0010
0100
0001
,
1000
0100
0010
0000
0001
0000
0100
0000
,
0001
0010
0100
0010
,
0001
0100
0010
0000
1000
0000
0100
0000
,
0010
0100
0010
0001
,
0100
0010
1000
0000
0100
0010
0001
0000
,
2002
3003
0000
0000
0000
0000
0000
0000
0000
0000
0000
0000
0000
0000
0000
0000
;

//--------------- dance-single - ----------------
#NOTES:
     dance-single:
     :
     Medium:
     8:
     0,0,0,0,0:
1000
0100
1000
0100
1000
0100
1000
0100
,
0010
0001
0010
0001
0010
0001
0010
0001
,
1000
0010
1000
0010
1000
0010
1000
0010
,
0100
0001
0100
0001
0100
0001
0100
0001
,
1000
0100
1000
0100
1000
0100
1000
0100
,
0010
0001
0010
0001
0010
0001
0010
0001
,
1000
0010
1000
0010
1000
0010
1000
0010
,
0100
0001
0100
0001
0100
0001
0100
0001
,
1001
0000
0100
0000
,
0010
0000
0001
0000
,
0010
0000
0100
0000
,
1000
0000
0001
0000
,
1000
0000
0010
0000
,
0100
0000
0001
0000
,
0100
0000
0010
0000
,
1000
0000
0001
0000
,
1000
0000
0000
1000
0000
0000
1000
0000
0100
0000
0000
0100
0000
0000
0100
0000
,
0010
0000
0000
0010
0000
0000
0010
0000
0001
0000
0000
0001
0000
0000
0001
0000
,
1000
0000
0000
1000
0000
0000
1000
0000
0100
0000
0000
0100
0000
0000
0100
0000
,
0010
0000
0000
0010
0000
0000
0010
0000
0001
0000
0000
0001
0000
0000
0001
0000
,
1000
0000
0000
1000
0000
0000
1000
0000
0010
0000
0000
0010
0000
0000
0010
0000
,
0100
0000
0000
0100
0000
0000
0100
0000
0001
0000
0000
0001
0000
0000
0001
0000
,
1000
0000
0000
1000
0000
0000
1000
0000
0010
0000
0000
0010
0000
0000
0010
0000
,
0100
0000
0000
0100
0000
0000
0100
0000
0001
0000
0000
0001
0000
0000
0001
0000
,
1000
0100
0010
0001
1000
0100
0010
0001
,
1000
0100
0010
0001
1000
0100
0010
0001
,
1000
0010
0100
0001
1000
0010
0100
0001
,
1000
0010
0100
0001
1000
0010
0100
0001
,
1000
0100
0010
0001
1000
0100
0010
0001
,
1000
0100
0010
0001
1000
0100
0010
0001
,
1000
0010
0100
0001
1000
0010
0100
0001
,
1000
0010
0100
0001
1000
0010
0200
0300
,
0001
0010
0001
0010
0001
0010
0001
0010
,
0100
1000
0100
1000
0100
1000
0100
1000
,
0001
0100
0001
0100
0001
0100
0001
0100
,
0010
1000
0010
1000
0010
1000
0010
1000
,
0001
0010
0001
0010
0001
0010
0001
0010
,
0100
1000
0100
1000
0100
1000
0100
1000
,
0001
0100
0001
0100
0001
0100
0001
0100
,
0010
1000
0010
1000
0010
1000
0010
1000
,
1001
0000
0010
0000
,
0100
0000
1000
0000
,
0100
0000
0010
0000
,
0001
0000
1000
0000
,
0001
0000
0100
0000
,
0010
0000
1000
0000
,
0010
0000
0100
0000
,
0001
0000
1000
0000
,
0001
0000
0000
0001
0000
0000
0001
0000
0010
0000
0000
0010
0000
0000
0010
0000
,
0100
0000
0000
0100
0000
0000
0100
0000
1000
0000
0000
1000
0000
0000
1000
0000
,
0001
0000
0000
0001
0000
0000
0001
0000
0010
0000
0000
0010
0000
0000
0010
0000
,
0100
0000
0000
0100
0000
0000
0100
0000
1000
0000
0000
1000
0000
0000
1000
0000
,
0001
0000
0000
0001
0000
0000
0001
0000
0100
0000
0000
0100
0000
0000
0100
0000
,
0010
0000
0000
0010
0000
0000
0010
0000
1000
0000
0000
1000
0000
0000
1000
0000
,
0001
0000
0000
0001
0000
0000
0001
0000
0100
0000
0000
0100
0000
0000
0100
0000
,
0010
0000
0000
0010
0000
0000
0010
0000
1000
0000
0000
1000
0000
0000
1000
0000
,
0001
0010
0100
1000
0001
0010
0100
1000
,
0001
0010
0100
1000
0001
0010
0100
1000
,
0001
0100
0010
1000
0001
0100
0010
1000
,
0001
0100
0010
1000
0001
0100
0010
1000
,
0001
0010
0100
1000
0001
0010
0100
1000
,
0001
0010
0100
1000
0001
0010
0100
1000
,
0001
0100
0010
1000
0001
0100
0010
1000
,
0001
0100
0010
1000
0001
0100
0020
0030
,
2002
3003
0000
0000
0000
0000
0000
0000
0000
0000
0000
0000
0000
0000
0000
0000
;

//--------------- dance-single - ----------------
#NOTES:
     dance-single:
     :
     Hard:
     8:
     0,0,0,0,0:
1000
0100
0010
0001
0100
1000
0100
0001
,
1000
0010
0100
0001
0010
0100
0010
0001
,
1000
0100
0010
0001
0100
1000
0100
0001
,
1000
0010
0100
0001
0010
0100
0010
0001
,
1000
0010
0100
0001
0010
1000
0010
0001
,
1000
0100
0010
0001
0100
0010
0100
0001
,
1000
0010
0100
0001
0010
1000
0010
0001
,
1000
0100
0010
0001
0100
0010
0100
0001
,
1000
0100
0000
0100
0010
0001
0100
0010
,
1000
0000
0000
1000
0000
0000
1000
0000
0010
0000
0000
0000
0000
0000
0100
0000
,
0001
0000
0000
0000
0010
0000
0000
0000
1000
0000
0000
0010
0000
0000
0001
0000
,
1000
0010
0100
0001
0010
0100
0100
0000
,
0001
0010
0000
0010
0100
1000
0010
0100
,
0001
0000
0000
0100
0000
0000
0010
0000
1000
0000
0100
0000
0001
0000
0000
0000
,
0100
0000
0000
1000
0000
0000
0010
0000
0001
0000
0000
0010
0000
0000
1000
0000
,
0001
0010
0100
0000
1000
1000
0010
0100
,
0022
0000
0000
0000
0000
0000
0000
0033
0220
0000
0000
0000
0000
0000
0000
0330
,
2100
3020
0230
0300
0000
0000
0000
0000
,
0202
0000
0000
0000
0000
0000
0000
0303
0220
0000
0000
0000
0000
0000
0000
0330
,
2010
3200
0320
0030
0000
0000
0000
0000
,
0022
0000
0000
0000
0000
0000
0000
0033
0220
0000
0000
0000
0000
0000
0000
0330
,
1020
0230
2300
3000
0000
0000
0000
0000
,
0202
0000
0000
0000
0000
0000
0000
0303
0220
0000
0000
0000
0000
0000
0000
0330
,
1200
0320
2030
3000
0000
0000
0100
0010
,
2200
3300
0220
0330
,
0022
0033
0202
0303
0220
0000
0000
0000
0330
0000
0000
0000
0000
0000
0000
0000
,
2020
3030
2002
3003
,
0202
0303
0022
0033
2002
0000
0000
0000
3003
0000
0000
0000
0000
0000
0000
0000
,
2200
3300
0220
0330
,
0202
0303
0022
0033
0220
0000
0000
0000
0330
0000
0000
0000
0000
0000
0000
0000
,
2020
3030
2002
3003
,
0022
0033
2002
3003
0202
0000
0000
0000
0303
0000
0000
0000
0000
0000
0000
0000
,
0001
0010
0100
1000
0010
0001
0010
1000
,
0001
0100
0010
1000
0100
0010
0100
1000
,
0001
0010
0100
1000
0010
0001
0010
1000
,
0001
0100
0010
1000
0100
0010
0100
1000
,
0001
0100
0010
1000
0100
0001
0100
1000
,
0001
0010
0100
1000
0010
0100
0010
1000
,
0001
0100
0010
1000
0100
0001
0100
1000
,
0001
0010
0100
1000
0010
0100
0010
1000
,
0001
0010
0000
0010
0100
1000
0010
0100
,
0001
0000
0000
0001
0000
0000
0001
0000
0100
0000
0000
0000
0000
0000
0010
0000
,
1000
0000
0000
0000
0100
0000
0000
0000
0001
0000
0000
0100
0000
0000
1000
0000
,
0001
0100
0010
1000
0100
0010
0010
0000
,
1000
0100
0000
0100
0010
0001
0100
0010
,
1000
0000
0000
0010
0000
0000
0100
0000
0001
0000
0010
0000
1000
0000
0000
0000
,
0010
0000
0000
0001
0000
0000
0100
0000
1000
0000
0000
0100
0000
0000
0001
0000
,
1000
0100
0010
0000
0001
0001
0100
0010
,
2200
0000
0000
0000
0000
0000
0000
3300
0220
0000
0000
0000
0000
0000
0000
0330
,
0012
0203
0320
0030
0000
0000
0000
0000
,
2020
0000
0000
0000
0000
0000
0000
3030
0220
0000
0000
0000
0000
0000
0000
0330
,
0102
0023
0230
0300
0000
0000
0000
0000
,
2200
0000
0000
0000
0000
0000
0000
3300
0220
0000
0000
0000
0000
0000
0000
0330
,
0201
0320
0032
0003
0000
0000
0000
0000
,
2020
0000
0000
0000
0000
0000
0000
3030
0220
0000
0000
0000
0000
0000
0000
0330
,
0021
0230
0302
0003
0000
0000
0010
0100
,
0022
0033
0220
0330
,
2200
3300
2020
3030
0220
0000
0000
0000
0330
0000
0000
0000
0000
0000
0000
0000
,
0202
0303
2002
3003
,
2020
3030
2200
3300
2002
0000
0000
0000
3003
0000
0000
0000
0000
0000
0000
0000
,
0022
0033
0220
0330
,
2020
3030
2200
3300
0220
0000
0000
0000
0330
0000
0000
0000
0000
0000
0000
0000
,
0202
0303
2002
3003
,
2200
3300
2002
3003
2020
0000
0000
0000
3030
0000
0000
0000
0000
0000
0000
0000
,
2002
3003
0000
0000
0000
0000
0000
0000
0000
0000
0000
0000
0000
0000
0000
0000
;

//--------------- dance-single - ----------------
#NOTES:
     dance-single:
     :
     Challenge:
     9:
     0,0,0,0,0:
1000
0100
0100
0001
0010
1000
0010
0001
,
1000
0010
0010
0001
0100
0010
0100
0001
,
1000
0100
0100
0001
0010
1000
0010
0001
,
1000
0010
0010
0001
0100
0010
0100
0001
,
1000
0010
0010
0001
0100
1000
0100
0001
,
1000
0100
0100
0001
0010
0100
0010
0001
,
1000
0010
0010
0001
0100
1000
0100
0001
,
1000
0100
0100
0001
0010
0100
0010
0001
,
1000
0100
0000
0100
0001
0010
0100
1000
,
0001
0000
0000
0010
0000
0000
0100
0000
1000
0000
0110
0000
0110
0000
0001
0000
,
1000
0000
0000
0000
0110
0000
0000
0000
0001
0000
0000
1000
0000
0000
0001
0000
,
1000
0010
0001
0010
1000
0110
0110
0000
,
0001
0010
0000
0010
1000
0100
0010
0001
,
1000
0000
0000
0100
0000
0000
0010
0000
0001
0000
1001
0000
1001
0000
0000
0000
,
0001
0000
0000
0010
0000
0000
0100
0000
1000
0000
0000
0010
0000
0000
0100
0000
,
0001
0010
0100
0000
0100
0010
1000
0001
,
1200
0000
0000
1000
0000
0000
0010
0300
0120
0000
0000
0100
0000
0000
0001
0030
,
0021
0000
0000
0001
0000
0000
0100
0030
2001
0000
0000
0100
0000
0000
0010
3000
,
0201
0000
0000
0001
0000
0000
0010
0300
0120
0000
0000
0100
0000
0000
1000
0030
,
1020
0000
0000
1000
0000
0000
0100
0030
1002
0000
0000
0010
0000
0000
0100
0003
,
1200
0000
0000
1000
0000
0000
0010
0300
2001
0000
0000
0100
0000
0000
0010
3000
,
0201
0000
0000
0001
0000
0000
0010
0300
0120
0000
0000
0001
0000
0000
1000
0030
,
1020
0000
0000
1000
0000
0000
0100
0030
1002
0000
0000
0010
0000
0000
0100
0003
,
0021
0000
0000
0001
0000
0000
0100
0030
0220
0330
0001
0010
0001
0010
0100
1000
,
0011
0010
0100
1000
0110
0001
0100
0010
,
1100
1010
0110
0001
0100
1000
0100
0001
,
1010
0010
0100
0001
0110
1000
0100
0010
,
0101
0110
0011
1000
0100
0001
0100
1000
,
0101
0010
1000
0100
0110
0001
0010
0100
,
1100
1010
0110
0001
0100
1000
0010
0001
,
1010
0100
0010
0001
1001
1000
0100
0010
,
0011
0101
0110
1000
0010
0001
0100
1000
,
0001
0010
0010
1000
0100
0001
0100
1000
,
0001
0100
0100
1000
0010
0100
0010
1000
,
0001
0010
0010
1000
0100
0001
0100
1000
,
0001
0100
0100
1000
0010
0100
0010
1000
,
0001
0100
0100
1000
0010
0001
0010
1000
,
0001
0010
0010
1000
0100
0010
0100
1000
,
0001
0100
0100
1000
0010
0001
0010
1000
,
0001
0010
0010
1000
0100
0010
0100
1000
,
0001
0010
0000
0010
1000
0100
0010
0001
,
1000
0000
0000
0100
0000
0000
0010
0000
0001
0000
0110
0000
0110
0000
1000
0000
,
0001
0000
0000
0000
0110
0000
0000
0000
1000
0000
0000
0001
0000
0000
1000
0000
,
0001
0100
1000
0100
0001
0110
0110
0000
,
1000
0100
0000
0100
0001
0010
0100
1000
,
0001
0000
0000
0010
0000
0000
0100
0000
1000
0000
1001
0000
1001
0000
0000
0000
,
1000
0000
0000
0100
0000
0000
0010
0000
0001
0000
0000
0100
0000
0000
0010
0000
,
1000
0100
0010
0000
0010
0100
0001
1000
,
0021
0000
0000
0001
0000
0000
0100
0030
0210
0000
0000
0010
0000
0000
1000
0300
,
1200
0000
0000
1000
0000
0000
0010
0300
1002
0000
0000
0010
0000
0000
0100
0003
,
1020
0000
0000
1000
0000
0000
0100
0030
0210
0000
0000
0010
0000
0000
0001
0300
,
0201
0000
0000
0001
0000
0000
0010
0300
2001
0000
0000
0100
0000
0000
0010
3000
,
0021
0000
0000
0001
0000
0000
0100
0030
1002
0000
0000
0010
0000
0000
0100
0003
,
1020
0000
0000
1000
0000
0000
0100
0030
0210
0000
0000
1000
0000
0000
0001
0300
,
0201
0000
0000
0001
0000
0000
0010
0300
2001
0000
0000
0100
0000
0000
0010
3000
,
1200
0000
0000
1000
0000
0000
0010
0300
0220
0330
1000
0100
1000
0100
0010
0001
,
1100
0100
0010
0001
0110
1000
0010
0100
,
0011
0101
0110
1000
0010
0001
0010
1000
,
0101
0100
0010
1000
0110
0001
0010
0100
,
1010
0110
1100
0001
0010
1000
0010
0001
,
1010
0100
0001
0010
0110
1000
0100
0010
,
0011
0101
0110
1000
0010
0001
0100
1000
,
0101
0010
0100
1000
1001
0001
0010
0100
,
1100
1010
0110
0001
0100
1000
0010
0001
,
2002
3003
0000
0000
0000
0000
0000
0000
0000
0000
0000
0000
0000
0000
0000
0000
;
