#TITLE:Further;
#SUBTITLE:;
#ARTIST:Doin;
#TITLETRANSLIT:;
#SUBTITLETRANSLIT:;
#ARTISTTRANSLIT:;
#GENRE:;
#CREDIT:;
#BANNER:;
#BACKGROUND:Further-bg.png;
#LYRICSPATH:;
#CDTITLE:;
#MUSIC:Further.mp3;
#OFFSET:-0.169000;
#SAMPLESTART:10.375000;
#SAMPLELENGTH:9.897000;
#SELECTABLE:YES;
#BPMS:0.000000=194.000000
;
#STOPS:
;
#BGCHANGES:;
#KEYSOUNDS:;
#ATTACKS:;

//---------------dance-single - ----------------
#NOTES:
     dance-single:
     :
     Hard:
     14:
     1.121804,1.315929,0.110004,0.812341,1.218511,928.000000,915.000000,13.000000,96.000000,0.000000,0.000000,1.121804,1.315929,0.110004,0.812341,1.218511,928.000000,915.000000,13.000000,96.000000,0.000000,0.000000:
// measure 0
0000
0000
0000
0000
,  // measure 1
0000
0000
0000
0000
,  // measure 2
0000
0000
0000
0000
,  // measure 3
0000
0000
0000
0000
,  // measure 4
0000
0000
0000
0000
,  // measure 5
0000
0000
0000
0000
,  // measure 6
0000
0000
0000
0000
,  // measure 7
0000
0000
0000
0000
,  // measure 8
0000
0000
1000
0100
0010
0002
0000
1003
,  // measure 9
0001
0000
0000
0000
0001
0000
0010
0000
0100
0000
2000
0000
0000
0000
3001
0010
,  // measure 10
0100
1000
0001
0100
0010
2000
3000
1000
,  // measure 11
0001
0000
1000
0010
0100
0002
0003
0001
,  // measure 12
0010
0001
1000
0100
1000
0002
0000
0013
,  // measure 13
0100
0000
0000
0000
1000
0000
0010
0000
0100
0000
0020
0000
0030
0000
0001
0100
,  // measure 14
0010
1000
0100
0001
0010
0200
0000
1300
,  // measure 15
0010
0000
0001
1000
0010
0100
0001
0010
,  // measure 16
0001
0100
1010
0100
0010
0020
0030
0001
,  // measure 17
0010
0000
0000
0000
1000
0000
0100
0000
0010
0000
0200
0000
0000
0000
1300
0001
,  // measure 18
0100
0010
0001
0010
0001
2000
3000
1000
,  // measure 19
0010
0000
0001
0010
0001
1000
0001
0100
,  // measure 20
0001
0010
0100
1000
0100
0020
0000
0031
,  // measure 21
1000
0000
0000
0000
0001
0000
0001
0000
0100
0000
0020
0000
0000
0000
1030
0010
,  // measure 22
0100
0001
0010
0100
1000
0010
0100
0001
,  // measure 23
1001
1000
1001
0010
0110
0100
0110
0001
,  // measure 24
1001
1000
1001
0002
2003
3000
2000
3020
,  // measure 25
0030
0001
0200
0300
0000
2000
3200
0320
,  // measure 26
0032
0013
0010
0100
1000
0001
0100
0010
,  // measure 27
1000
0100
0010
0001
0100
0001
1000
0010
,  // measure 28
0100
0010
1000
0100
0010
0001
0010
0100
,  // measure 29
0010
0001
1000
0100
0010
0001
0100
0010
,  // measure 30
1000
0001
0100
0010
1000
0100
0010
0001
,  // measure 31
0010
0100
0010
0001
0100
0010
0100
0001
,  // measure 32
1000
0100
0010
0001
1000
0100
1000
0001
,  // measure 33
0100
0000
0010
0000
0200
0301
0100
0001
0100
0001
0020
0031
0010
0001
0010
0001
,  // measure 34
0200
0301
0100
0001
0100
0001
0020
0031
0010
0001
0010
0001
0200
0301
0100
0001
,  // measure 35
0100
0001
0020
0031
0010
0001
0010
0001
0200
0301
0100
0001
0100
0001
0020
0031
,  // measure 36
0010
0001
0010
0001
0010
0000
0001
0000
0010
0000
0001
0000
0100
0000
0010
0000
,  // measure 37
1000
0000
0010
0000
0020
1030
0010
1000
0010
1000
0200
1300
0100
1000
0100
1000
,  // measure 38
0020
1030
0010
1000
0010
1000
0200
1300
0100
1000
0100
1000
0020
1030
0010
1000
,  // measure 39
0010
1000
0200
1300
0100
1000
0100
1000
0020
1030
0010
1000
0010
1000
0200
1300
,  // measure 40
0100
1000
0100
1000
0100
0000
1000
0000
0010
0000
0100
0000
0001
0000
1000
0000
,  // measure 41
0010
0000
0100
0000
0002
1003
0001
1000
0001
1000
0200
1300
0100
1000
0100
1000
,  // measure 42
0002
1003
0001
1000
0001
1000
0200
1300
0100
1000
0100
1000
0002
1003
0001
1000
,  // measure 43
0001
1000
0200
1300
0100
1000
0100
1000
0002
1003
0001
1000
0001
1000
0200
0310
,  // measure 44
0100
0010
0100
0010
0100
0000
1000
0000
0001
0000
0100
0000
0010
0000
1000
0000
,  // measure 45
0010
0000
1000
0000
2000
3001
1000
0001
1000
0001
0020
0031
0010
0001
0010
0001
,  // measure 46
2000
3001
1000
0001
1000
0001
0020
0031
0010
0001
0010
0001
2000
3001
1000
0001
,  // measure 47
1000
0001
0020
0031
0010
0001
0010
0001
2000
3001
1000
0001
1000
0001
0020
0130
,  // measure 48
0010
0100
0010
0100
0010
0000
0010
0000
1000
0000
0200
0000
0300
0000
0001
0000
,  // measure 49
0010
0000
0000
0000
1000
0000
0010
0000
0100
0000
0002
0000
0000
0000
1003
0100
,  // measure 50
0010
0010
0001
0100
0010
2000
0000
3001
,  // measure 51
1000
0000
1000
0010
0100
0010
0100
0001
,  // measure 52
0010
0100
1000
0010
0100
0200
0000
0301
,  // measure 53
1000
0000
0000
0000
1000
0000
0100
0000
0010
0000
0002
0000
0003
0000
0001
1000
,  // measure 54
0010
0100
0001
1000
0100
0020
0030
0001
,  // measure 55
0010
0000
1000
0010
0100
0001
0010
0100
,  // measure 56
0010
0100
1001
1000
0010
0020
0030
0001
,  // measure 57
0100
0000
0000
0000
1000
0000
0001
0000
0010
0000
0020
0000
0030
0000
1000
0100
,  // measure 58
1000
0100
0010
0001
0100
0200
0300
0010
,  // measure 59
1000
0000
1000
0100
0010
0001
0100
0010
,  // measure 60
0100
0010
1000
0010
0100
0002
0003
0010
,  // measure 61
0100
0000
0000
0000
1000
0000
0010
0000
0100
0000
0002
0000
0000
0000
0013
0001
,  // measure 62
0010
0001
0010
0100
1000
0200
0300
0100
,  // measure 63
1001
1000
1001
0001
1001
1000
1001
0100
,  // measure 64
1001
0000
0010
0000
0200
1300
0001
1000
0001
1000
0001
0020
0031
1000
0001
1000
,  // measure 65
0200
1300
0001
1000
0001
1000
0001
0020
0031
1000
0001
1000
0200
1300
0001
1000
,  // measure 66
0001
1000
0001
0020
0031
1000
0001
1000
0200
1300
0001
1000
0001
1000
0001
0010
,  // measure 67
0001
0010
0100
1000
0020
1030
0001
1000
0001
1000
0001
0200
0301
1000
0001
1000
,  // measure 68
0020
1030
0001
1000
0001
1000
0001
0200
0301
1000
0001
1000
0020
1030
0001
1000
,  // measure 69
0001
1000
0001
0200
0301
1000
0001
1000
0020
1030
0001
1000
0001
1000
0100
1000
,  // measure 70
0100
0010
0001
0100
0002
0103
0010
0100
0010
2000
3010
0100
0010
0100
0010
0100
,  // measure 71
0002
0103
0010
0100
0010
2000
3010
0100
0010
0100
0010
0100
0002
0103
0010
0100
,  // measure 72
0010
2000
3010
0100
0010
0100
0010
0100
0002
0103
0010
0100
0010
0100
0001
0100
,  // measure 73
0001
0100
0010
1000
0002
0013
0100
0010
0100
0010
0100
2000
3100
0010
0100
0010
,  // measure 74
0002
0013
0100
0010
0100
0010
0100
2000
3100
0010
0100
0010
0002
0013
0100
0010
,  // measure 75
0100
0010
0100
2000
3100
0010
0100
0010
0002
0013
0100
0010
0100
0010
0100
1000
,  // measure 76
0100
1000
0100
1000
0100
0000
1000
0000
1000
0000
0100
0000
0010
0000
0001
0000
,  // measure 77
1000
0000
0001
0000
1000
0100
1000
0100
1000
0100
0010
0001
0010
0001
0010
0001
,  // measure 78
1000
0010
1000
0010
1000
0010
0100
0001
0100
0001
0100
0001
0100
0010
0100
0010
,  // measure 79
0100
0010
1000
0001
1000
0001
1000
0001
1000
0100
1000
0100
1000
0100
0020
0031
,  // measure 80
0010
0001
0010
0001
0010
0000
0001
0000
0100
0000
0010
0000
1000
0000
0001
0000
,  // measure 81
1000
0000
0001
0000
1000
0010
1000
0010
1000
0010
0100
0001
0100
0001
0100
0001
,  // measure 82
1000
0100
1000
0100
1000
0100
0010
0001
0010
0001
0010
0001
1000
0001
1000
0001
,  // measure 83
1000
0001
0100
0010
0100
0010
0100
0010
1000
0010
1000
0010
1000
0010
0200
0301
,  // measure 84
0100
0001
0100
0001
0100
0000
0010
0000
1000
0000
0001
0000
0010
0000
0100
0000
,  // measure 85
1000
0000
0001
0000
1000
0100
1000
0100
1000
0100
1000
0010
1000
0010
1000
0010
,  // measure 86
0100
0001
0100
0001
0100
0001
0010
0001
0010
0001
0010
0001
1000
0001
1000
0001
,  // measure 87
1000
0001
0100
0010
1000
0000
0001
0000
1000
0000
1000
0000
1000
0001
1000
0001
,  // measure 88
1000
0001
1000
0001
1000
0000
0100
0000
0010
0000
0001
0000
1000
0000
0010
0000
,  // measure 89
0100
0000
0001
0000
1000
0100
1000
0100
1000
0010
0100
0001
0010
0001
0010
0001
,  // measure 90
1000
0100
0010
0001
0100
0010
0100
0010
1000
0100
0010
0001
1000
0100
1000
0100
,  // measure 91
1000
0010
0100
0001
0010
0001
0100
0010
1000
0100
1000
0010
2000
0000
0000
0000
,  // measure 92
0000
0000
0000
0000
,  // measure 93
0000
0000
0000
0000
,  // measure 94
0000
3000
0000
0000
;
