#VERSION:0.83;
#TITLE:Flew Far Faster;
#SUBTITLE:;
#ARTIST:Doin;
#TITLETRANSLIT:;
#SUBTITLETRANSLIT:;
#ARTISTTRANSLIT:;
#GENRE:;
#CREDIT:;
#MUSIC:Flew Far Faster.ogg;
#BANNER:Flew Far Faster-bn.png;
#BACKGROUND:Flew Far Faster-bg.png;
#CDTITLE:;
#SAMPLESTART:9.816;
#SAMPLELENGTH:28.800;
#SELECTABLE:YES;
#OFFSET:-0.216;
#BPMS:0.000=200.000;
#STOPS:;
#BGCHANGES:-0.216=Flew Far Faster.avi=1.000=0=0=0=StretchNoLoop====,
99999.000=-nosongbg-=1.000=0=0=0=StretchNoLoop====
;
#FGCHANGES:;

//--------------- dance-single - ----------------
#NOTEDATA:;
#STEPSTYPE:dance-single;
#DESCRIPTION:;
#DIFFICULTY:Beginner;
#METER:9;
#RADARVALUES:0,0,0,0,0;
#NOTES:
0000
0000
0000
0000
,
0000
0000
0000
0000
,
0000
0000
0000
0000
,
0000
0000
0000
0000
,
0000
0000
0000
0000
,
0000
0000
0000
0000
,
0000
0000
0000
0000
,
0000
0000
0000
0000
,
1000
0000
0100
0000
0010
0001
1000
0000
,
1000
0000
0010
0000
0100
0001
1000
0000
,
0001
0000
0010
0000
0100
1000
0001
0000
,
0001
0000
0100
0000
0010
1000
0001
0000
,
1000
0000
0001
0000
0010
0100
1000
0000
,
1000
0000
0001
0000
0100
0010
1000
0000
,
0001
0000
1000
0000
0100
0010
0001
0000
,
0001
0000
1000
0002
0000
0000
0000
0003
,
1000
0000
0100
0000
,
0010
0000
0001
0000
,
1000
0000
0100
0000
,
0010
0000
0001
0000
,
1000
0000
0010
0000
,
0100
0000
0001
0000
,
1000
0000
0010
0000
,
0100
0000
0001
0000
,
1000
0000
0100
0000
,
0010
0000
0100
0000
,
1000
0000
0100
0000
,
0010
0000
0100
0000
,
1000
0000
0010
0000
,
0100
0000
0010
0000
,
1000
0000
0010
0000
,
0100
0000
0010
0000
,
1000
0000
0000
0000
,
1000
0100
0010
0001
,
1000
0100
0010
0001
,
1000
0100
0010
0001
,
1000
0010
0100
0001
,
1000
0010
0100
0001
,
1000
0010
0100
0001
,
1000
0100
0010
0001
,
1000
0000
0100
0000
0010
0100
1000
0000
,
0001
0000
0010
0000
0100
0010
0001
0000
,
1000
0000
0010
0000
0100
0010
1000
0000
,
0001
0000
0100
0000
0010
0100
0001
0000
,
1000
0000
0100
0000
0010
0001
0010
0000
,
0001
0000
0010
0000
0100
1000
0100
0000
,
1000
0000
0001
0000
0100
0010
0100
0000
,
0001
0000
1000
0002
0000
0000
0000
0003
,
2000
0000
0000
0000
,
0000
0000
0000
0000
,
0000
0000
0000
0000
,
0000
0000
0000
0000
,
0000
0000
0000
0000
,
0000
0000
0000
0000
,
0002
0000
0000
0000
,
0000
0000
0000
0000
,
3003
0000
0000
0000
,
0000
0000
0000
0000
,
1000
0100
0010
0001
1000
0100
0010
0001
,
1000
0010
0100
0001
1000
0010
0100
0001
,
1000
0100
0010
0100
1000
0100
0010
0100
,
1000
0010
0100
0010
1000
0010
0100
0010
,
1000
0100
0010
0001
1000
0100
0010
0001
,
1000
0010
0100
0001
1000
0010
0100
0001
,
1000
0100
0010
0100
1000
0100
0010
0100
,
1000
0010
0100
0010
1000
0010
0100
0010
,
1000
0010
0100
0001
1000
0010
0100
0001
,
1000
0100
0010
0001
1000
0100
0010
0001
,
1000
0010
0100
0010
1000
0010
0100
0010
,
1000
0100
0010
0100
1000
0100
0010
0100
,
1000
0010
0100
0001
1000
0010
0100
0001
,
1000
0100
0010
0001
1000
0100
0010
0001
,
1000
0010
0100
0010
1000
0010
0100
0010
,
1000
0100
0010
0100
1000
0100
0010
0100
,
1000
0100
0010
0100
1000
0100
0010
0001
,
1000
0010
0100
0010
1000
0100
0010
0001
,
1000
0100
0010
0100
1000
0010
0100
0001
,
1000
0010
0100
0010
1000
0010
0100
0001
,
1000
0100
0010
0100
1000
0010
0100
0001
,
1000
0100
0010
0001
1000
0010
0100
0010
,
1000
0100
0010
0001
1000
0010
0100
0010
,
1000
0100
0010
0100
1000
0010
0100
0001
,
1000
0000
0100
0000
,
0010
0000
0001
0000
,
1000
0000
0010
0000
,
0100
0000
0001
0000
,
1000
0000
0000
0000
,
0100
0000
0000
0000
,
0010
0000
0000
0000
,
0002
0000
0000
0000
,
0003
0000
0000
0000
;

//--------------- dance-single - ----------------
#NOTEDATA:;
#STEPSTYPE:dance-single;
#DESCRIPTION:;
#DIFFICULTY:Easy;
#METER:10;
#RADARVALUES:0,0,0,0,0;
#OFFSET:-0.216;
#BPMS:0.000=200.000
,64.000=100.000
,96.000=200.000
,160.000=100.000
,180.000=200.000
,276.000=100.000
;
#NOTES:
0000
0000
0000
0000
,
0000
0000
0000
0000
,
0000
0000
0000
0000
,
0000
0000
0000
0000
,
1000
0100
0010
0001
,
1000
0100
0010
0001
,
1000
0010
0100
0001
,
1000
0010
0100
0001
,
1000
0100
0010
0001
0010
0100
1000
0000
,
0001
0010
0100
1000
0100
0010
0001
0000
,
1000
0010
0100
0001
0100
0010
1000
0000
,
0001
0100
0010
1000
0010
0100
0001
0000
,
1000
0100
0010
0001
0100
0010
1000
0000
,
0001
0010
0100
1000
0010
0100
0001
0000
,
1000
0010
0100
0001
0010
0100
1000
0000
,
0001
0100
0010
1000
0000
0000
0000
0000
,
1000
0100
0010
0001
1000
0100
0010
0001
,
1000
0100
0010
0001
1000
0100
0010
0001
,
1000
0010
0100
0001
1000
0010
0100
0001
,
1000
0010
0100
0001
1000
0010
0100
0001
,
1000
0100
0010
0100
1000
0100
0010
0100
,
1000
0100
0010
0001
1000
0100
0010
0001
,
1000
0010
0100
0010
1000
0010
0100
0010
,
1000
0010
0100
0001
1000
0010
0100
0001
,
1000
0100
0010
0001
,
1000
0100
0010
0100
1000
0100
0010
0000
,
0001
0010
0100
0010
0001
0010
0100
0000
,
1000
0010
0100
0010
1000
0010
0100
0000
,
0001
0100
0010
0100
0001
0100
0010
0000
,
1000
0100
0010
0100
1000
0010
0100
0000
,
0001
0010
0100
0010
0001
0100
0010
0000
,
1000
0000
0010
0000
0100
0000
0001
0000
1000
0001
1000
0000
0001
1000
0001
0000
,
1000
0100
0010
0001
0100
0010
1000
0000
,
0001
0010
0100
1000
0010
0100
0001
0000
,
1000
0010
0100
0001
0010
0100
1000
0000
,
0001
0100
0010
1000
0100
0010
0001
0000
,
1000
0100
0010
0001
0010
0100
0010
0000
,
0001
0010
0100
1000
0100
0010
0100
0000
,
1000
0010
0100
1000
0100
0010
1000
0000
,
1000
0010
0100
0001
0000
0000
0000
0000
,
1000
0100
0010
0000
,
0001
0010
0100
0000
,
1000
0001
1000
0000
,
2002
0000
0000
0000
,
3003
0000
0000
0000
,
1000
0100
1000
0000
0100
0000
0010
0000
0001
0000
0010
0000
0100
0000
1000
0000
,
0001
0010
0001
0000
0010
0000
0100
0000
1000
0000
0100
0000
0010
0000
0001
0000
,
1000
0010
1000
0000
0010
0000
0100
0000
0001
0000
0100
0000
0010
0000
1000
0000
,
0001
0100
0001
0000
0100
0000
0010
0000
1000
0000
0010
0000
0100
0000
0001
0000
,
1000
0010
1000
0000
0010
0000
0100
0000
0001
0000
0010
0000
0100
0000
1000
0000
,
0001
0100
0001
0000
0100
0000
0010
0000
1000
0000
0100
0000
0010
0000
0001
0000
,
1000
0100
1000
0000
0100
0000
0010
0000
0001
0000
0100
0000
0010
0000
1000
0000
,
0001
0010
0001
0000
0010
0000
0100
0000
1000
0010
0100
0000
0010
0100
0001
0000
,
1000
0100
1000
0000
0100
0000
0010
0000
0100
0000
1000
0000
0100
0000
0010
0000
,
0001
0010
0001
0000
0010
0000
0100
0000
0010
0000
0001
0000
0010
0000
0100
0000
,
1000
0010
1000
0000
0010
0000
0100
0000
0010
0000
1000
0000
0010
0000
0100
0000
,
0001
0100
0001
0000
0100
0000
0010
0000
0100
0000
0001
0000
0100
0000
0010
0000
,
1000
0100
1000
0000
0100
0000
0010
0000
0100
0000
1000
0000
0010
0000
0100
0000
,
0001
0010
0001
0000
0010
0000
0100
0000
0010
0000
0001
0000
0100
0000
0010
0000
,
1000
0010
1000
0000
0010
0000
0100
0000
0010
0000
1000
0000
0100
0000
0010
0000
,
0001
0100
0001
0000
0100
0000
0010
0000
0100
0000
0001
0000
0010
0000
0100
0000
,
1000
0100
1000
0000
0100
0000
1000
0000
0100
0000
0010
0000
0100
0000
0010
0000
,
0001
0010
0001
0000
0010
0000
0001
0000
0010
0000
0100
0000
0010
0000
0100
0000
,
1000
0010
1000
0000
0010
0000
1000
0000
0010
0000
0100
0000
0010
0000
0100
0000
,
0001
0010
0001
0000
0100
0000
0001
0000
0100
0000
0010
0000
0100
0000
0010
0000
,
1000
0100
0010
0001
0010
0000
0100
0000
0010
0000
0001
0000
0010
0000
0001
0000
,
0001
0010
0100
1000
0100
0000
0010
0000
0100
0000
1000
0000
0100
0000
1000
0000
,
1000
0010
0100
0001
0100
0000
0010
0000
0100
0000
0001
0000
0100
0000
0001
0000
,
0001
0100
0010
1000
0010
0000
0100
0000
0010
0000
1000
0000
0010
0000
1000
0000
,
1000
0000
0100
0000
0010
0000
0001
0000
1000
0000
0010
0000
0100
0001
0100
0000
,
1000
0000
0010
0000
0100
0000
0001
0000
1000
0000
0100
0000
0010
0001
0010
0000
,
1000
0000
0000
1000
0000
0000
0000
0000
0001
0000
0000
0001
0000
0000
0000
0000
,
1000
0000
0000
1000
0000
0000
0000
1000
0002
0000
0000
0000
0000
0000
0000
0000
,
0003
0000
0000
0000
;

//--------------- dance-single - ----------------
#NOTEDATA:;
#STEPSTYPE:dance-single;
#DESCRIPTION:;
#DIFFICULTY:Medium;
#METER:12;
#RADARVALUES:0,0,0,0,0;
#OFFSET:-0.216;
#BPMS:0.000=100.000
,16.000=400.000
,80.000=200.000
,176.000=400.000
,240.000=100.000
,256.000=200.000
,264.000=400.000
,456.000=200.000
,472.000=100.000
;
#NOTES:
0000
0000
0000
0000
,
0000
0000
0000
0000
,
0000
0000
0000
0000
,
0000
0000
0000
0000
,
1000
0100
0010
0001
,
1000
0001
0010
0100
1000
0000
0001
0000
,
1000
0010
0100
0001
,
1000
0001
0100
0010
1000
0000
0001
0000
,
1000
0100
0010
0001
,
1000
0001
0100
0010
1000
0000
0001
0000
,
1000
0010
0100
0001
,
1000
0001
0010
0100
1000
0000
0001
0000
,
1000
0100
0010
0100
,
1000
0100
0010
0001
0100
0000
0010
0000
,
1000
0010
0100
0010
,
1000
0010
0100
0001
0010
0000
0100
0000
,
1000
0100
0010
0100
,
1000
0010
0100
0001
0010
0000
0100
0000
,
1000
0010
0100
0001
,
0000
0000
0000
0000
,
1000
0100
0010
0001
,
1000
0100
1000
0100
0010
0001
0010
0001
,
1000
0010
0100
0001
,
1000
0010
1000
0010
0100
0001
0100
0001
,
1000
0100
0010
0001
,
1000
0010
1000
0010
0100
0001
0100
0001
,
1000
0010
0100
0001
,
1000
0100
1000
0100
0010
0001
0010
0001
,
1000
0100
0010
0100
,
1000
0100
1000
0100
1000
0010
1000
0010
,
1000
0010
0100
0010
,
1000
0010
1000
0010
1000
0100
1000
0100
,
1000
0100
0010
0100
,
1000
0100
1000
0100
0010
0001
0010
0001
,
1000
0010
0100
0010
,
1000
0010
1000
0010
0100
0001
0100
0001
,
1000
0100
0010
0100
1000
0100
0010
0100
,
1000
0100
0010
0100
1000
0100
0010
0100
,
1000
0100
0010
0100
1000
0100
0010
0100
,
1000
0100
0010
0100
1000
0100
0010
0100
,
1000
0010
0100
0010
1000
0010
0100
0010
,
1000
0010
0100
0010
1000
0010
0100
0010
,
1000
0010
0100
0010
1000
0010
0100
0010
,
1000
0010
0100
0010
1000
0010
0100
0010
,
1000
0000
0100
0000
0010
0000
0001
0010
,
0100
1000
0100
0010
0001
0000
0010
0000
,
0100
0000
1000
0000
0100
0000
0010
0001
,
0010
0100
1000
0100
0010
0000
0001
0000
,
1000
0000
0010
0000
0100
0000
0001
0100
,
0010
1000
0010
0100
0001
0000
0100
0000
,
0010
0000
1000
0000
0010
0000
0100
0001
,
0100
0010
1000
0010
0100
0000
0001
0000
,
1000
0000
0100
0000
0010
0000
0001
0100
,
0010
1000
0010
0100
0001
0000
0010
0000
,
0100
0000
1000
0000
0100
0000
0010
0001
,
0100
0010
1000
0100
0010
0000
0001
0000
,
1000
0000
0010
0000
0100
0000
0001
0010
,
0100
1000
0100
0010
0001
0000
0100
0000
,
0010
1000
0100
0010
,
0000
0000
0000
0000
,
0001
0010
0100
1000
,
1000
0010
0100
0001
,
1000
0100
0010
0001
,
2002
0000
0000
0000
,
3003
0000
0000
0000
,
0000
0000
0000
0000
,
1000
0100
0010
0001
,
1000
0100
1000
0100
0001
0100
0001
0000
,
1000
0010
0100
0001
,
1000
0010
1000
0010
0001
0010
0001
0000
,
1000
0100
0010
0001
,
1000
0100
1000
0100
0001
0100
0001
0000
,
1000
0010
0100
0001
,
1000
0010
1000
0010
0001
0010
0001
0000
,
1000
0100
0010
0001
,
1000
0010
1000
0010
0001
0010
0001
0000
,
1000
0010
0100
0001
,
1000
0100
1000
0100
0001
0100
0001
0000
,
1000
0100
0010
0001
,
1000
0010
1000
0010
0001
0010
0001
0000
,
1000
0010
0100
0001
,
1000
0100
1000
0100
0001
0100
0001
0000
,
1000
0100
0010
0100
,
1000
0100
1000
0100
0010
0001
0010
0000
,
0001
0010
0100
0010
,
0001
0010
0001
0010
0100
1000
0100
0000
,
1000
0010
0100
0010
,
1000
0010
1000
0010
0100
0001
0100
0000
,
0001
0100
0010
0100
,
0001
0100
0001
0100
0010
1000
0010
0000
,
1000
0100
0010
0100
,
1000
0010
1000
0010
0100
0001
0100
0000
,
0001
0010
0100
0010
,
0001
0100
0001
0100
0010
1000
0010
0000
,
1000
0010
0100
0010
,
1000
0100
1000
0100
0010
0001
0010
0000
,
0001
0100
0010
0100
,
0001
0010
0001
0010
0100
1000
0100
0000
,
1000
0100
0010
0001
,
1000
0100
1000
0100
0010
0001
0010
0001
,
1000
0010
0100
0001
,
1000
0010
1000
0010
0100
0001
0100
0001
,
1000
0100
0010
0001
,
1000
0010
1000
0010
0100
0001
0100
0001
,
1000
0010
0100
0001
,
1000
0100
1000
0100
0010
0001
0010
0001
,
1000
0100
0010
0100
,
1000
0100
0010
0001
1000
0010
0100
0001
,
1000
0010
0100
0010
,
1000
0010
0100
0001
1000
0100
0010
0001
,
1000
0100
0010
0100
,
1000
0010
0100
0001
1000
0100
0010
0001
,
1000
0010
0100
0010
,
1000
0100
0010
0001
1000
0010
0100
0001
,
1000
0000
0100
0000
0010
0000
0100
0000
1000
0100
1000
0000
0001
0100
0001
0000
,
1000
0000
0010
0000
0100
0000
0010
0000
1000
0010
1000
0000
0001
0010
0001
0000
,
1000
0000
0100
0000
0010
0000
0001
0000
1000
0100
0010
0000
0001
0010
0100
0000
,
1000
0000
0010
0000
0100
0000
0001
0000
1000
0010
0100
0000
0001
0100
0010
0000
,
2000
0100
0100
0100
3002
0100
0100
0100
,
1003
0000
0010
0000
0100
0000
0001
0001
2000
0000
0000
0000
0000
0000
0000
0000
,
3000
0000
0000
0000
;

//--------------- dance-single - ----------------
#NOTEDATA:;
#STEPSTYPE:dance-single;
#DESCRIPTION:;
#DIFFICULTY:Hard;
#METER:13;
#RADARVALUES:0,0,0,0,0;
#OFFSET:-0.216;
#BPMS:0.000=200.000
,64.000=100.000
,98.000=200.000
,158.000=100.000
,178.000=200.000
,180.000=400.000
,184.000=200.000
,186.000=400.000
,190.000=200.000
,192.000=400.000
,196.000=200.000
,198.000=400.000
,202.000=200.000
,203.000=400.000
,209.000=200.000
,210.000=400.000
,216.000=200.000
,217.000=400.000
,223.000=200.000
,229.000=400.000
,233.000=200.000
,235.000=400.000
,239.000=200.000
,241.000=400.000
,245.000=200.000
,247.000=400.000
,251.000=200.000
,253.000=400.000
,257.000=200.000
,259.000=400.000
,263.000=200.000
,265.000=400.000
,269.000=200.000
,271.000=400.000
,275.000=200.000
,277.000=400.000
,281.000=200.000
,283.000=400.000
,287.000=200.000
,289.000=400.000
,293.000=200.000
,295.000=400.000
,331.000=100.000
,345.000=50.000
;
#NOTES:
1000
0100
0010
0001
1000
0100
0010
0001
,
1000
0100
0010
0001
1000
0100
0010
0001
,
1000
0010
0100
0001
1000
0010
0100
0001
,
1000
0010
0100
0001
1000
0010
0100
0001
,
1000
0100
0010
0001
1000
0100
0010
0001
,
1000
0100
0010
0001
1000
0100
0010
0001
,
1000
0010
0100
0001
1000
0010
0100
0001
,
1000
0010
0100
0001
1000
0010
0100
0001
,
1000
0000
0100
0000
0010
0000
0001
0010
0001
0000
1000
0010
1000
0000
0001
0000
,
1000
0000
0010
0000
0100
0000
0001
0100
0001
0000
1000
0100
1000
0000
0001
0000
,
1000
0000
0100
0000
0010
0000
0001
0100
0010
0000
1000
0010
0100
0000
0001
0000
,
1000
0000
0010
0000
0100
0000
0001
0010
0100
0000
1000
0100
0010
0000
0001
0000
,
1000
0000
0010
0000
0100
0000
1000
0010
1000
0000
0001
0010
0001
0000
1000
0000
,
0001
0000
0100
0000
0010
0000
0001
0100
0001
0000
1000
0100
1000
0000
0001
0000
,
1000
0000
0010
0000
0100
0000
0001
0010
0100
0000
1000
0010
0100
0000
0001
0000
,
1000
0100
0010
0002
0000
0000
0003
0000
,
1000
0000
0100
0000
0000
0000
0010
0000
0001
0000
0000
0000
0010
0000
0100
0000
1000
0100
1000
0000
0001
0100
0001
0000
1000
0010
1000
0000
0001
0010
0001
0000
,
1000
0000
0010
0000
0000
0000
0100
0000
0001
0000
0000
0000
0100
0000
0010
0000
1000
0010
1000
0000
0001
0010
0001
0000
1000
0100
1000
0000
0001
0100
0001
0000
,
1000
0000
0100
0000
0010
0000
0100
0000
1000
0100
0010
0000
0001
0100
0010
0000
1000
0100
0010
0001
0010
0100
1000
0000
0001
0000
0010
0000
0100
0000
0000
0000
,
1000
0100
0000
0010
0001
0000
0100
0010
1000
0010
0000
0100
0001
0010
0100
1000
,
0001
0000
0010
0000
0000
0000
0100
0000
1000
0000
0000
0000
0100
0000
0010
0000
0001
0010
0001
0000
1000
0010
1000
0000
0001
0100
0001
0000
1000
0100
1000
0000
,
0001
0000
0100
0000
0000
0000
0010
0000
1000
0000
0000
0000
0010
0000
0100
0000
0001
0100
0001
0000
1000
0100
1000
0000
0001
0010
0001
0000
1000
0010
1000
0000
,
0001
0000
0010
0000
0100
0000
0010
0000
0001
0010
0100
0000
1000
0010
0100
0000
0001
0010
0100
1000
0100
0010
0001
0000
1000
0000
0100
0000
0010
0000
0000
0000
,
0001
0010
0000
0100
1000
0000
0010
0100
0001
0100
0000
0010
1000
0100
0010
0001
,
2000
3200
0320
0032
2003
3020
0230
0302
1003
0000
0100
0000
0010
0000
0001
0100
,
0001
0100
0001
0000
0010
0000
0100
0000
1000
0000
0010
0000
0100
0000
0001
0010
,
0001
0010
0001
0000
0100
0000
0010
0000
1000
0000
0100
0000
0010
0000
0001
0100
,
0001
0100
0001
0000
0100
0000
0010
0000
1000
0000
0010
0000
0100
0000
0001
0010
,
0001
0010
0001
0000
0100
0000
0010
0000
1000
0000
0100
0000
0010
0000
0001
0100
,
0001
0100
0001
0000
0010
0000
0100
0000
1000
0000
0010
0000
0100
0000
0001
0010
,
0001
0010
0001
0000
0010
0000
0100
0000
1000
0000
0100
0000
0010
0000
0001
0000
,
0100
0010
0100
0010
0100
0010
0100
0010
1000
0000
0100
0000
0010
0000
0001
0010
,
0100
1000
0100
0010
0001
0000
0010
0000
1000
0000
0010
0000
0100
0000
0001
0100
,
0010
1000
0010
0100
0001
0000
0100
0000
1000
0000
0100
0000
0010
0000
0001
0010
,
0100
1000
0010
0100
0001
0000
0010
0000
1000
0000
0010
0000
0100
0000
0001
0100
,
0010
1000
0100
0010
0001
0000
0100
0000
1000
0000
0100
0000
0010
0000
0001
0010
,
0100
0010
0001
0010
0100
0000
1000
0000
0001
0000
0010
0000
0100
0000
1000
0100
,
0010
0100
1000
0100
0010
0000
0001
0000
1000
0000
0010
0000
0100
0000
0001
0100
,
0010
0100
0001
0100
0010
0000
1000
0000
0001
0000
0010
0000
0100
0000
2000
0000
,
0000
0000
0000
0000
0000
0000
3000
0000
1000
0100
0000
0010
0001
0000
0000
0100
,
1000
0010
0100
0001
1000
0100
0010
0001
1000
0010
0000
0100
0001
0000
0100
0010
,
1000
0100
0010
0001
1000
0010
0100
0001
1000
0100
0000
0100
0001
0000
0000
0001
,
1000
0000
0100
0000
0010
0000
0001
0010
2000
0000
0000
0000
0000
0000
0000
0000
,
3002
0000
0000
0003
0220
0000
0000
0000
,
0000
0000
0000
0330
2000
0000
3200
0320
,
0031
0010
0100
1000
0100
0010
0001
1000
,
0002
0000
0023
0230
1300
0100
0010
0001
,
0010
0100
1000
0001
2000
0000
3020
0230
,
0301
0100
0010
1000
0010
0100
0001
1000
,
0002
0000
0203
0320
1030
0010
0100
0001
,
0100
0010
1000
0001
2000
0000
3001
0010
,
0100
1000
0100
0010
0001
0100
0010
1000
,
0010
0100
0002
0000
1003
0010
0100
0001
,
0100
0010
1000
0100
0010
0001
0010
0100
,
2000
0000
3001
0010
0100
1000
0010
0100
,
0001
0100
0010
1000
0100
0010
0002
0023
,
0230
0000
2300
0000
3100
0010
0100
0010
0100
0010
0100
0010
0200
0000
0302
0000
,
0023
0230
1300
0100
0010
0001
0100
0010
,
1000
0100
0020
0032
0203
0320
1030
0010
,
0100
0001
0010
0100
1000
0010
0200
0302
,
0023
0230
1300
0010
0100
0001
0010
0100
,
1000
0010
0200
0302
0203
0320
1030
0100
,
0010
0000
0001
0000
0100
0000
0010
0000
1000
0000
0100
0000
0010
0001
0010
0001
,
0010
0001
0010
0100
1000
0000
0010
0000
0100
0000
0001
0000
0100
0000
0010
0000
,
1000
0000
0010
0000
0100
0001
0100
0001
0100
0001
0100
0010
1000
0000
0100
0000
,
0010
0000
0001
0000
0010
0000
0100
0000
1000
0000
0100
0000
0010
0001
0010
0001
,
0010
0001
0010
0100
1000
0000
0010
0000
0100
0000
0001
0000
0010
0000
0100
0000
,
1000
0000
0010
0000
0100
0001
0100
0001
0100
0001
0100
0010
1000
0000
0100
0000
,
0010
0001
0100
0010
1000
0100
0020
0000
,
0000
0000
1030
0100
1000
0100
0010
0001
,
0010
0001
0200
0000
0000
0000
1300
0010
,
1000
0010
0100
0001
0100
0001
2000
0000
,
0000
0000
3001
0010
0001
0010
1000
0010
,
1000
0010
0002
0000
0000
0000
1003
0100
,
1000
0100
0001
0100
0001
0100
1000
0010
,
1000
0001
1000
0010
1000
0001
1000
0100
,
0010
0001
0100
0010
1000
0001
0100
0010
,
0100
0001
0100
0010
0100
0001
1000
0010
,
0100
0001
0010
0100
1000
0001
1000
0100
,
1000
0001
1000
0100
1000
0001
1000
0010
,
0100
0001
0010
0100
1000
0001
0010
0100
,
0010
0001
0010
0100
0010
0001
1000
0100
,
0010
0001
0100
0010
1000
0001
1000
0100
,
0011
0000
0001
0000
0010
0000
0000
0000
1000
0010
1000
0010
1000
0000
0000
0000
0101
0000
0001
0000
0100
0000
0001
0000
0010
0000
0001
0000
0100
0000
0000
0000
,
1010
0000
1000
0000
0010
0000
0000
0000
0001
0010
0001
0010
0001
0000
0000
0000
1100
0000
1000
0000
0100
0000
0001
0000
0020
0000
0000
0000
0000
0000
0000
0000
,
0000
0000
0000
0000
2030
0000
0000
0000
0000
0100
0010
0000
3002
0000
0000
0000
,
0000
0000
0003
0000
;

//--------------- dance-single - ----------------
#NOTEDATA:;
#STEPSTYPE:dance-single;
#DESCRIPTION:;
#DIFFICULTY:Challenge;
#METER:14;
#RADARVALUES:0,0,0,0,0;
#OFFSET:-0.216;
#BPMS:0.000=200.000
,33.500=400.000
,36.500=200.000
,39.000=400.000
,42.000=200.000
,44.500=400.000
,47.500=200.000
,50.000=400.000
,53.000=200.000
,55.500=400.000
,58.500=200.000
,61.000=400.000
,64.000=200.000
,66.500=400.000
,69.500=200.000
,71.500=100.000
,107.000=200.000
,136.500=400.000
,139.500=200.000
,142.000=400.000
,145.000=200.000
,147.500=400.000
,150.500=200.000
,153.000=400.000
,156.000=200.000
,158.500=400.000
,161.500=200.000
,164.000=400.000
,167.000=200.000
,169.500=400.000
,172.500=200.000
,174.500=100.000
,176.000=50.000
,184.000=100.000
,188.000=200.000
,284.000=100.000
,292.000=50.000
,295.000=25.000
;
#NOTES:
0000
0000
0000
0000
,
0000
0000
0000
0000
,
0000
0000
0000
0000
,
0000
0000
0000
0000
,
0000
0000
0000
0000
,
0000
0000
0000
0000
,
0000
0000
0000
0000
,
0000
0000
0000
0000
,
1000
0100
0010
0001
0010
0100
1000
0100
,
0010
0001
1000
0001
0010
0100
1000
0100
,
0010
0001
0010
0100
1000
0001
1000
0010
,
0100
0001
0100
0010
1000
0010
0100
0001
,
1000
0001
0100
0010
1000
0010
0100
0001
,
0100
0010
1000
0001
1000
0100
0010
0001
,
0100
0010
1000
0010
0100
0001
1000
0001
,
0100
0010
1000
0100
0010
0001
0010
0100
,
1000
0001
1000
0010
0100
0001
0010
0100
,
1000
0000
0010
0000
0100
0000
0001
0000
1000
0000
0001
0000
0010
0000
0100
2000
,
0000
0000
0000
3000
1000
1000
0000
0010
0010
0000
0100
0100
0100
0000
0001
0000
,
0010
0000
0100
0000
1000
1000
0000
0100
0100
0000
0010
0010
0010
0000
0001
0000
,
0100
0010
1000
0100
0110
0001
1000
0010
,
0110
0000
0000
0000
0001
0000
0000
0000
1000
0000
0100
0000
0010
0000
0001
0000
1000
0000
0010
0000
0100
0000
0001
0000
1000
0100
1000
0100
1000
0000
0100
0000
,
0001
0100
0001
0100
0001
0000
0100
0000
0001
0000
0001
0000
0000
0000
0100
0000
0100
0000
0000
0000
0010
0000
0010
0000
0010
0000
0000
0000
1000
0000
0000
0000
,
0100
0000
0010
0000
0001
0001
0000
0010
0010
0000
0100
0100
0100
0000
1000
0000
,
0010
0100
0001
0010
0110
1000
0001
0100
,
0110
0000
0000
0000
1000
0000
0000
0000
0001
0000
0010
0000
0100
0000
1000
0000
0001
0000
0100
0000
0010
0000
1000
0000
0001
0010
0001
0010
0001
0000
0010
0000
,
1000
0010
1000
0010
1000
0000
0010
0000
0000
0000
0000
0000
0000
0000
0000
0000
0000
0000
0000
0000
0000
0000
0000
0000
2000
0000
0000
0000
3200
0000
0000
0000
,
0320
0032
2003
3200
0320
0032
2003
3020
,
0230
0302
2003
3020
0230
0302
2003
3200
,
0320
0230
2300
3200
0320
0230
2300
3020
,
0230
0302
2003
3020
0230
0302
2003
3200
,
0320
0032
2003
3200
0320
0032
2003
3020
,
0230
0320
2030
3020
0230
0320
2030
3200
,
0320
0000
0032
0000
0103
0010
0100
0010
0100
0010
0100
0010
1000
0000
0100
0000
,
0010
0001
0100
0010
1000
0010
0100
0001
,
0010
1000
0010
0100
0001
0010
0100
1000
,
0100
0010
0001
0100
1000
0010
0100
0001
,
0010
0100
1000
0010
0100
0001
0010
1000
,
0100
0010
0001
0100
0010
1000
0100
0010
,
0001
0100
1000
0010
0100
0001
0010
0100
,
0010
0001
0010
0100
1000
0001
0100
0010
,
1000
0100
0010
0100
1000
0100
0010
0001
,
1000
0100
0010
0001
0100
0010
0100
0001
,
0100
0000
0010
0000
1000
0000
0100
0000
0010
0000
0001
2000
0000
0000
0000
3000
,
1000
2000
0000
0100
3200
0000
0000
0010
0320
0000
0000
0000
0000
0000
0001
0032
0010
0023
0000
0100
0230
0000
1000
2300
0000
0000
3002
0000
0000
0000
1000
2003
,
0010
3020
0000
0100
0230
0000
0000
0001
0302
0000
0000
0000
0000
0000
1000
2003
0002
0000
0000
0000
0000
0000
0000
0000
0000
0000
0000
0000
0000
0000
0000
0000
,
3000
0000
0000
0000
,
1003
0100
1000
0010
0100
0001
0010
0100
1000
0010
0100
0001
1000
0100
0010
0001
,
1000
0010
1000
0100
0010
0001
0100
0010
1000
0100
0010
0001
1000
0010
0100
0001
,
1000
0100
1000
0010
0100
0001
0010
0100
0010
0001
0100
0010
1000
0100
1000
0001
,
1000
0010
1000
0100
0010
0001
0100
0010
0100
0001
0010
0100
1000
0010
1000
0001
,
1000
0100
0010
0001
0100
0010
0100
0001
0010
0100
1000
0010
0100
0001
0010
0100
,
1000
0010
0100
0001
0010
0100
0010
0001
0100
0010
1000
0100
0010
0001
0100
0010
,
1000
0100
0010
0100
1000
0010
0100
0001
0010
0100
0010
0001
0100
0010
1000
0100
,
1000
0010
0100
0010
1000
0100
0010
0001
0100
0010
0100
0001
0010
0100
1000
0010
,
1000
0100
1000
0001
0010
0100
1000
0010
0100
0010
1000
0100
0010
0001
1000
0100
,
1000
0010
1000
0001
0100
0010
1000
0100
0010
0100
1000
0010
0100
0001
1000
0010
,
1000
0100
1000
0001
0100
0010
1000
0100
0010
0001
0010
0100
1000
0010
0100
0001
,
1000
0010
1000
0001
0010
0100
1000
0010
0100
0001
0100
0010
1000
0100
0010
0001
,
1000
0100
0010
0100
1000
0001
0100
0010
1000
0100
0010
0100
1000
0010
0100
0001
,
1000
0010
0100
0010
1000
0001
0010
0100
1000
0010
0100
0010
1000
0100
0010
0001
,
1000
0100
0010
0100
1000
0001
0010
0100
1000
0010
1000
0100
0010
0001
1000
0100
,
1000
0010
0100
0010
1000
0001
0100
0010
1000
0100
1000
0010
0100
0001
1000
0010
,
1000
0100
0010
0100
1000
0100
0010
0001
0100
0010
1000
0001
0010
0100
1000
0010
,
1000
0010
0100
0010
1000
0010
0100
0001
0010
0100
1000
0001
0100
0010
1000
0100
,
1000
0100
0010
0100
1000
0010
0100
0001
0010
0100
1000
0001
0100
0010
1000
0010
,
1000
0010
0100
0010
1000
0100
0010
0001
0100
0010
1000
0001
0010
0100
1000
0100
,
1000
0010
1000
0100
0010
0001
0100
0010
1000
0010
0100
0001
0010
0100
1000
0010
,
1000
0100
1000
0010
0100
0001
0010
0100
1000
0100
0010
0001
0100
0010
1000
0100
,
1000
0010
1000
0010
0100
0001
0010
0100
1000
0100
0010
0001
0100
0010
1000
0010
,
1000
0100
1000
0100
0010
0001
0100
0010
1000
0010
0100
0001
0010
0100
1000
0100
,
1000
0100
1000
0100
1000
0100
1000
0100
0010
0001
0010
0001
0010
0001
0010
0001
1000
0010
1000
0010
1000
0010
1000
0010
0100
0001
0100
0001
0100
0001
0100
0001
,
1000
0100
0010
0001
1000
0100
0010
0001
1000
0010
0100
0001
1000
0010
0100
0001
1000
0100
0010
0100
1000
0100
0010
0001
1000
0010
0100
0010
1000
0010
0100
0001
,
2000
0000
0000
0000
0000
0000
0200
0000
0300
0000
0200
0000
0300
0000
0200
0000
3302
0000
0000
0000
0000
0000
0020
0000
0030
0000
0020
0000
0030
0000
0020
0000
2033
0000
0000
0000
0000
0000
0200
0000
0300
0000
0020
0000
0030
0000
0002
3000
2003
0000
0000
0000
0000
0000
0000
0000
3000
0000
0000
0000
0000
0000
0000
0000
;
