#TITLE:Final Audition;
#SUBTITLE:;
#ARTIST:Banya;
#TITLETRANSLIT:;
#SUBTITLETRANSLIT:;
#ARTISTTRANSLIT:;
#GENRE:;
#CREDIT:;
#MUSIC:Final Audition.ogg;
#BANNER:Final Audition-bn.png;
#BACKGROUND:Final Audition-bg.png;
#CDTITLE:;
#SAMPLESTART:19.011;
#SAMPLELENGTH:14.711;
#SELECTABLE:YES;
#OFFSET:-0.162;
#BPMS:0.000=130.512 ,
211.000=65.256
;
#STOPS:;
#DISPLAYBPM:130.512;
#BGCHANGES:0.000=Final Audition.avi=1.000=0=0=0,
99999=-nosongbg-=1.000=0=0=0 // don't automatically add -songbackground-
;
#FGCHANGES:;

//--------------- dance-single - ----------------
#NOTES:
     dance-single:
     :
     Hard:
     10:
     0,0,0,0,0:
0000
0000
0000
0000
,
0000
0000
0000
0000
,
1000
0000
0100
0000
0010
0000
0001
0010
0000
0001
0010
0000
0100
0000
1000
0000
,
0001
0000
0010
0000
0100
0000
1000
0100
0000
1000
0100
0000
0010
0000
0001
0000
,
1000
0000
0010
0000
0100
0000
0001
0100
0000
0001
0100
0000
0010
0000
1000
0000
,
0001
0000
0100
0000
0010
0000
1000
0010
0000
1000
0010
0000
0100
0000
0001
0000
,
1000
0000
0100
0000
0010
0000
0001
0100
0000
0001
0100
0000
0010
0000
1000
0000
,
0001
0000
0010
0000
0100
0000
1000
0010
0000
1000
0010
0000
0100
0000
0001
0000
,
1000
0000
0001
0000
0100
0000
0010
0100
0000
0010
0100
0000
0001
0000
1000
0000
,
1001
0000
0000
0000
,
0000
0000
0000
0000
1001
0000
0100
0000
0010
0000
0001
0100
0000
0100
0010
0000
,
1000
0000
0010
0000
0100
0000
0100
0000
0001
0000
0010
1000
0000
1000
0100
0000
,
0010
0000
0001
0000
0100
0000
0001
0000
1000
0000
0010
0100
0000
0100
0001
0000
,
0010
0000
0100
0000
1000
0000
1000
0000
0010
0000
0100
0010
0000
0010
0001
0000
,
0010
0000
0100
0000
1000
0000
0100
0000
1000
0000
0100
0001
0000
1000
0010
0000
,
0001
0000
0001
0000
1000
0000
0010
0000
0100
0000
0100
0001
0000
0010
1000
0000
,
0100
0000
0001
0000
0010
0000
0001
0000
0100
0000
1000
0100
0000
0010
0001
0000
,
1000
0000
0010
0000
0100
0000
0100
0000
0001
0000
0010
1000
0000
1000
0100
0000
,
0010
0000
0001
0000
0100
1000
0100
1000
0100
1000
0100
1000
0100
1000
0100
1000
,
0100
1000
0100
1000
0100
1000
0100
1000
0100
1000
0100
1000
0100
0000
1000
0000
,
0001
0000
0000
0000
0010
0001
0010
0001
0010
0001
0010
0001
0010
0001
0010
0001
,
0010
0001
0010
0001
0010
0001
0010
0001
0010
0001
0010
0001
0010
0000
0001
0000
,
1000
0000
0000
0000
0100
0010
0100
0010
0100
0010
0100
0010
0100
0010
0100
0010
,
0100
0010
0100
0010
0100
0010
0100
0010
0100
0010
0100
0010
0100
0000
0001
0000
,
1000
0000
2002
0000
3003
0000
1000
0100
,
0010
0000
0000
0000
0001
0010
0001
0000
0010
0000
0000
0000
0001
0000
0000
0000
,
0010
0000
0100
0100
0100
0100
0001
0100
,
0010
0000
0000
0000
1000
0010
1000
0000
0010
0000
0000
0000
1000
0000
0000
0000
,
0100
0000
0000
0000
0010
0000
0010
0000
0010
0000
0010
0000
0001
0010
0000
0010
,
0100
0000
0100
1000
0000
1000
0001
0000
1000
0000
0000
0000
1000
0100
0000
0100
,
0010
0000
0010
0001
0000
0001
1000
0000
2002
0000
3003
0000
0001
0000
0000
0010
,
0000
0100
0000
0000
0000
1000
0100
0010
,
0001
0000
0100
0010
0100
0000
0014
0010
,
0010
0010
0010
0010
0010
0010
0010
0010
,
0010
0010
0013
0001
1000
0000
4100
0100
,
0100
0100
0100
0100
0100
0100
0100
0100
,
0100
0100
3100
1000
0001
0000
0410
0010
,
0010
0010
0010
0010
0010
0010
0010
0010
,
0010
0010
0310
0100
0001
0000
0140
0100
,
0100
0100
0100
0100
0100
0100
0100
0100
,
0100
0000
0100
0000
0130
0000
0010
0000
1000
0000
0000
0000
0001
0000
0000
0001
,
0000
0000
0001
0000
0000
0000
0001
0000
0001
0000
0000
0000
1000
0100
1000
0100
,
1000
0100
1000
0100
1000
0010
1000
0010
1000
0010
1000
0010
1000
0000
0000
1000
,
0000
0000
1000
0000
0000
0000
1000
0000
1000
0000
0000
0000
0001
0010
0001
0010
,
0001
0010
0001
0010
0001
0100
0001
0100
0001
0100
0001
0100
0001
0000
0000
0100
,
0000
0000
0010
0000
0000
0000
1000
0000
1000
0000
0000
0000
1000
0001
1000
0001
,
1000
0001
1000
0001
1000
0100
1000
0100
1000
0100
1000
0100
1000
0000
0000
0100
,
0000
0000
0010
0000
0000
0000
0001
0000
0001
0000
0000
0000
1000
0001
1000
0001
,
1000
0001
1000
0001
0010
0100
0010
0100
0010
0100
0010
0100
0010
0000
0100
0000
,
1000
0000
0010
0000
0200
0000
0300
0000
0000
0000
0000
0000
0001
0000
0000
0001
,
0000
0000
1000
0000
0000
1000
0000
0000
1001
0000
0000
0000
1000
0000
0010
0000
,
0100
0000
0010
0000
2000
0000
3000
0000
0000
0000
0000
0000
0001
0000
0000
0001
,
0000
0000
1000
0000
0000
1000
0000
0000
1001
0000
0000
0000
0220
0000
0000
0000
,
0330
0000
0000
0000
;

//--------------- dance-single - ----------------
#NOTES:
     dance-single:
     :
     Challenge:
     11:
     0,0,0,0,0:
0000
0000
0000
0000
,
0000
0000
0000
0000
,
1000
0000
0001
0000
1000
0100
1000
0010
0000
0100
0001
0000
0010
0000
0010
0000
,
0001
0000
1000
0000
0001
0010
0001
0100
0000
0010
1000
0000
0100
0000
0100
0000
,
1000
0000
0001
0000
1000
0010
1000
0100
0000
0010
0001
0000
0100
0000
0100
0000
,
0001
0000
1000
0000
0001
0100
0001
0010
0000
0100
1000
0000
0010
0000
0010
0000
,
1000
0000
0100
0000
0010
0001
0010
0100
0000
0100
1000
0000
0100
0000
0100
0000
,
0001
0000
0010
0000
0100
1000
0100
0010
0000
0010
0001
0000
0010
0000
0010
0000
,
1000
0000
0100
0000
0010
0001
0100
0010
0000
0001
0100
0000
1000
0000
1000
0000
,
1001
0000
0000
0000
,
0000
0000
0000
0000
1001
0000
0100
0000
0011
0000
0001
0100
0000
0010
1000
0000
,
0100
0000
0100
0000
1001
0000
0010
0000
1100
0000
1000
0010
0000
0100
0001
0000
,
0010
0000
0010
0000
1001
0000
0010
0000
0101
0000
0001
0010
0000
0100
1000
0000
,
0010
0000
0010
0000
1001
0000
0100
0000
1010
0000
1000
0100
0000
0010
0001
0000
,
0100
0000
0100
0000
0011
0000
0100
0000
1010
0000
0001
0100
0000
0100
1000
0000
,
0100
0000
0100
0000
1100
0000
0010
0000
0101
0000
1000
0010
0000
0010
0001
0000
,
0010
0000
0010
0000
0110
0000
0001
0000
1010
0000
1000
0001
0000
0100
0001
0000
,
0100
0000
0100
0000
0110
0000
1000
0000
0101
0000
0001
1000
0000
0010
1000
0000
,
0010
0000
0010
0000
1000
0100
0010
0001
1000
0100
0010
0001
1000
0010
0100
0001
,
1000
0010
0100
0001
1000
0100
0010
0001
1000
0010
0100
0001
1000
0001
1000
0001
,
1001
0000
0000
0000
0001
0010
0100
1000
0001
0010
0100
1000
0001
0100
0010
1000
,
0001
0100
0010
1000
0001
0010
0100
1000
0001
0100
0010
1000
0001
1000
0001
1000
,
1001
0000
0000
0000
1000
0100
0010
0001
0010
0100
1000
0010
0100
0001
0100
0010
,
1000
0100
0010
0001
0100
0010
1000
0010
0100
0001
0010
0100
1000
0100
0010
0001
,
1000
0010
0100
0001
2002
0000
0000
0000
3003
0000
0000
0000
1000
0000
0100
0000
,
0010
0001
0000
0000
0001
0010
0100
1000
0000
1000
0100
0010
0000
0010
0000
0000
,
0010
0000
0001
0010
0100
1000
0001
0100
,
0010
1000
0000
0000
1000
0010
0100
0001
0000
0001
0100
0010
0000
0010
0000
0000
,
0010
0000
0000
0000
1000
0000
0010
0000
0100
0000
0001
0000
1000
0100
0000
0000
,
1100
0000
0010
0001
0000
0001
1000
0000
0110
0000
0000
0000
0001
0010
0000
0010
,
1000
0000
1000
0100
0000
0100
0001
0000
2002
0000
3003
0000
1000
0000
0100
0010
,
0000
0010
0000
0000
0000
0001
0100
0010
,
1000
0000
0000
0000
1000
0000
0001
0000
0110
0000
0000
0000
0001
0010
0001
0100
,
0001
0010
0001
1000
0001
0010
0001
0100
0001
1000
0001
0100
0001
0010
0001
1000
,
0001
0010
0001
0100
0001
0010
0001
1000
1001
0000
0000
0000
1000
0100
1000
0010
,
1000
0100
1000
0001
1000
0100
1000
0010
1000
0001
1000
0010
1000
0100
1000
0001
,
1000
0100
1000
0010
1000
0100
1000
0001
1001
0000
0000
0000
0100
0010
0100
0001
,
0100
0010
0100
1000
0100
0010
0100
0001
0100
1000
0100
0001
0100
0010
0100
1000
,
0100
0010
0100
0001
0100
0010
0100
0010
0110
0000
0000
0000
0010
0100
0010
1000
,
0010
0100
0010
0001
0010
0100
0010
1000
0010
0001
0010
1000
0010
0100
0010
0001
,
0010
0100
0010
1000
0010
0100
0010
0100
0110
0000
0000
0000
1001
0000
0000
0101
,
0000
0000
0011
0000
0000
0000
0110
0000
0110
0000
0000
0000
1000
0100
0010
0001
,
0100
0010
1000
0010
0100
0010
1000
0001
0010
0100
0010
0001
1001
0000
0000
1010
,
0000
0000
1100
0000
0000
0000
0110
0000
0110
0000
0000
0000
0001
0010
0100
1000
,
0010
0100
0001
0100
0010
0100
0001
1000
0001
0000
0001
0000
1000
0100
1000
0100
,
1000
0100
1000
0100
0010
0001
0010
0001
0010
0001
0010
0001
1000
0010
1000
0010
,
1000
0010
1000
0010
0100
0001
0100
0001
0100
0001
0100
0001
1000
0100
0010
0001
,
1000
0100
0010
0001
1000
0010
0100
0001
1000
0010
0100
0001
0100
0010
0100
0010
,
0100
0010
0100
0010
1000
0001
1000
0001
1000
0001
1000
0001
1000
0100
0010
0100
,
1000
0001
0100
0010
0100
0001
1000
0010
0100
0010
1000
0001
0010
0100
0010
0001
,
1000
0001
0010
0001
1000
0001
0010
1000
0010
0001
1000
0100
0001
0100
1000
0001
,
1000
0100
1000
0001
1000
0100
0010
0001
1000
0010
0100
0001
1000
0100
0010
0100
,
0001
0100
0010
0100
1000
0001
0010
0100
0010
1000
0010
0100
0220
0000
0000
0000
,
0330
0000
0000
0000
;
