#VERSION:0.83;
#TITLE:Final Audition;
#SUBTITLE:Episode 1;
#ARTIST:BANYA;
#TITLETRANSLIT:;
#SUBTITLETRANSLIT:;
#ARTISTTRANSLIT:;
#GENRE:;
#CREDIT:;
#MUSIC:Final Audition Episode 1.ogg;
#BANNER:Final Audition Episode 1-bn.png;
#BACKGROUND:Final Audition Episode 1-bg.png;
#CDTITLE:;
#SAMPLESTART:0.317;
#SAMPLELENGTH:11.984;
#SELECTABLE:YES;
#OFFSET:-0.317;
#BPMS:0.000=94.500
,53.000=189.000
,117.000=378.000
,245.000=189.000
,305.000=756.000
,335.000=47.250
;
#STOPS:;
#SCROLLS:0.000=0.500,
51.000=8.000,
53.000=1.000,
117.000=0.500,
245.000=1.000,
305.000=2.000,
335.000=0.250
;
#DISPLAYBPM:47.250:189.000;
#BGCHANGES:-0.317=Final Audition Episode 1.avi=1.000=0=0=0=StretchNoLoop====,
99999.000=-nosongbg-=1.000=0=0=0=StretchNoLoop====
;
#FGCHANGES:;

//--------------- dance-single - ----------------
#NOTEDATA:;
#STEPSTYPE:dance-single;
#DESCRIPTION:;
#DIFFICULTY:Beginner;
#METER:3;
#RADARVALUES:0,0,0,0,0;
#NOTES:
0000
0000
0000
0000
,
0000
0000
0000
0000
,
0000
0000
0000
0000
,
0000
0000
0000
0000
,
0000
0000
0000
1001
,
0000
0000
0000
0000
,
0000
0000
0000
1001
,
0000
0000
0000
0000
,
0000
0000
0000
1001
,
0000
0000
0000
0000
,
0000
0000
0000
1001
,
0000
0000
0000
1001
,
0000
1000
0001
2002
,
0000
0000
0000
0000
0000
0000
0000
3003
1000
0000
0000
0000
0000
0000
0000
0000
0000
0000
0000
0000
0000
0000
0000
0000
0100
0000
0000
0000
0000
0000
0000
0000
,
0000
0010
0000
0001
,
0000
1000
0000
0010
,
0000
0100
0000
0001
,
0000
1000
0000
0100
,
0000
0010
0000
0001
,
0000
1000
0000
0010
,
0000
0100
0000
0001
,
0000
1000
0000
0100
,
0000
0010
0000
0001
,
0000
1000
0000
0010
,
0000
0100
0000
0001
,
0000
1000
0000
0100
,
0000
0010
0000
0001
,
0000
1000
0000
0010
,
0000
0100
0000
0001
,
0000
1000
0000
0100
,
0000
0010
0000
0001
,
0000
1000
0000
0010
,
0000
0100
0000
0001
,
0000
1000
0000
0100
,
0000
0010
0000
0001
,
0000
1000
0000
0010
,
0000
0100
0000
0001
,
0000
1000
0000
0100
,
0000
0010
0000
0001
,
0000
1000
0000
0010
,
0000
0100
0000
0001
,
0000
1000
0000
0100
,
0000
0010
0000
0001
,
0000
1000
0000
0010
,
0000
0100
0000
0001
,
0000
1000
0000
0100
,
0000
0010
0000
0001
,
0000
1000
0000
0010
,
0000
0100
0000
0001
,
0000
1000
0000
0100
,
0000
0010
0000
0001
,
0000
1000
0000
0010
,
0000
0100
0000
0001
,
0000
1000
0000
0100
,
0000
0010
0000
0001
,
0000
1000
0000
0010
,
0000
0100
0000
0001
,
0000
1000
0000
0100
,
0000
0010
0000
0001
,
0000
1000
0000
0010
,
0000
0100
0000
0001
,
0000
1000
1000
1000
,
1000
0001
0001
0001
,
0001
0100
0100
0100
,
0100
0010
0010
0010
,
0010
1000
1000
1000
,
1000
0100
0100
0100
,
0100
0010
0010
0010
,
0010
0001
0001
0001
,
0001
1000
1000
1000
,
1000
0001
0001
0001
,
0001
0010
0010
0010
,
0010
0100
0100
0100
,
0100
1000
1000
0010
,
0010
0100
0100
0001
,
0001
1000
0100
0010
,
0001
2002
0000
0000
,
0000
0000
0000
0000
,
0000
0000
0000
0000
,
0000
0000
0000
0000
,
0000
0000
0000
0000
,
0000
0000
0000
0000
,
0000
0000
0000
0000
,
0000
0000
0000
3003
;

//--------------- dance-single - ----------------
#NOTEDATA:;
#STEPSTYPE:dance-single;
#DESCRIPTION:;
#DIFFICULTY:Easy;
#METER:6;
#RADARVALUES:0,0,0,0,0;
#NOTES:
0000
0000
0000
0000
,
0000
0000
0000
0000
,
0000
0000
0000
0000
,
0000
0000
0000
0000
,
0000
0000
0000
1001
,
0000
0000
0000
1001
,
0000
0000
0000
1001
,
0000
0000
0000
1001
,
0000
0000
0000
1001
,
0000
0000
0000
1001
,
0000
0000
0000
1001
,
0000
0000
0000
1001
,
0000
0000
1001
0000
1000
0001
2002
0000
,
0000
0000
0000
0000
0000
0000
0000
3003
1000
0000
0000
0000
0000
0000
0000
0000
0100
0000
0000
0000
0000
0000
0000
0000
0001
0000
0000
0000
0000
0000
0000
0000
,
0100
1000
0010
0001
,
0010
1000
1000
0001
,
0001
0100
0100
0010
,
0010
1000
0010
0001
,
0010
1000
0100
0001
,
0100
1000
1000
0001
,
0001
0010
0010
0100
,
0100
1000
0010
0100
,
0001
1000
0100
0010
,
0100
1000
1000
0100
,
0100
0010
0010
0001
,
0001
1000
0100
0010
,
0001
1000
0010
0100
,
0010
1000
1000
0010
,
0010
0100
0100
0001
,
0001
1000
0100
1000
,
0000
0001
0100
0001
,
0000
1000
0010
1000
,
0000
0001
0010
0001
,
0000
1000
0000
0100
,
0000
0010
0000
0001
,
0000
1000
0000
0010
,
0000
0100
0000
0001
,
0000
1000
0010
1000
,
0000
0001
0010
0001
,
0000
1000
0100
1000
,
0000
0001
0100
0001
,
0000
1000
0000
0010
,
0000
0100
0000
0001
,
0000
1000
0000
0100
,
0000
0010
0000
0001
,
0000
1000
0100
0010
,
0000
0100
0010
0001
,
0000
0001
0100
0010
,
0000
0010
1000
0100
,
0000
1000
0000
0100
,
0000
0010
0000
0001
,
0000
1000
0000
0010
,
0000
0100
0000
0001
,
0000
1000
0010
0100
,
0000
0100
0001
0010
,
0000
0001
0010
0100
,
0000
0010
0100
1000
,
0000
1000
0100
1000
,
0100
0010
0001
0010
,
0001
1000
0010
0100
,
0001
1000
0100
0010
,
0001
1000
0100
0010
,
0001
1000
0010
0100
,
0001
1000
0100
0001
,
0100
1000
0010
0001
,
0010
1000
0010
0100
,
0001
1000
0100
0010
,
0001
1000
0010
0001
,
0010
1000
0100
0001
,
0100
1000
0100
0010
,
0001
1000
0010
0100
,
0001
1000
0010
0001
,
0010
1000
0100
0001
,
0100
1000
0010
0100
,
0001
1000
0100
0010
,
0001
1000
0100
0001
,
0010
2002
0000
0000
,
0000
0000
0000
0000
,
0000
0000
0000
0000
,
0000
0000
0000
0000
,
0000
0000
0000
0000
,
0000
0000
0000
0000
,
0000
0000
0000
0000
,
0000
0000
0000
3003
;

//--------------- dance-single - ----------------
#NOTEDATA:;
#STEPSTYPE:dance-single;
#DESCRIPTION:;
#DIFFICULTY:Medium;
#METER:9;
#RADARVALUES:0,0,0,0,0;
#NOTES:
0000
0000
0000
0000
,
0000
0000
0000
0000
,
0000
0000
0000
0000
,
0000
0000
0000
0000
,
0000
0000
0000
1001
,
0000
1001
0000
1001
,
0000
1001
0000
1001
,
0000
1001
0000
1001
,
0000
1001
0000
1001
,
1001
1001
1001
1001
,
1001
1001
1001
1001
,
1001
1001
1001
1001
,
1001
0000
0000
0000
1001
0000
1001
0000
1000
0001
1000
0001
2002
0000
0000
0000
,
0000
0000
0000
0000
0000
0000
0000
3003
1000
0000
0000
0000
0100
0000
0000
0000
0010
0000
0000
0000
0001
0000
0000
0000
0100
0000
0000
0000
0010
0000
0000
0000
,
1000
0000
0001
0010
0100
1000
0010
0100
,
0001
0000
1000
0010
0100
0001
0010
0100
,
1000
0000
0001
0100
0010
1000
0100
0010
,
0001
0000
1000
0100
0010
1000
0100
0010
,
0001
0000
0001
0100
0010
0001
0100
0010
,
1000
0000
1000
0010
0100
1000
0010
0100
,
0001
0000
0001
0010
0100
0001
0010
0100
,
1000
0000
1000
0100
1000
0001
0100
0001
,
1000
0000
0001
0010
0001
1000
0010
1000
,
0001
0000
1000
0010
1000
0001
0010
0001
,
1000
0000
0001
0100
0001
1000
0100
1000
,
0001
0000
1000
0010
0001
0010
1000
0001
,
1000
0000
0001
0100
1000
0100
0001
1000
,
0001
0000
1000
0100
0001
0100
1000
0001
,
1000
0000
0001
0010
1000
0010
0001
1000
,
0001
1000
0100
0010
,
0001
1000
0010
0100
,
0001
1000
0100
0010
,
0100
1000
0010
0100
,
0010
1000
0010
0100
,
0001
1000
0100
0010
,
0001
1000
0010
0100
,
0010
1000
0100
0010
,
0100
1000
0100
0010
,
0001
1000
0010
0100
,
0001
1000
0010
0100
,
0010
1000
0100
0010
,
0100
1000
0010
0100
,
0001
1000
0100
0010
,
0001
1000
0100
0010
,
0100
1000
0010
0100
,
0010
1000
0100
1000
,
0100
0010
0001
0010
,
0001
1000
0010
1000
,
0010
0100
0001
0100
,
0001
1000
0100
0010
,
0100
1000
0010
0100
,
0010
1000
0100
0010
,
0100
1000
0010
0100
,
0010
1000
0010
1000
,
0010
0100
0001
0100
,
0001
1000
0100
1000
,
0100
0010
0001
0010
,
0001
1000
0010
0100
,
0010
1000
0100
0010
,
0100
1000
0010
0100
,
0010
1000
0100
0010
,
0100
0000
1000
0100
0010
0001
1000
0100
,
0010
0001
1000
0010
0100
0001
1000
0010
,
0100
0001
1000
0100
0010
0001
1000
0100
,
0010
0001
1000
0010
0100
0001
1000
0010
,
0100
0001
1000
0100
1000
0100
0010
0001
,
0010
0001
1000
0010
1000
0010
0100
0001
,
0100
0001
1000
0100
0010
0100
1000
0100
,
0010
0100
1000
0010
0100
0010
1000
0010
,
0100
0010
1000
0010
1000
0010
0100
0001
,
0100
0001
1000
0100
1000
0100
0010
0001
,
0010
0001
1000
0010
0100
0010
1000
0100
,
0010
0100
1000
0010
0100
0010
1000
0100
,
0010
0100
1000
0100
0010
0001
1000
0010
,
0100
0010
1000
0100
0010
0001
1000
0100
,
0010
0100
1000
0010
0001
0010
1000
0100
,
0010
0001
2002
0000
0000
0000
0000
0000
,
0000
0000
0000
0000
,
0000
0000
0000
0000
,
0000
0000
0000
0000
,
0000
0000
0000
0000
,
0000
0000
0000
0000
,
0000
0000
0000
0000
,
0000
0000
0000
3003
;

//--------------- dance-single - ----------------
#NOTEDATA:;
#STEPSTYPE:dance-single;
#DESCRIPTION:;
#DIFFICULTY:Hard;
#METER:12;
#RADARVALUES:0,0,0,0,0;
#NOTES:
0000
0000
0000
0000
,
0000
0000
0000
0000
,
0000
0000
0000
0000
,
0000
0000
0000
0000
,
0000
0000
0000
1001
,
1001
0000
1001
0000
1001
1001
1001
0000
,
1001
0000
1001
0000
1001
1001
1001
0000
,
1001
0000
1001
0000
1001
1001
1001
0000
,
1001
0000
0000
0000
1001
0000
0000
0000
1001
0000
1001
0000
1001
0000
0000
1001
,
1001
0000
0000
0000
1001
0000
0000
1001
1001
0000
0000
0000
1001
0000
0000
1001
,
1001
0000
0000
0000
1001
0000
0000
1001
1001
0000
0000
0000
1001
0000
0000
1001
,
1001
0000
0000
0000
1001
0000
0000
1001
1001
0000
0000
0000
1001
0000
1001
0000
,
1001
0000
0000
0000
1001
0000
0000
0000
1001
0000
1001
0000
1001
0000
1001
0000
1000
0001
1000
0001
1000
0001
1000
0001
2002
0000
0000
0000
0000
0000
0000
0000
,
0000
0000
0000
0000
0000
0000
0000
3003
1000
0000
0000
0000
0100
0000
0000
0000
0010
0000
0000
0000
0001
0000
0000
0000
1000
0000
0000
0000
0010
0000
0000
0000
,
0100
0010
1000
0100
0010
0001
1000
0100
,
0010
0100
1000
0010
0100
0001
1000
0100
,
0010
0100
1000
0010
0100
0001
1000
0010
,
0100
0010
1000
0100
0010
0001
1000
0100
,
0010
0100
1000
0100
0010
0001
1000
0010
,
0100
0010
1000
0010
0100
0001
1000
0010
,
0100
0010
1000
0010
0100
0001
1000
0100
,
0010
0100
1000
0100
1000
0100
0010
0001
,
0010
0001
1000
0010
1000
0010
0100
0001
,
0100
0001
1000
0100
0010
0001
1000
0010
,
0100
0001
1000
0100
0010
0100
1000
0010
,
0100
0010
1000
0010
1000
0010
0100
0001
,
0100
0001
1000
0100
1000
0100
0010
0001
,
0010
0001
1000
0010
0100
0010
1000
0100
,
0010
0000
0100
0000
1000
0100
1000
0100
0010
0001
0010
0001
1000
0010
1000
0010
,
0100
0001
0100
0001
1000
0000
0100
0000
1000
0000
0100
0000
1000
0000
0100
0000
,
1000
0100
0010
0001
0010
0001
0010
0001
,
0010
0001
1000
0010
1000
0010
1000
0010
,
1000
0010
0100
0001
0100
0001
0100
0001
,
0100
0001
1000
0100
0010
0001
1000
0100
,
0010
0001
1000
0010
0100
0001
1000
0010
,
0100
0001
1000
0100
0010
0100
1000
0100
,
0010
0100
1000
0010
0100
0010
1000
0010
,
0100
0010
1000
0010
1000
0010
1000
0010
,
1000
0010
0100
0001
0100
0001
0100
0001
,
0100
0001
1000
0100
1000
0100
1000
0100
,
1000
0100
0010
0001
0010
0001
0010
0001
,
0010
0001
1000
0010
0100
0001
1000
0010
,
0100
0001
1000
0100
0010
0001
1000
0100
,
0010
0001
1000
0010
0100
0010
1000
0010
,
0100
0010
1000
0100
0010
0100
1000
0100
,
0010
0100
1000
0100
1000
0100
0010
0001
,
0010
0001
1000
0010
1000
0010
0100
0001
,
0100
0001
1000
0100
1000
0100
0010
0001
,
0010
0001
1000
0010
1000
0010
0100
0001
,
0100
0001
1000
0100
0010
0001
1000
0010
,
0100
0001
1000
0100
0010
0001
1000
0010
,
0100
0001
1000
0100
0010
0100
1000
0010
,
0100
0010
1000
0100
0010
0100
1000
0010
,
0100
0010
1000
0010
1000
0010
0100
0001
,
0100
0001
1000
0100
1000
0100
0010
0001
,
0010
0001
1000
0010
1000
0010
0100
0001
,
0100
0001
1000
0100
1000
0100
0010
0001
,
0010
0001
1000
0010
0100
0001
1000
0100
,
0010
0001
1000
0010
0100
0001
1000
0100
,
0010
0001
1000
0010
0100
0010
1000
0100
,
0010
0100
1000
0010
0100
0010
1000
0100
,
0010
0100
1000
0100
0010
0001
1000
0010
,
0100
0001
1000
0100
0010
0100
1000
0010
,
0100
0010
1000
0100
0010
0001
1000
0010
,
0100
0001
1000
0100
0010
0100
1000
0010
,
0100
0010
1000
0010
0100
0001
1000
0100
,
0010
0001
1000
0010
0100
0010
1000
0100
,
0010
0100
1000
0010
0100
0001
1000
0100
,
0010
0001
1000
0010
0100
0010
1000
0100
,
0010
0100
1000
0100
0010
0001
1000
0010
,
0100
0001
1000
0010
0100
0010
1000
0100
,
0010
0100
1000
0100
0010
0001
1000
0010
,
0100
0001
1000
0010
0100
0010
1000
0100
,
0010
0100
1000
0010
0100
0001
1000
0100
,
0010
0001
1000
0100
0010
0100
1000
0010
,
0100
0010
1000
0010
0100
0001
1000
0100
,
0010
0001
2002
0000
0000
0000
0000
0000
,
0000
0000
0000
0000
,
0000
0000
0000
0000
,
0000
0000
0000
0000
,
0000
0000
0000
0000
,
0000
0000
0000
0000
,
0000
0000
0000
0000
,
0000
0000
0000
3003
;

//--------------- dance-single - ----------------
#NOTEDATA:;
#STEPSTYPE:dance-single;
#DESCRIPTION:;
#DIFFICULTY:Challenge;
#METER:13;
#RADARVALUES:0,0,0,0,0;
#NOTES:
0000
0000
0000
0000
,
0000
0000
0000
0000
,
0000
0000
0000
0000
,
0000
0000
0000
0000
,
0000
0000
0000
1010
,
0011
0000
1100
0000
0101
0110
1001
0000
,
0011
0000
1010
0000
0101
1100
0110
0000
,
1001
0000
1100
0000
0101
1010
0011
0000
,
0110
0000
0000
0000
1001
0000
0000
0000
1100
0000
0101
0000
1001
0000
0000
0011
,
0101
0000
0000
0000
1001
0000
0000
1100
1010
0000
0000
0000
0110
0000
0000
0101
,
0011
0000
0000
0000
0110
0000
0000
1010
1100
0000
0000
0000
1001
0000
0000
0011
,
1010
0000
0000
0000
1001
0000
0000
1100
0101
0000
0000
0000
1001
0000
1001
0000
,
1001
0000
0000
0000
1001
0000
0000
0000
1001
0000
1001
0000
1001
0000
1001
0000
1000
0001
1000
0001
1000
0001
1000
0001
2002
0000
0000
0000
0000
0000
0000
0000
,
0000
0000
0000
0000
0000
0000
0000
3003
1000
0000
0000
0000
0100
0000
0000
0000
0010
0000
0000
0000
0001
0000
0000
0000
0100
0000
0010
0000
0100
0000
1000
0000
,
0100
1000
0100
0000
1000
0000
0010
0000
0100
0000
0001
0000
0010
0100
0010
0100
,
1000
0100
1000
0000
0001
0000
0010
0000
0100
0000
1000
0000
0010
0000
0100
0001
,
0010
0100
1000
0000
0001
0000
0100
0000
0010
0000
1000
0000
0100
0000
0010
0001
,
0100
0010
1000
0000
0001
0000
0010
0000
0100
0000
1000
0000
0010
0100
0010
0001
,
0010
0001
0010
0000
0001
0000
0100
0000
0010
0000
1000
0000
0100
0010
0100
0010
,
0001
0010
0001
0000
1000
0000
0100
0000
0010
0000
0001
0000
0100
0000
0010
1000
,
0100
0010
0001
0000
1000
0000
0010
0000
0100
0000
0001
0000
0010
0000
0100
1000
,
0010
0100
0001
0000
1000
0100
0000
0100
0000
0100
0010
0000
0001
0010
0100
1000
,
0100
0010
0001
0000
1000
0010
0000
0010
0000
0010
0100
0000
0001
0100
0010
1000
,
0010
0100
0001
0000
0001
0010
0000
0010
0000
0010
0100
0000
0001
0100
0010
1000
,
0100
0010
0001
0000
0001
0100
0000
0100
0000
0100
0010
0000
0001
0010
0100
1000
,
0010
0100
0001
0000
1000
0010
0000
0010
0000
0010
0100
0000
1000
0100
0010
0001
,
0010
0100
1000
0000
1000
0100
0000
0100
0000
0100
0010
0000
1000
0010
0100
0001
,
0100
0010
1000
0000
1000
0100
1000
0100
0010
0001
0010
0001
1000
0010
1000
0010
,
0100
0001
0100
0001
1000
0100
0010
0001
1000
0010
0100
0001
1000
0100
0001
0100
,
1000
0010
0001
0010
1000
0000
0100
0000
0010
0000
1000
0000
0010
0000
0001
0000
,
1000
0010
0100
0001
1000
0100
0010
0001
,
1000
0100
0001
0100
0010
0001
1000
0100
,
0010
0001
1000
0010
0100
0001
1000
0100
,
0010
0001
1000
0100
0010
0100
1000
0010
,
0100
0010
1000
0100
0001
0100
1000
0010
,
0001
0010
1000
0010
0100
0010
1000
0100
,
0010
0100
1000
0010
0001
0010
1000
0100
,
0001
0100
1000
0100
0010
1000
0100
0001
,
1000
0010
0001
0100
0010
0001
1000
0010
,
0100
0001
1000
0100
0010
1000
0010
0001
,
1000
0100
0001
0100
0010
0001
1000
0010
,
0100
0001
1000
0100
0010
0100
1000
0010
,
0001
0010
1000
0100
0001
0100
1000
0010
,
0100
0010
1000
0010
0100
0010
1000
0100
,
0001
0100
1000
0010
0001
0010
1000
0100
,
0010
0100
1000
0010
1000
0100
0010
0001
,
0100
0010
0100
0001
0010
0100
1000
0010
,
0100
0001
1000
0100
1000
0010
0100
0001
,
0010
0100
0010
0001
0100
0010
1000
0100
,
0010
0001
1000
0100
0001
0100
1000
0010
,
0100
0010
1000
0010
0001
0010
1000
0100
,
0010
0100
1000
0010
0001
0010
1000
0100
,
0010
0100
1000
0100
0001
0100
1000
0010
,
0100
0010
1000
0100
1000
0100
0001
0100
,
0001
0100
1000
0010
1000
0010
0001
0010
,
0001
0010
1000
0100
0010
0001
1000
0010
,
0100
0001
1000
0100
0001
0010
1000
0010
,
0001
0100
1000
0010
0001
0010
1000
0100
,
0001
0100
1000
0010
0100
0010
1000
0100
,
0010
0100
1000
0100
0001
0100
1000
0010
,
0001
0010
1000
0100
0010
0100
1000
0010
,
0100
0000
0010
0000
1010
0000
0100
0000
0011
0000
0100
1000
0010
0100
0001
0000
,
0110
0000
1001
0000
0101
0000
0010
0000
1100
0000
1000
0100
0000
0100
0001
0000
,
0110
0000
1001
0000
0011
0000
0100
0000
1010
0000
0001
0010
0000
0010
1000
0000
,
0110
0000
1001
0000
1100
0000
0010
0000
0101
0000
0010
1000
0100
0010
0001
0000
,
0110
0000
1001
0000
1000
0100
0010
0001
1000
0100
0010
0001
1000
0100
0010
0001
,
1000
0100
0010
0001
1000
0100
0010
0001
1000
0100
0010
0001
1000
0100
0010
0001
,
1000
0000
0000
0000
0001
0100
0010
1000
0001
0100
0010
1000
0001
0100
0010
1000
,
0001
0100
0010
1000
0001
0100
0010
1000
0001
0100
0010
1000
0001
0100
0010
1000
,
0001
0000
0000
0000
1000
0010
0100
0001
1000
0010
0100
0001
1000
0010
0100
0001
,
1000
0010
0100
0001
1000
0010
0100
0001
1000
0010
0100
0001
1000
0010
0100
0001
,
1000
0000
0000
0000
0001
0010
0100
1000
0001
0010
0100
1000
0001
0010
0100
1000
,
0001
0010
0100
1000
0001
0010
0100
1000
0001
0010
0100
1000
0001
0010
0100
1000
,
0001
0000
0000
0000
1000
0100
1000
0100
1000
0010
0100
0001
0010
0001
0010
0001
,
0100
0010
1000
0100
1000
0010
1000
0010
1000
0100
0010
0001
0100
0001
0100
0001
,
0010
0100
1000
0010
1000
0100
0001
0100
1000
0001
0100
1000
0100
0001
1000
0010
,
0001
0010
1000
0001
2002
0000
0000
0000
0000
0000
0000
0000
0000
0000
0000
0000
,
0000
0000
0000
0000
,
0000
0000
0000
0000
,
0000
0000
0000
0000
,
0000
0000
3003
0000
,
0000
0000
0000
0000
,
0000
0000
0000
0000
,
0000
0000
0000
2002
,
3003
0000
0000
0000
;
