#VERSION:0.83;
#TITLE:Final Audition 3 U.F;
#SUBTITLE:;
#ARTIST:Banya;
#TITLETRANSLIT:;
#SUBTITLETRANSLIT:;
#ARTISTTRANSLIT:;
#GENRE:;
#CREDIT:;
#MUSIC:Final Audition 3 U.F.ogg;
#BANNER:Final Audition 3 U.F-bn.png;
#BACKGROUND:Final Audition 3 U.F-bg.png;
#CDTITLE:;
#SAMPLESTART:5.511;
#SAMPLELENGTH:22.065;
#SELECTABLE:YES;
#OFFSET:-0.454;
#BPMS:0.000=130.525
,59.000=65.263
,67.000=130.525
,131.000=261.050
,259.000=130.525
,271.000=65.263
;
#STOPS:;
#SCROLLS:0.000=1.000,
55.000=0.500,
59.000=2.000,
67.000=1.000,
131.000=0.500,
259.000=1.000
;
#DISPLAYBPM:130.525;
#BGCHANGES:-0.454=Final Audition 3 U.F.avi=1.000=0=0=0=StretchNoLoop====,
99999.000=-nosongbg-=1.000=0=0=0=StretchNoLoop====
;
#FGCHANGES:;

//--------------- dance-single - ----------------
#NOTEDATA:;
#STEPSTYPE:dance-single;
#DESCRIPTION:;
#DIFFICULTY:Beginner;
#METER:2;
#RADARVALUES:0,0,0,0,0;
#NOTES:
0000
0000
0000
0000
,
0000
0000
0000
0000
,
0000
0000
0000
1000
,
0000
0000
0000
0001
,
0000
0000
0000
1000
,
0000
0000
0000
0001
,
0000
0000
0000
1000
,
0000
0000
0000
0100
,
0000
0000
0000
0010
,
0000
0000
0000
0001
,
0000
0000
0000
1000
,
0000
0000
0000
0010
,
0000
0000
0000
0100
,
0000
0000
0000
1001
,
0000
0000
0000
1000
,
0000
0000
0000
0001
,
0000
0000
0000
1000
,
0000
0000
0000
1000
,
0000
0000
0000
0001
,
0000
0000
0000
0001
,
0000
0000
0000
1000
,
0000
0000
0000
0100
,
0000
0000
0000
0010
,
0000
0000
0000
0001
,
0000
0000
0000
1000
,
0000
0000
0000
0010
,
0000
0000
0000
0100
,
0000
0000
0000
0001
,
0000
0000
0000
1000
,
0000
0000
0000
0001
,
0000
0000
0000
1000
,
0000
0001
0000
2002
,
0000
0000
3003
1000
,
0000
0000
0000
0100
,
0000
0000
0000
0010
,
0000
0000
0000
0001
,
0000
0000
0000
1000
,
0000
0000
0000
0010
,
0000
0000
0000
0100
,
0000
0000
0000
0001
,
0000
0000
0000
1000
,
0000
0100
0000
1000
,
0000
0100
0000
0010
,
0000
0001
0000
0010
,
0000
0001
0000
1000
,
0000
0010
0000
1000
,
0000
0010
0000
0100
,
0000
0001
0000
0100
,
0000
0001
0000
0010
,
0000
0000
0000
0000
,
0000
0000
0000
0000
,
0000
0000
0000
0000
,
0000
0000
0000
1000
,
0000
0000
0000
0000
,
0000
0000
0000
0000
,
0000
0000
0000
0000
,
0000
0000
0000
0001
,
0000
0000
0000
0100
,
0000
0000
0000
0010
,
0000
0000
0000
1000
,
0000
0000
0000
1000
,
0000
0100
0000
0010
,
0000
0001
0000
1000
,
0000
0001
0000
1000
,
0001
1000
0001
1001
,
1000
1000
0000
0100
,
0100
0100
0000
0010
,
0010
0001
0001
2002
,
0000
3003
0000
0000
;

//--------------- dance-single - ----------------
#NOTEDATA:;
#STEPSTYPE:dance-single;
#DESCRIPTION:;
#DIFFICULTY:Easy;
#METER:4;
#RADARVALUES:0,0,0,0,0;
#NOTES:
0000
0000
0000
0000
,
0000
0000
0000
0000
,
0000
0000
0000
1000
,
0000
0000
0000
0100
,
0000
0000
0000
0010
,
0000
0000
0000
0001
,
0000
0000
0000
1000
,
0000
0100
0000
1000
,
0000
0100
0000
0010
,
0000
0001
0000
0010
,
0000
0001
0000
1000
,
0000
0010
0000
1000
,
0000
0010
0000
0100
,
0000
0001
0000
1001
,
0000
0000
0000
1000
,
0000
0100
0000
0010
,
0000
0001
0000
1000
,
0000
1000
0000
0000
1000
0000
1000
0000
,
0000
1000
0000
0001
,
0000
0001
0000
0000
0001
0000
0001
0000
,
0000
0001
0000
1000
,
0000
0100
0000
0010
,
0000
0001
0000
1000
,
0000
0010
0000
0100
,
0000
0001
0000
1000
,
0000
1000
0000
0100
,
0000
0100
0000
0010
,
0000
0010
0000
0001
,
0000
0001
0000
1000
,
0000
0010
0000
0100
,
0000
0001
0000
1000
,
0000
0001
0000
2002
,
0000
0000
3003
1000
,
0000
0100
0000
1000
,
0000
0100
0000
0010
,
0000
0001
0000
0010
,
0000
0001
0000
1000
,
0000
0010
0000
1000
,
0000
0010
0000
0100
,
0000
0001
0000
0100
,
0000
0001
0000
1000
,
0100
1000
0100
0010
,
0001
0010
0001
1000
,
0010
1000
0010
0100
,
0001
0100
0001
1000
,
0100
0010
0001
1000
,
0010
0100
0001
1000
,
0100
0010
0001
0000
,
0000
1000
0000
0020
,
0000
0000
0000
0000
,
0000
0000
0000
0230
,
0000
0000
0000
0000
,
0000
0000
0000
0302
,
0000
0000
0000
0000
,
0000
0000
0000
2003
,
0000
0000
0000
0000
,
0000
0000
3000
1000
,
0000
0100
0000
0010
,
0000
0001
0000
1000
,
0000
0010
0000
0100
,
0000
0001
0000
1000
,
0000
0000
0000
1000
,
0000
0000
0000
0001
,
0000
0000
0000
0001
,
0000
0000
0000
1001
,
0000
0000
0000
1000
,
0000
0000
0000
0001
,
0000
0000
0000
2002
,
0000
3003
0000
0000
;

//--------------- dance-single - ----------------
#NOTEDATA:;
#STEPSTYPE:dance-single;
#DESCRIPTION:;
#DIFFICULTY:Medium;
#METER:9;
#RADARVALUES:0,0,0,0,0;
#NOTES:
0000
0000
0000
0000
,
0000
0000
0000
0000
,
0000
0000
0000
1000
,
0100
0010
0001
1000
,
0010
0100
0001
1000
,
0100
0010
0001
1000
,
0010
0000
0100
0000
0001
0000
1000
0100
,
1000
0000
0100
1000
0100
0000
1000
0100
,
1000
0000
0100
1000
0100
0000
0010
0001
,
0010
0000
0001
0010
0001
0000
0010
0001
,
0010
0000
0001
0010
0001
0000
1000
0010
,
1000
0000
0010
1000
0010
0000
1000
0010
,
1000
0000
0010
1000
0010
0000
0100
0001
,
0100
0000
0001
0100
0001
0000
1001
0000
,
0000
0000
0000
1000
,
0100
0010
0001
1000
,
0010
0000
0000
0000
0100
0000
0000
0000
0001
0000
0000
0000
1000
0000
0000
1000
,
0000
1000
0000
1000
1000
0000
0100
0000
,
0010
0000
0000
0000
0001
0000
0000
0000
1000
0000
0000
0000
0001
0000
0000
0001
,
0000
0001
0000
0001
0001
0000
1000
0000
,
0100
0010
0001
1000
,
0000
0001
0000
1000
,
0000
0010
0000
1000
,
0000
0001
0000
0100
,
0000
0001
0000
1000
,
0000
0100
0000
1000
,
0000
0001
0000
0010
,
0000
0001
0000
1000
,
0000
0001
0000
1000
,
0000
0100
0000
0010
,
0000
0001
0000
1000
,
0000
0001
0000
2002
,
0000
0000
3003
1000
,
0000
0100
0000
0010
,
0000
0001
0000
1000
,
0000
0010
0000
0100
,
0000
0001
0000
1000
,
0000
0100
0000
0010
,
0000
0001
0000
1000
,
0000
0010
0000
0100
,
0000
0000
0001
0000
0000
0000
1000
0100
,
1000
0100
1000
0100
1000
0100
0010
0001
,
0010
0001
0010
0001
0010
0001
1000
0010
,
1000
0010
1000
0010
1000
0010
0100
0001
,
0100
0001
0100
0001
0100
0001
1000
0001
,
1000
0001
1000
0001
1000
0001
0100
0010
,
0100
0010
0100
0010
0100
0010
1000
0100
,
0010
0001
0100
0010
2000
0000
0000
0000
,
0000
3001
0000
0020
,
0000
0000
0000
0000
,
0230
0000
0000
2300
,
0000
3020
0000
0230
,
0000
0302
0000
2003
,
3000
2000
0000
3020
,
0000
0000
0032
0000
,
0000
0203
0000
2300
,
0000
3020
0000
0031
,
0001
0100
0000
1000
,
1000
0010
0000
0100
,
0000
0001
0000
0010
,
0100
1000
0000
1000
,
0100
0010
0001
1000
,
0010
0100
0001
1000
,
1000
0001
0001
0010
,
0010
0100
0100
1000
,
0000
1000
0000
0001
,
0000
0001
0000
1000
,
0000
0001
0000
2002
,
0000
3003
0000
0000
;

//--------------- dance-single - ----------------
#NOTEDATA:;
#STEPSTYPE:dance-single;
#DESCRIPTION:;
#DIFFICULTY:Hard;
#METER:10;
#RADARVALUES:0,0,0,0,0;
#NOTES:
0000
0000
0000
0000
,
0000
0000
0000
0000
,
0000
0000
0000
0000
0000
0000
1000
0100
,
0010
0000
0001
0010
0000
0001
0010
0000
0100
0000
1000
0000
0001
0000
0010
0000
,
0100
0000
1000
0100
0000
1000
0100
0000
0010
0000
0001
0000
1000
0000
0010
0000
,
0100
0000
0001
0100
0000
0001
0100
0000
0010
0000
1000
0000
0001
0000
0100
0000
,
0010
0000
1000
0010
0000
1000
0010
0000
0100
0000
0001
0000
1000
0100
1000
0000
,
0100
1000
0100
0000
1000
0010
1000
0000
0010
1000
0010
0000
0100
0001
0100
0000
,
0001
0100
0001
0000
0010
0001
0010
0000
0001
0010
0001
0000
1000
0100
1000
0100
,
1000
0100
1000
0000
0010
1000
0010
1000
0010
1000
0010
0000
0100
0001
0100
0001
,
0100
0001
0100
0000
0001
0010
0001
0010
0001
0010
0001
0000
1000
0000
0100
0000
,
0010
0000
0001
0100
0000
0001
0100
0000
0010
0000
1000
0000
0001
0000
0010
0000
,
0100
0000
1000
0010
0000
1000
0010
0000
0100
0000
0001
0000
1000
0000
0010
0000
,
0100
0000
0001
0010
0000
0001
0010
0000
0100
0000
1000
0000
1001
0000
0000
0000
,
0000
0000
0000
0000
0000
0000
1000
0100
,
0010
0001
1000
0010
0100
0001
1000
0100
,
0010
0000
0001
0000
1000
0000
0010
0000
0100
0000
0001
0000
1000
0000
0000
1000
,
0000
0000
1000
0000
0000
0000
1000
0000
1000
0000
0000
0000
0100
1000
0100
1000
,
0100
1000
0100
1000
0100
1000
0100
1000
0100
0000
0100
0000
0001
0000
0000
0001
,
0000
0001
0000
0001
0001
0000
0010
0010
,
0010
0000
0010
0000
0010
0100
0010
0100
0010
0100
0010
0000
1000
0100
0000
0010
,
0001
0000
1000
0000
0001
0000
0001
0000
0100
0000
0100
0000
1000
0010
0000
0100
,
0001
0000
1000
0000
0001
0000
0001
0000
0010
0000
0010
0000
0001
0010
0000
0100
,
1000
0000
0001
0000
1000
0000
1000
0000
0010
0000
0010
0000
0001
0100
0000
0010
,
1000
0000
0001
0000
1000
0000
1000
0000
0100
0000
0100
0000
1000
0100
0000
0100
,
0001
0000
1000
0000
0001
0000
0001
0000
0100
0000
0100
0000
1000
0010
0000
0010
,
0001
1000
0001
0001
0010
0010
1000
0100
,
1000
0100
0010
0001
0010
0001
1000
0010
,
1000
0000
0010
0000
0100
0000
0001
0000
0100
0000
0001
0000
1000
0100
0000
1000
,
0010
0000
0000
0000
0100
0000
0100
0000
0100
0000
0000
0000
0001
0010
0000
0001
,
0100
0000
0010
0010
0010
0000
1000
1000
,
0000
0000
0001
0001
0000
0000
0220
0000
,
0000
0000
0000
0000
0000
0330
1000
0100
,
1000
0100
1000
0100
1000
0100
1000
0100
,
1000
0100
1000
0100
1000
0100
1000
0100
,
1000
0100
1000
0100
1000
0100
1000
0100
,
1000
0100
1000
0100
1000
0000
0001
0010
,
0001
0010
0001
0010
0001
0010
0001
0010
,
0001
0010
0001
0010
0001
0010
0001
0010
,
0001
0010
0001
0010
0001
0010
0001
0010
,
0001
0010
0001
0000
0001
0000
1000
0010
,
1000
0010
1000
0010
1000
0000
0001
0100
,
0001
0100
0001
0100
0001
0000
1000
0001
,
1000
0001
1000
0001
1000
0000
0010
0100
,
0010
0100
0010
0100
0010
0000
0001
1000
,
0001
1000
0001
1000
0001
0000
0100
0010
,
0100
0010
0100
0010
0100
0000
1000
0100
,
0010
0001
0010
0100
2000
0000
0000
0000
,
3000
0000
0000
0002
,
0000
0000
0000
0000
,
2003
0000
3000
1000
,
0100
0010
0001
1000
,
0010
0000
0100
0000
0001
0000
1000
0100
,
1000
0000
0100
1000
0100
0000
1000
0010
,
1000
0000
0010
1000
0010
0000
0100
0001
,
0100
0000
0001
0100
0001
0000
0010
0001
,
0010
0000
0001
0010
0001
0000
1000
0000
,
1000
1000
1000
0100
,
0100
0100
0100
0010
,
0010
0010
0010
0001
,
0001
0001
0001
1000
,
0100
0010
0001
1000
,
0010
0100
0001
1000
,
0001
0000
1000
0000
0001
0000
1000
0001
,
1000
0000
0001
0000
1000
0000
0001
0000
1000
0000
0000
0000
1001
0000
0000
0100
,
0000
0100
0000
0001
0001
0000
1000
0100
,
0010
0000
0001
0100
0000
0010
1000
0000
0100
0000
0100
0000
1001
0000
0000
0010
,
0000
0010
0000
1000
1000
0000
2002
0000
,
0000
3003
0000
0000
;

//--------------- dance-single - ----------------
#NOTEDATA:;
#STEPSTYPE:dance-single;
#DESCRIPTION:;
#DIFFICULTY:Challenge;
#METER:12;
#RADARVALUES:0,0,0,0,0;
#NOTES:
0000
0000
0000
0000
,
0000
0000
0000
0000
,
0000
0000
0000
0000
0000
0000
1001
0100
,
0011
0000
1000
0100
0000
0010
0001
0000
0100
0000
0100
0000
1001
0000
0010
0000
,
0101
0000
1000
0010
1000
0010
1000
0000
1001
0000
0110
0000
1001
0000
0010
0000
,
1100
0000
0001
0010
0000
0100
1000
0000
0010
0000
0010
0000
1001
0000
0100
0000
,
1010
0000
0001
0100
0001
0100
0001
0000
1001
0000
0110
0000
1000
0100
0010
0001
,
1000
0100
0010
0001
1000
0100
0010
0001
1000
0100
0010
0001
1000
0100
0010
0001
,
1000
0100
0010
0001
1000
0100
0010
0001
1000
0000
0000
0000
0001
0100
0010
1000
,
0001
0100
0010
1000
0001
0100
0010
1000
0001
0100
0010
1000
0001
0100
0010
1000
,
0001
0100
0010
1000
0001
0100
0010
1000
0001
0000
0000
0000
1000
0010
0100
0001
,
1000
0010
0100
0001
1000
0010
0100
0001
1000
0010
0100
0001
1000
0010
0100
0001
,
1000
0010
0100
0001
1000
0010
0100
0001
1000
0000
0000
0000
0001
0010
0100
1000
,
0001
0010
0100
1000
0001
0010
0100
1000
0001
0010
0100
1000
1001
0000
0000
0000
,
0000
0000
0000
0000
0000
0000
0000
0000
0000
0000
0000
0000
0000
0000
0000
0000
0000
0000
0000
0000
0000
0000
0000
0000
1000
0100
0010
0001
0000
1000
0000
0100
,
0000
0010
0000
0001
0010
0100
1000
0001
1000
0010
0100
0001
0000
1000
0000
0100
0000
0010
0001
0100
0010
1000
0100
0010
0001
0010
0001
0010
0000
0100
0000
0100
,
0000
0100
0000
1000
0100
1000
0100
1000
0001
0100
0001
0100
0000
0010
0000
0010
0000
0010
0000
1000
0010
1000
0010
1000
1001
0000
0000
0000
0000
0000
0110
0000
,
0000
0000
0011
0000
0000
0000
1100
0000
1001
0000
0000
0000
1000
0100
0010
0001
,
1000
0100
0010
0001
1000
0010
0100
0001
1000
0010
0100
0001
1001
0000
0000
0110
,
0000
0000
0101
0000
0000
0000
1010
0000
1001
0000
0000
0000
0001
0100
0010
1000
,
0001
0100
0010
1000
0001
0010
0100
1000
0001
0010
0100
1000
1001
0000
0010
0000
,
0100
1000
1001
0110
1001
0000
1001
0100
,
0010
0001
1001
0110
1001
0000
1001
0010
,
0100
0001
1001
0110
1001
0000
1001
0100
,
0010
0000
1000
0000
1001
0000
0110
0000
1001
0000
0000
0000
1000
0100
1000
0000
,
0100
0010
0100
0000
0010
0001
0010
0000
0001
0100
0001
0000
0100
0010
0100
0000
,
0010
1000
0010
0000
1000
0001
1000
0000
0010
0100
0010
0000
0001
1000
0001
0000
,
1000
0100
0010
0000
0100
0010
0100
0000
0001
0010
0100
0000
0010
0100
0010
0000
,
1000
0010
0100
0000
0010
0100
0010
0000
0001
0100
0010
0000
0100
0010
0100
0000
,
1000
0100
0010
0001
1000
0000
1000
0000
0001
0010
0100
1000
0001
0000
0001
0000
,
1000
0010
0100
0001
1000
0000
1000
0000
0001
1000
0001
0000
1100
0000
1100
0000
,
0000
0000
0011
0011
0000
0000
4004
0000
,
0000
0000
0000
0000
0000
3003
1000
0100
,
0010
0001
1000
0100
0010
0001
1000
0100
,
0010
0001
1000
0100
0010
0001
0010
0100
,
1000
0001
0010
0100
1000
0001
0010
0100
,
1000
0001
0010
0100
1000
0001
1000
0010
,
0100
0001
1000
0010
0100
0001
1000
0010
,
0100
0001
1000
0010
0100
0001
0100
0010
,
1000
0001
0100
0010
1000
0001
0100
0010
,
1000
0001
0100
0010
1000
0001
1000
0100
,
1000
0100
1000
0100
0010
0100
1000
0010
,
1000
0010
0100
0010
1000
0100
0010
0001
,
1000
0100
0010
0001
0010
0100
1000
0010
0100
0001
0100
0010
,
1000
0000
0100
0000
0010
0000
0001
0000
0010
0000
0100
0000
1000
0000
0000
0001
0000
0000
1000
0000
0100
0000
1000
0000
,
0100
0000
1000
0000
0100
0000
1000
0000
0100
0000
1000
0000
0100
0000
0000
0010
0000
0000
0001
0000
0010
0000
0001
0000
,
0010
0000
0001
0000
0010
0000
0001
0000
0010
0000
0001
0000
0010
0000
0000
0100
0000
0000
1000
0000
0100
0000
0010
0000
,
0001
0100
0010
1000
0100
0010
0002
0000
0000
0010
0000
0000
,
0100
2000
3003
0020
,
0000
0000
0000
0000
0000
0000
0030
1000
,
0100
0001
0020
0000
0000
0030
1000
0100
,
0020
0000
0032
0000
0003
0000
0001
0100
,
0010
1000
0001
0100
1000
0100
0001
0010
,
0100
1000
0001
0100
0010
1000
0002
0000
,
0000
0000
0000
0000
1003
0100
0010
0001
,
1000
0010
0200
0000
0300
0000
1000
0100
,
1000
0100
0010
0001
0010
0001
1000
0100
,
0010
0001
1000
0010
0100
0001
1000
0100
,
0010
0001
1000
0010
0100
0001
0010
0100
,
1000
0001
0100
0010
1000
0001
0010
0100
,
1000
0001
0100
0010
1000
0001
1000
0100
,
1000
0100
0010
0001
0010
0001
1000
0010
,
1000
0010
0100
0001
0100
0001
1000
0100
,
0001
0100
1000
0001
0100
1000
0100
0001
,
1000
0000
0010
0000
0001
0000
0010
0000
1000
0000
0001
0000
1000
0100
1000
0100
,
1000
0010
0100
0001
0010
0001
0010
0001
0100
0010
1000
0100
1000
0010
1000
0010
,
1000
0100
0010
0001
0100
0001
0100
0001
0010
0100
1000
0010
1000
0100
0001
0100
,
1000
0001
0100
1000
0100
0001
1000
0010
0001
0010
1000
0001
0220
0000
0000
0000
,
0330
0000
0000
0000
;
