#VERSION:0.83;
#TITLE:Final Audition 2;
#SUBTITLE:;
#ARTIST:Banya;
#TITLETRANSLIT:;
#SUBTITLETRANSLIT:;
#ARTISTTRANSLIT:;
#GENRE:;
#CREDIT:;
#MUSIC:Final Audition 2.ogg;
#BANNER:Final Audition 2-bn.png;
#BACKGROUND:Final Audition 2-bg.png;
#CDTITLE:;
#SAMPLESTART:23.423;
#SAMPLELENGTH:14.709;
#SELECTABLE:YES;
#OFFSET:-0.210;
#BPMS:0.000=65.266
,8.500=130.531
,198.000=65.266
;
#STOPS:;
#SCROLLS:0.000=1.000,
37.000=0.500,
42.000=1.000,
104.000=0.500,
122.000=1.000
;
#DISPLAYBPM:130.531;
#BGCHANGES:0.000=Final Audition 2.avi=1.000=0=0=0=StretchNoLoop====,
99999.000=-nosongbg-=1.000=0=0=0=StretchNoLoop====
;
#FGCHANGES:;

//--------------- dance-single - ----------------
#NOTEDATA:;
#STEPSTYPE:dance-single;
#DESCRIPTION:;
#DIFFICULTY:Beginner;
#METER:1;
#RADARVALUES:0,0,0,0,0;
#NOTES:
0000
0000
0000
0000
,
0000
0000
0000
0000
,
0000
1000
0000
0000
,
0000
0100
0000
0000
,
0000
0010
0000
0000
,
0000
0001
0000
0000
,
0000
1000
0000
0000
,
0000
0010
0000
0000
,
0000
0100
0000
0000
,
0000
1001
0000
0000
,
0000
0000
1000
0000
,
0000
0000
1000
0000
,
0000
0000
0100
0000
,
0000
0000
0100
0000
,
0000
0000
0010
0000
,
0000
0000
0010
0000
,
0000
0000
0001
0000
,
0000
0000
0001
0000
,
0000
0000
1000
0000
,
0000
0000
1000
0000
,
0100
0000
0010
0000
,
0000
0000
0001
0000
,
0010
0000
0100
0000
,
0000
0000
1000
0000
,
0010
0000
0100
0000
,
0000
0000
0001
0000
,
2002
3003
0000
0000
1000
0000
0000
0000
,
0000
0000
0000
0000
,
0000
0000
0001
0000
,
0000
0000
0000
0000
,
0000
0000
1000
0000
,
0000
0000
0001
0000
,
0000
0000
1000
0000
,
0000
0000
0001
0000
,
0000
0000
1000
0000
,
0000
0000
1000
0000
,
0000
0000
1000
0000
,
0000
0000
1000
0000
,
0000
0000
0001
0000
,
0000
0000
0001
0000
,
0000
0000
0001
0000
,
0000
0000
0001
0000
,
0000
0000
1000
0000
,
0000
0000
1000
0000
,
0100
0000
0001
0000
,
0000
0000
0001
0000
,
0010
0000
1000
0000
,
0100
0000
0010
0000
,
0001
0000
1000
0100
,
0010
0001
2002
3003
;

//--------------- dance-single - ----------------
#NOTEDATA:;
#STEPSTYPE:dance-single;
#DESCRIPTION:;
#DIFFICULTY:Easy;
#METER:3;
#RADARVALUES:0,0,0,0,0;
#NOTES:
0000
0000
0000
0000
,
0000
0000
0000
0000
,
0000
1000
1000
0100
,
0100
0001
0001
0010
,
0010
1000
1000
0010
,
0010
0001
0001
0100
,
0100
1000
0100
0010
,
0001
1000
0010
0100
,
0001
1000
0001
0010
,
0100
1001
0000
0000
,
0000
0000
1000
0000
,
1000
0000
0001
0000
,
0001
0000
0100
0000
,
0100
0000
0010
0000
,
0010
0000
1000
0000
,
1000
0000
0100
0000
,
0100
0100
0001
0000
,
0001
0000
0010
0000
,
0010
0010
1000
0000
,
1000
0000
0001
0000
,
0001
0000
1000
0000
,
1000
0000
0010
0000
,
0010
0000
1000
0000
,
1000
0000
0100
0000
,
0100
0000
1000
0000
,
1000
0000
0001
0000
,
2002
3003
0000
0000
1000
0000
0000
0000
,
0100
0000
0010
0000
,
0001
0010
0100
0000
,
1000
0000
0010
0000
,
0100
0000
0001
0000
1000
0000
0000
0001
,
0000
0000
1001
0000
0001
0000
0000
1000
,
0000
0000
2002
3003
1000
0000
0000
0000
,
0000
0000
0100
0000
,
0010
0000
0001
0001
,
0001
0000
1000
1000
,
1000
0000
0010
0010
,
0010
0000
0100
0100
,
0100
0000
1000
1000
,
1000
0000
0001
0001
,
0001
0000
0100
0100
,
0100
0000
0010
0010
,
0010
0000
1000
0000
,
0000
0000
1000
0100
,
0010
0001
0001
0000
,
0000
0000
0001
0010
,
0100
1000
1000
0100
,
0010
0001
1000
0010
,
0100
0001
1000
0100
,
0010
0001
2002
3003
;

//--------------- dance-single - ----------------
#NOTEDATA:;
#STEPSTYPE:dance-single;
#DESCRIPTION:;
#DIFFICULTY:Medium;
#METER:8;
#RADARVALUES:0,0,0,0,0;
#NOTES:
0000
0000
0000
0000
,
0000
0000
0000
0000
,
0000
0000
1001
0100
0010
0001
0100
0010
,
1000
0000
1001
0010
0100
1000
0010
0100
,
0001
0000
1001
0010
0100
0001
0010
0100
,
1000
0000
1001
0100
0010
1000
0100
0010
,
0001
0000
1100
0100
1000
0100
1000
1000
,
1000
0000
0011
0010
0001
0010
0001
0001
,
0001
0000
1010
1000
0010
1000
0010
0010
,
0010
1001
0000
0000
,
0000
0000
0000
0000
1001
0001
1000
0000
,
1100
1000
0100
0000
1001
1000
0001
0000
,
0101
0001
0100
0000
0110
0010
0100
0000
,
1010
1000
0010
0000
0110
0100
0010
0000
,
0011
0001
0010
0000
1000
0100
0010
0001
,
1000
1000
1000
0000
0001
0010
0100
1000
,
0001
0001
0001
0000
1000
0010
0100
0001
,
0010
0010
0010
0000
0001
0100
0010
1000
,
0100
0100
0100
0000
1000
0000
0000
1000
,
0000
0000
2000
3000
0001
0000
0001
0000
,
1000
1000
1000
1000
0001
0000
0000
0001
,
0000
0000
0002
0003
0100
0000
0100
0000
,
0010
0010
0010
0010
1000
0000
0000
1000
,
0000
0000
2000
3000
0100
0000
0100
0000
,
0010
0010
0010
0010
0001
0000
0000
0001
,
0000
0000
0002
0003
1000
0000
1000
0000
,
2002
3003
0000
0000
1000
0000
0100
0000
,
0010
0001
1000
0010
,
0100
0001
0010
0100
1000
0000
0100
0000
,
0010
0001
1000
0010
,
0100
0000
0000
0000
0001
0000
0000
0000
1000
0000
0000
0100
0000
0000
0010
0000
,
0000
0001
0000
0000
1001
0000
0000
0000
0001
0000
0000
0010
0000
0000
0100
0000
,
0000
1000
0000
0000
2002
0000
3003
0000
1000
0000
0000
0010
0000
0000
0100
0000
,
0000
0000
0001
0010
,
0100
1000
4010
0010
,
0010
0010
0010
0010
,
0010
3010
0014
0010
,
0010
0010
0010
0010
,
0010
0013
4100
0100
,
0100
0100
0100
0100
,
0100
3100
0104
0100
,
0100
0100
0100
0100
,
0100
0000
0000
0000
0103
0000
0000
0000
1000
0000
0000
1000
0000
0000
1000
0000
,
0000
1000
1000
0000
1000
0100
0010
0001
,
1000
0000
0010
0000
0100
0000
0001
0000
0001
0000
0000
0001
0000
0000
0001
0000
,
0000
0001
0001
0000
0001
0010
0100
1000
,
0001
0100
0010
1000
1000
0100
0010
0001
,
1000
0010
0100
0001
1000
0100
0010
0001
,
1000
0010
0100
0001
1000
0001
1000
0001
,
1000
0100
1000
0100
0001
0100
0001
0100
2002
0000
0000
0000
3003
0000
0000
0000
;

//--------------- dance-single - ----------------
#NOTEDATA:;
#STEPSTYPE:dance-single;
#DESCRIPTION:;
#DIFFICULTY:Hard;
#METER:10;
#RADARVALUES:0,0,0,0,0;
#NOTES:
0000
0000
0000
0000
,
0000
0000
0000
0000
,
0000
0000
0000
0000
1000
0000
0100
0000
0010
0000
0001
0010
0000
0001
0010
0000
,
0100
0000
1000
0000
0001
0000
0010
0000
0100
0000
1000
0100
0000
1000
0100
0000
,
0010
0000
0001
0000
1000
0000
0010
0000
0100
0000
0001
0100
0000
0001
0100
0000
,
0010
0000
1000
0000
0001
0000
0100
0000
0010
0000
1000
0010
0000
1000
0010
0000
,
0100
0000
0001
0000
1000
0000
0100
0000
0010
0000
0001
0100
0000
0001
0100
0000
,
0010
0000
1000
0000
0001
0000
0010
0000
0100
0000
1000
0010
0000
1000
0010
0000
,
0100
0000
0001
0000
1000
0000
0001
0000
0100
0000
0010
0100
0000
0010
0100
0000
,
0001
1000
1001
0000
0000
0000
0000
0000
,
0000
0000
0000
0000
0000
0000
0000
0000
1001
0000
0100
0000
0010
0000
0001
0010
,
0000
0010
0100
0000
1000
0000
1000
0000
1001
0000
0010
0000
0100
0000
1000
0100
,
0000
0100
0010
0000
0001
0000
0001
0000
1001
0000
0010
0000
0100
0000
0001
0100
,
0000
0100
0010
0000
1000
0000
1000
0000
1001
0000
0100
0000
0010
0000
1000
0010
,
0000
0010
0100
0000
0001
0000
0001
0000
1100
0000
0100
0000
0010
0000
0001
0100
,
0000
0100
0010
0000
1000
0000
1000
0000
0101
0000
0100
0000
0010
0000
1000
0100
,
0000
0100
0010
0000
0001
0000
0001
0000
1010
0000
0010
0000
0100
0000
0001
0010
,
0000
0010
0100
0000
1000
0000
1000
0000
0011
0000
0010
0000
0100
0000
1000
0010
,
0000
0010
0100
0000
0001
0000
0001
0000
1000
0100
0000
0100
0010
0000
0010
0001
,
0000
0001
1000
0000
2002
0000
3003
0000
0001
0010
0000
0010
0100
0000
0100
1000
,
0000
1000
0001
0000
1001
0000
0110
0000
1000
0010
0000
0010
0100
0000
0100
0001
,
0000
0001
1000
0000
2002
0000
3003
0000
0001
0100
0000
0100
0010
0000
0010
1000
,
0000
1000
0001
0000
1001
0000
0110
0000
1000
0100
0000
0100
0001
0000
0001
0010
,
0000
0010
1000
0000
0220
0000
0330
0000
1000
0100
1000
0000
0001
0010
0001
0000
,
1000
0100
0010
0001
0010
0100
1000
0000
0001
0010
0000
0010
1000
0000
1000
0100
,
0000
0100
0001
0000
0220
0000
0330
0000
0001
0010
0001
0000
1000
0100
1000
0000
,
2002
3003
0000
0000
1000
0100
1000
0000
,
0100
0010
0001
0010
0100
0000
0000
0000
0010
0000
0000
0000
0010
0000
0000
0000
,
0001
0001
0001
0001
1000
0010
1000
0000
,
0010
0001
0100
0001
0010
0000
0000
0000
0100
0000
0000
0000
0100
0000
0000
0000
,
0001
0000
0001
0000
0001
0000
0001
0000
1000
0100
0000
0100
0010
0000
0010
0001
,
0000
0001
0100
0000
0110
0000
0000
0000
0001
0010
0000
0010
0100
0000
0100
1000
,
0000
1000
0001
0000
2002
0000
3003
0000
1000
0000
0000
0100
0000
0000
0010
0000
,
0000
0000
0000
0001
0010
0100
1000
0000
,
0001
0000
1000
0000
0001
0000
0000
0000
1000
0100
1000
0100
1000
0100
1000
0100
,
1000
0100
1000
0100
1000
0100
1000
0100
1000
0100
1000
0100
1000
0100
1000
0100
,
1000
0100
1000
0100
1000
0000
0000
0000
0001
0010
0001
0010
0001
0010
0001
0010
,
0001
0010
0001
0010
0001
0010
0001
0010
0001
0010
0001
0010
0001
0010
0001
0010
,
0001
0010
0001
0010
0001
0000
0000
0000
1000
0010
1000
0010
1000
0010
1000
0010
,
1000
0010
1000
0010
1000
0010
1000
0010
1000
0010
1000
0010
1000
0010
1000
0010
,
1000
0010
1000
0010
1000
0000
0000
0000
0001
0100
0001
0100
0001
0100
0001
0100
,
0001
0100
0001
0100
0001
0100
0001
0100
0001
0100
0001
0100
0001
0100
0001
0100
,
0001
0100
0001
0100
0001
0000
0000
0000
1000
0000
0000
1000
0000
0000
1000
0000
,
0000
0000
1000
0000
1000
0000
0000
0000
1001
0000
0100
0000
0010
0000
0001
0100
,
0000
0100
0010
0000
1000
0000
1000
0000
0001
0000
0000
0001
0000
0000
0001
0000
,
0000
0000
0001
0000
0001
0000
0000
0000
1001
0000
0100
0000
0010
0000
1000
0100
,
0000
0100
0010
0000
0001
0000
0001
0000
1000
0100
0000
1000
0010
0000
0100
0010
,
0000
0100
0001
0000
2200
0000
3300
0000
0001
0010
0000
0001
0100
0000
0010
0100
,
0010
1000
0000
0100
1000
0000
0001
1000
0010
0100
0000
0010
0100
0010
0000
1000
,
0100
1000
0010
0100
0001
0010
0001
1000
2002
0000
0000
0000
3003
0000
0000
0000
;

//--------------- dance-single - ----------------
#NOTEDATA:;
#STEPSTYPE:dance-single;
#DESCRIPTION:;
#DIFFICULTY:Challenge;
#METER:11;
#RADARVALUES:0,0,0,0,0;
#NOTES:
0000
0000
0000
0000
,
0000
0000
0000
0000
,
0000
0000
0000
0000
1001
0000
0100
0000
0011
0000
1000
0100
1000
0100
1000
0000
,
0110
0000
0000
0000
1001
0000
0010
0000
1100
0000
0001
0010
0001
0010
0001
0000
,
0110
0000
0000
0000
1001
0000
0010
0000
0101
0000
1000
0010
1000
0010
1000
0000
,
0110
0000
0000
0000
1001
0000
0100
0000
1010
0000
0001
0100
0001
0100
0001
0000
,
0110
0000
0000
0000
1001
0001
1000
0100
0010
0100
0001
0000
0001
0010
0001
0100
,
0010
1000
0100
0000
1001
1000
0001
0010
0100
0010
1000
0000
1000
0100
1000
0010
,
0100
0001
0010
0000
1001
0000
0100
0000
0011
0000
1000
0100
0000
0100
0001
0000
,
0001
0010
0100
1000
1001
0000
0000
0000
0000
0000
0000
0000
0000
0000
0000
0000
,
0000
0000
0000
0000
0000
0000
0000
0000
1000
0100
0010
0001
0100
0010
1000
0001
,
1000
0010
0100
0001
0010
0100
1000
0001
1000
0001
1000
0001
0010
0100
0010
0100
,
1000
0100
0010
0001
1000
0001
1000
0000
0001
0100
0010
1000
0100
0010
0001
1000
,
0001
0010
0100
1000
0010
0100
0001
1000
0001
1000
0001
1000
0100
0010
0100
0010
,
0001
0010
0100
1000
0001
1000
0001
0000
1000
0100
1000
0100
1000
0010
1000
0010
,
0001
0010
0001
0010
0001
0100
0001
0100
1000
0001
1000
0001
1000
0001
1000
0001
,
0100
0010
0100
1000
0100
0010
0001
0000
1000
0010
1000
0010
1000
0100
1000
0100
,
0001
0100
0001
0100
0001
0010
0001
0010
0100
0010
0100
0010
0100
0010
0100
0010
,
1000
0100
0010
0001
0010
0100
1000
0000
1000
0100
0000
0100
0010
0000
0001
0010
,
0001
0010
0001
0000
0022
0000
0033
0000
1000
0000
0100
0000
0010
0000
0001
0000
,
1000
0100
1000
0100
0010
0001
0010
0001
1000
0010
0000
0010
0100
0000
0100
0001
,
0100
0001
0100
0000
0202
0000
0303
0000
1000
0000
0010
0000
0100
0000
0001
0000
,
1000
0010
1000
0010
0100
0001
0100
0001
1000
0100
0000
0010
0001
0000
1000
0010
,
0000
0100
0001
0000
2002
0000
3003
0000
1000
0000
0001
0000
1000
0000
0001
0000
,
1000
0100
0010
0001
1000
0010
0100
0001
1000
0010
0000
0100
0001
0000
1000
0100
,
0000
0010
0001
0000
2002
0000
3003
0000
1000
0001
1000
0000
0001
1000
0001
0000
,
2002
0000
3003
0000
0000
0000
0000
0000
1000
0000
0100
0000
0010
0001
0000
0000
,
0001
0010
0100
1000
0010
0000
0000
0000
0010
1000
0000
0000
0010
0001
0000
0000
,
0010
1000
0010
0001
0010
1000
0010
0000
0001
0000
0100
0000
0010
1000
0000
0000
,
1000
0010
0100
0001
0010
0000
0000
0000
0010
1000
0000
0000
0010
0001
0000
0000
,
0010
1000
0010
0001
0010
1000
0010
0000
1000
0100
0000
0000
0110
0000
0010
0001
,
0000
0001
1000
0000
0110
0000
0000
0000
0001
0010
0000
0010
0100
0000
0100
1000
,
0000
1000
0001
0000
2002
0000
3003
0000
1000
0000
0100
0010
0000
0010
0000
0000
,
0000
0000
0000
0000
0000
0000
0001
0010
0001
0100
0010
1000
0100
0000
0000
0000
,
1000
0001
1000
0001
1000
0000
0000
0000
1000
0100
0010
0001
1000
0100
0010
0001
,
1000
0100
0010
0001
1000
0100
0010
0001
1000
0100
0010
0001
1000
0100
0010
0001
,
1000
0100
0010
0001
1000
0000
1000
0000
0001
0100
0010
1000
0001
0100
0010
1000
,
0001
0100
0010
1000
0001
0100
0010
1000
0001
0100
0010
1000
0001
0100
0010
1000
,
0001
0100
0010
1000
0001
0000
0001
0000
1000
0010
0100
0001
1000
0010
0100
0001
,
1000
0010
0100
0001
1000
0010
0100
0001
1000
0010
0100
0001
1000
0010
0100
0001
,
1000
0010
0100
0001
1000
0000
1000
0000
0001
0010
0100
1000
0001
0010
0100
1000
,
0001
0010
0100
1000
0001
0010
0100
1000
0001
0010
0100
1000
0001
0010
0100
1000
,
0001
0010
0100
1000
0001
0000
0001
0000
1100
0000
0000
0110
0000
0000
0011
0000
,
0000
0000
1010
0000
0101
0000
0000
0000
1000
0100
0010
0001
1000
0010
0100
0001
,
1000
0100
0010
0001
1000
0010
0100
0001
0011
0000
0000
0110
0000
0000
1100
0000
,
0000
0000
0101
0000
1010
0000
0000
0000
1000
0010
0100
0001
1000
0100
0010
0001
,
1000
0010
0100
0001
1000
0100
0010
0001
1000
0100
1000
0100
1000
0010
1000
0010
,
0100
0001
0100
0001
0010
0001
0010
0001
1000
0100
0010
0001
1000
0010
0100
0001
,
1000
0100
0001
0100
1000
0001
0100
1000
0100
0001
1000
0010
0001
0010
1000
0001
,
0010
1000
0010
0001
1000
0100
0010
0001
0220
0000
0330
0000
0000
0000
0000
0000
;
