#TITLE:Fast Track to Browntown;
#SUBTITLE:;
#ARTIST:dB soundworks;
#TITLETRANSLIT:;
#SUBTITLETRANSLIT:;
#ARTISTTRANSLIT:;
#GENRE:;
#CREDIT:;
#MUSIC:Fast Track to Browntown.ogg;
#BANNER:Fast Track to Browntown-bn.png;
#BACKGROUND:Fast Track to Browntown-bg.png;
#CDTITLE:;
#SAMPLESTART:7.379;
#SAMPLELENGTH:21.654;
#SELECTABLE:YES;
#OFFSET:-0.161;
#BPMS:0.000=133.000;
#STOPS:;
#BGCHANGES:;
#FGCHANGES:;

//--------------- dance-single - ----------------
#NOTES:
     dance-single:
     :
     Beginner:
     9:
     0,0,0,0,0:
1000
0000
0100
0000
,
0010
0000
0001
0000
,
1000
0000
0010
0000
,
0100
0000
0001
0000
,
1000
0000
0100
0000
,
0001
0000
0000
0000
0000
0000
0000
0000
0000
0000
0000
0000
0010
0000
0000
0000
0000
0000
0000
0000
0000
1000
0001
1000
,
0001
0000
0010
0000
,
1000
0000
0000
0000
0000
0000
0000
0000
0000
0000
0000
0000
0100
0000
0000
0000
0000
0000
0000
0000
0000
0001
1000
0001
,
1000
0100
0010
0001
,
0100
0010
1000
0001
,
2000
3200
0320
0000
0000
0000
0032
0000
0000
0000
0000
0000
0000
0000
0000
0000
,
0203
0300
1000
0000
0010
0000
0100
0000
,
1000
0100
0010
0100
1000
0100
0010
0001
,
1000
0010
0100
0001
,
1000
0100
1000
0100
0010
0001
0010
0001
,
1000
0100
1000
0000
0001
0100
0001
0000
1000
0010
1000
0000
0001
0010
0001
0000
,
1000
0000
0010
0100
0010
0100
0010
0100
0010
0000
0010
0100
0010
0100
0010
0000
,
0010
0100
0010
0000
0010
0100
0010
0100
0010
0000
0010
0100
0010
0100
0010
0000
,
0010
0000
0010
0100
0010
0100
0010
0100
0010
0000
0010
0100
0010
0100
0010
0000
,
0010
0000
0100
0000
0010
0000
0000
0000
0010
0000
0100
0000
0010
0000
0100
0000
0010
0000
0000
0000
0001
0000
0000
0000
0100
0000
0000
0000
0010
0100
0010
0100
,
2000
0000
0000
3200
,
0320
0000
0032
0203
,
0320
0000
0000
2030
,
3020
0000
0230
0302
,
0023
0000
0230
0000
,
2300
3200
0320
0032
0203
0320
2030
3002
,
2003
0000
3200
0000
,
0320
0000
0000
0000
0000
0000
0000
0000
0032
0000
0000
0000
2003
0000
0000
3000
,
1001
0000
0000
0000
0100
0000
0000
0000
0010
0000
0000
0000
0001
0010
0001
0000
,
0100
0000
0000
0000
0010
0000
0000
0000
1000
0000
0000
0000
0001
1000
0001
1000
,
0001
0010
0100
1000
,
0010
0000
0100
0000
0001
0000
1000
0001
,
1000
0000
0100
0000
0100
0010
0001
0000
1000
0000
0100
0000
0100
0010
0001
0000
,
1000
0000
0010
0000
0010
0100
0001
0000
1000
0000
0010
0000
0010
0100
0001
0000
,
1000
0000
0100
0000
0100
0010
0001
0000
1000
0000
0010
0000
0010
0100
0001
0000
,
1000
0100
1000
0100
0010
0000
0001
0000
0100
0000
0010
0000
1000
0000
0100
0000
,
0001
0000
0010
0000
,
0100
0000
1000
0000
,
0001
0000
0100
0000
,
0010
0000
1000
0000
,
0001
0000
0010
0000
,
1000
0000
0000
0000
0000
0000
0000
0000
0000
0000
0000
0000
0100
0000
0000
0000
0000
0000
0000
0000
0000
0001
1000
0001
,
1000
0000
0100
0000
,
0001
0000
0000
0000
0000
0000
0000
0000
0000
0000
0000
0000
0010
0000
0000
0000
0000
0000
0000
0000
0000
1000
0001
1000
,
0001
0010
0100
1000
,
0010
0100
0001
1000
,
0002
0023
0230
0000
0000
0000
2300
0000
0000
0000
0000
0000
0000
0000
0000
0000
,
3020
0030
0001
0000
0100
0000
0010
0000
,
0001
0010
0100
0010
0001
0010
0100
1000
,
0001
0100
0010
1000
,
0001
0010
0001
0010
0100
1000
0100
1000
,
0001
0010
0001
0000
1000
0010
1000
0000
0001
0100
0001
0000
1000
0100
1000
0000
,
0001
0000
0100
0010
0100
0010
0100
0010
0100
0000
0100
0010
0100
0010
0100
0000
,
0100
0010
0100
0000
0100
0010
0100
0010
0100
0000
0100
0010
0100
0010
0100
0000
,
0100
0000
0100
0010
0100
0010
0100
0010
0100
0000
0100
0010
0100
0010
0100
0000
,
0100
0000
0010
0000
0100
0000
0000
0000
0100
0000
0010
0000
0100
0000
0010
0000
0100
0000
0000
0000
1000
0000
0000
0000
0010
0000
0000
0000
0100
0010
0100
0010
,
0002
0000
0000
0023
,
0230
0000
2300
3020
,
0230
0000
0000
0302
,
0203
0000
0320
2030
,
3200
0000
0320
0000
,
0032
0023
0230
2300
3020
0230
0302
2003
,
3002
0000
0023
0000
,
0230
0000
0000
0000
0000
0000
0000
0000
2300
0000
0000
0000
3002
0000
0000
0003
,
1001
0000
0000
0000
0010
0000
0000
0000
0100
0000
0000
0000
1000
0100
1000
0000
,
0010
0000
0000
0000
0100
0000
0000
0000
0001
0000
0000
0000
1000
0001
1000
0001
,
1000
0100
0010
0001
,
0100
0000
0010
0000
1000
0000
0001
1000
,
0001
0000
0010
0000
0010
0100
1000
0000
0001
0000
0010
0000
0010
0100
1000
0000
,
0001
0000
0100
0000
0100
0010
1000
0000
0001
0000
0100
0000
0100
0010
1000
0000
,
0001
0000
0010
0000
0010
0100
1000
0000
0001
0000
0100
0000
0100
0010
1000
0000
,
0001
0010
0001
0010
0100
0000
1000
0000
0010
0000
0100
0000
0001
0000
0010
0000
,
1000
0100
0010
0001
,
1000
0100
0010
0001
,
1000
0100
0010
0001
,
1000
0100
0010
0001
,
1000
0000
0100
0000
,
0001
0000
0000
0000
0000
0000
0000
0000
0000
0000
0000
0000
0010
0000
0000
0000
0000
0000
0000
0000
0000
0001
1000
0001
,
2000
3000
0000
0000
0000
0000
0000
0000
0000
0000
0000
0000
0000
0000
0000
0000
;

//--------------- dance-single - ----------------
#NOTES:
     dance-single:
     :
     Easy:
     12:
     0,0,0,0,0:
1000
0100
0010
0001
,
1000
0100
0010
0001
,
1000
0010
0100
0001
,
1000
0010
0100
0001
,
1000
0000
0000
0000
0000
0000
0000
0000
0100
0000
0000
0000
0010
0001
0100
0010
,
1000
0000
0000
0000
0000
0000
0010
0000
0000
0000
0000
0000
0100
0000
0000
0000
0000
0000
0001
0000
0000
1000
0001
1000
,
0001
0000
0000
0000
0000
0000
0000
0000
0100
0000
0000
0000
0010
1000
0100
0010
,
0001
0000
0000
0000
0000
0000
0010
0000
0000
0000
0000
0000
0100
0000
0000
0000
0000
0000
1000
0000
0000
0001
1000
0001
,
1000
0100
0001
0100
1000
0010
0100
0001
,
1000
0010
0001
0010
1000
0100
0010
0001
,
2000
3200
0320
0000
0000
0000
0032
0000
0000
0000
0000
0000
0000
0000
0000
0000
,
0203
0310
1000
0100
0010
0001
0100
0010
,
1000
0000
0100
0000
1000
0000
0100
0000
0010
0000
0100
0000
0010
0000
0000
0001
0000
0000
1000
0000
0100
0000
0010
0000
0001
0000
0000
0100
0000
0000
0010
0000
0000
0100
0000
0000
1000
0000
0000
0010
0000
0000
0100
0000
0000
0001
0000
0000
,
1000
0100
0010
0001
1000
0100
0010
0100
1000
0000
0100
0010
0000
0010
0001
0000
,
1000
0100
0010
0001
1000
0010
0100
0001
,
1000
0100
1000
0001
0100
0001
1000
0100
0010
0001
0100
0010
1000
0010
1000
0001
0010
0001
1000
0010
0100
0001
0010
0100
,
1000
0000
0010
0100
0010
0100
0010
0100
0010
0000
0010
0100
0010
0100
0010
0000
,
0010
0100
0010
0000
0010
0100
0010
0100
0010
0000
0010
0100
0010
0100
0010
0000
,
0010
0000
0010
0100
0010
0100
0010
0100
0010
0000
0010
0100
0010
0100
0010
0000
,
0010
0000
0100
0000
0010
0000
0000
0000
0010
0000
0100
0000
0010
0000
0100
0000
0010
0000
0001
0000
0010
0000
0100
0000
1000
0000
0001
0000
1000
0100
0010
0001
,
2000
0000
0000
3200
,
0320
0000
0000
0000
0032
0000
0203
0320
,
2030
0000
0000
3020
,
0230
0000
0302
0023
,
0230
0000
2300
0000
,
3200
0000
0320
0000
0032
0000
0023
0000
2030
3200
0320
0032
2003
3020
0230
0302
,
2003
0000
3200
0000
,
0320
0000
0000
0000
0000
0000
0000
0000
0032
0000
0000
0000
2003
0000
0000
3000
,
1001
0000
0000
0000
0000
0000
0100
0000
0000
0010
0000
0000
0000
0000
0000
0010
0000
0000
0100
0000
0000
0000
0000
0000
1000
0000
0000
0000
0000
0000
0001
0000
0000
0000
0000
0000
1000
0000
0100
0000
1000
0000
0100
0000
0000
0000
0000
0000
,
0010
0000
0000
0000
0000
0000
0001
0000
0000
0000
0000
0000
0000
0000
0000
0010
0000
0000
0100
0000
0000
0000
0000
0000
0000
0000
0000
0100
0000
0000
1000
0000
0000
0000
0000
0000
1000
0000
0100
0000
0010
0000
0001
0000
0010
0000
0100
0000
,
1000
0100
0010
0100
1000
0100
0010
0001
,
0100
0000
0000
0100
0000
0000
0100
0000
,
1000
1000
0100
0001
1000
1000
0100
0001
1000
1000
0100
0001
1000
1000
0100
0001
,
1000
1000
0010
0001
1000
1000
0010
0001
1000
1000
0010
0001
1000
1000
0010
0001
,
1000
1000
0100
0001
1000
1000
0010
0001
1000
1000
0100
0001
1000
1000
0010
0001
,
1000
0100
0010
0100
1000
0100
0010
0001
0010
0100
0010
0001
1000
0000
0000
0100
0000
0000
0010
0000
0000
0100
0000
0000
,
0001
0010
0100
1000
,
0001
0010
0100
1000
,
0001
0100
0010
1000
,
0001
0100
0010
1000
,
0001
0000
0000
0000
0000
0000
0000
0000
0010
0000
0000
0000
0100
1000
0010
0100
,
0001
0000
0000
0000
0000
0000
0100
0000
0000
0000
0000
0000
0010
0000
0000
0000
0000
0000
1000
0000
0000
0001
1000
0001
,
1000
0000
0000
0000
0000
0000
0000
0000
0010
0000
0000
0000
0100
0001
0010
0100
,
1000
0000
0000
0000
0000
0000
0100
0000
0000
0000
0000
0000
0010
0000
0000
0000
0000
0000
0001
0000
0000
1000
0001
1000
,
0001
0010
1000
0010
0001
0100
0010
1000
,
0001
0100
1000
0100
0001
0010
0100
1000
,
0002
0023
0230
0000
0000
0000
2300
0000
0000
0000
0000
0000
0000
0000
0000
0000
,
3010
0100
0001
0010
0100
1000
0010
0100
,
0001
0000
0010
0000
0001
0000
0010
0000
0100
0000
0010
0000
0100
0000
0000
1000
0000
0000
0001
0000
0010
0000
0100
0000
1000
0000
0000
0010
0000
0000
0100
0000
0000
0010
0000
0000
0001
0000
0000
0100
0000
0000
0010
0000
0000
1000
0000
0000
,
0001
0010
0100
1000
0001
0010
0100
0010
0001
0000
0010
0100
0000
0100
1000
0000
,
0001
0010
0100
1000
0001
0100
0010
1000
,
0001
0010
0001
1000
0010
1000
0001
0010
0100
1000
0010
0100
0001
0100
0001
1000
0100
1000
0001
0100
0010
1000
0100
0010
,
0001
0000
0100
0010
0100
0010
0100
0010
0100
0000
0100
0010
0100
0010
0100
0000
,
0100
0010
0100
0000
0100
0010
0100
0010
0100
0000
0100
0010
0100
0010
0100
0000
,
0100
0000
0100
0010
0100
0010
0100
0010
0100
0000
0100
0010
0100
0010
0100
0000
,
0100
0000
0010
0000
0100
0000
0000
0000
0100
0000
0010
0000
0100
0000
0010
0000
0100
0000
1000
0000
0100
0000
0010
0000
0001
0000
1000
0000
0001
0010
0100
1000
,
0002
0000
0000
0023
,
0230
0000
0000
0000
2300
0000
3020
0230
,
0302
0000
0000
0203
,
0320
0000
2030
3200
,
0320
0000
0032
0000
,
0023
0000
0230
0000
2300
0000
3200
0000
0302
0023
0230
2300
3002
0203
0320
2030
,
3002
0000
0023
0000
,
0230
0000
0000
0000
0000
0000
0000
0000
2300
0000
0000
0000
3002
0000
0000
0003
,
1001
0000
0000
0000
0000
0000
0010
0000
0000
0100
0000
0000
0000
0000
0000
0100
0000
0000
0010
0000
0000
0000
0000
0000
0001
0000
0000
0000
0000
0000
1000
0000
0000
0000
0000
0000
0001
0000
0010
0000
0001
0000
0010
0000
0000
0000
0000
0000
,
0100
0000
0000
0000
0000
0000
1000
0000
0000
0000
0000
0000
0000
0000
0000
0100
0000
0000
0010
0000
0000
0000
0000
0000
0000
0000
0000
0010
0000
0000
0001
0000
0000
0000
0000
0000
0001
0000
0010
0000
0100
0000
1000
0000
0100
0000
0010
0000
,
0001
0010
0100
0010
0001
0010
0100
1000
,
0010
0000
0000
0010
0000
0000
0010
0000
,
0001
0001
0010
1000
0001
0001
0010
1000
0001
0001
0010
1000
0001
0001
0010
1000
,
0001
0001
0100
1000
0001
0001
0100
1000
0001
0001
0100
1000
0001
0001
0100
1000
,
0001
0001
0010
1000
0001
0001
0100
1000
0001
0001
0010
1000
0001
0001
0100
1000
,
0001
0010
0100
0010
0001
0010
0100
1000
0100
0010
0100
1000
0001
0000
0000
0010
0000
0000
0100
0000
0000
0010
0000
0000
,
1000
0100
0010
0001
1000
0100
0010
0001
,
1000
0100
0010
0001
1000
0100
0010
0001
,
1000
0010
0100
0001
1000
0010
0100
0001
,
1000
0010
0100
0001
1000
0010
0100
0001
,
1000
0000
0100
0010
,
0001
0000
0000
0000
0000
0000
0000
0000
0000
0000
0000
0000
0010
0000
0000
0000
0000
0000
1000
0000
0000
0001
1000
0001
,
2000
3000
0000
0000
0000
0000
0000
0000
0000
0000
0000
0000
0000
0000
0000
0000
;

//--------------- dance-single - ----------------
#NOTES:
     dance-single:
     :
     Medium:
     13:
     0,0,0,0,0:
1000
0100
0010
0001
1000
0100
0010
0001
,
1000
0100
0010
0001
1000
0100
0010
0001
,
1000
0010
0100
0001
1000
0010
0100
0001
,
1000
0010
0100
0001
1000
0010
0100
0001
,
1000
0000
0000
0100
0000
0000
0000
0000
0010
0001
0000
0001
0000
0001
1000
0001
,
1000
0000
0100
0000
0000
0000
0010
0000
0000
0000
0000
0000
0001
0000
0000
0000
0010
0000
0100
0000
0000
0000
0100
0000
1000
0000
0001
0000
1000
0001
1000
0001
,
1000
0000
0000
0010
0000
0000
0000
0000
0100
0001
0000
0001
0000
0001
1000
0001
,
1000
0000
0010
0000
0000
0000
0100
0000
0000
0000
0000
0000
0001
0000
0000
0000
0100
0000
0010
0000
0000
0000
0010
0000
1000
0000
0001
0000
1000
0001
1000
0001
,
1000
0000
0100
0000
1000
0000
0000
0000
0001
0000
0100
0000
0001
0010
0001
0010
0001
0000
0000
0000
1000
0000
0010
0000
1000
0000
0100
0000
0010
0000
0001
0000
,
1000
0000
0010
0000
1000
0000
0000
0000
0001
0000
0010
0000
0001
0100
0001
0100
0001
0000
0010
0000
0100
0000
0000
0000
1000
0000
0100
0000
0010
0001
0010
0001
,
2000
3200
0320
0000
0000
0000
0032
0000
0000
0000
0000
0000
0000
0000
0000
0000
,
0203
0000
0310
0001
1000
0010
0100
0001
1000
0100
0010
0001
1000
0001
1000
0001
,
1000
0010
1000
0010
1000
0000
0010
1000
0010
1000
0010
0000
1000
0001
1000
0001
1000
0000
0100
0000
0010
0000
0001
0000
0100
0000
0010
0000
1000
0000
0001
0000
,
1000
0100
0010
0001
1000
0100
0010
0001
0100
0000
0010
0100
0000
0010
0100
0001
,
1000
0100
1000
0100
0010
0001
0010
0001
1000
0010
1000
0010
0100
0001
0100
0001
,
1000
0100
1000
0001
0100
0001
1000
0100
0010
0001
0010
0100
1000
0010
1000
0001
0010
0001
1000
0010
0100
0001
0100
0010
,
1000
0000
0010
0100
0010
0100
0010
0100
0010
0000
0010
0100
0010
0100
0010
0000
,
0010
0100
0010
0000
0010
0100
0010
0100
0010
0000
0010
0100
0010
0100
0010
0000
,
0010
0000
0010
0100
0010
0100
0010
0100
0010
0000
0010
0100
0010
0100
0010
0000
,
0010
0000
0000
0100
0000
0000
0010
0000
0000
0000
0000
0000
0010
0000
0000
0100
0000
0000
0010
0000
0000
0100
0000
0000
0010
0000
0001
0000
0010
0000
0001
0000
0000
0010
0000
0000
1000
0000
0000
0001
0000
0000
1000
0100
0010
0001
0010
0100
,
2000
0000
0000
3200
,
0320
0000
0000
0000
0032
0000
0203
0320
,
2030
0000
0000
3020
,
0230
0000
0302
0023
,
0230
0000
2300
0000
,
3002
0000
0023
0000
0230
0000
2300
0000
3002
0023
0230
0320
2030
3200
0320
0032
,
2003
0000
3200
0000
,
0320
0000
0000
0000
0000
0000
0000
0000
0032
0000
0000
0000
2003
0000
0000
3000
,
1001
0000
0100
0000
0010
0000
0100
0000
0000
0000
0010
0000
0100
0000
0010
0000
1000
0000
0100
0000
0010
0000
0001
0000
1000
0010
1000
0010
1000
0000
0001
0000
,
1000
0000
0100
0000
0010
0000
0001
0000
0000
0000
0100
0000
0010
0000
0100
0000
0000
0000
0010
0000
1000
0000
0001
0000
1000
0100
1000
0100
1000
0100
1000
0100
,
1000
0100
0010
1000
0100
0001
1000
0010
0001
0100
0010
0001
1000
0010
0100
0001
,
1000
0100
0010
0001
0000
0000
1000
0100
0010
0001
0000
0000
1000
0100
0010
0001
,
1000
0100
0100
0001
1000
0100
0100
0001
1000
0100
0100
0001
1000
0100
0100
0001
,
1000
0010
0010
0001
1000
0010
0010
0001
1000
0010
0010
0001
1000
0010
0010
0001
,
1000
0000
0100
0000
0100
0000
0001
0000
1000
0000
0010
0000
0010
0000
0001
0000
1000
0000
0100
0000
0100
0000
0001
0000
1000
0000
0010
0000
0010
0001
0010
0001
,
1000
0000
0100
0000
0010
0000
0001
0000
1000
0000
0100
0000
0010
0000
0001
0000
1000
0000
0100
0000
0010
0000
0001
0000
1000
0000
0000
0010
0000
0000
0100
0000
0000
0001
0000
0000
0010
0000
0000
0100
0000
0000
0010
0000
0000
0100
0000
0000
,
0001
0010
0100
1000
0001
0010
0100
1000
,
0001
0010
0100
1000
0001
0010
0100
1000
,
0001
0100
0010
1000
0001
0100
0010
1000
,
0001
0100
0010
1000
0001
0100
0010
1000
,
0001
0000
0000
0010
0000
0000
0000
0000
0100
1000
0000
1000
0000
1000
0001
1000
,
0001
0000
0010
0000
0000
0000
0100
0000
0000
0000
0000
0000
1000
0000
0000
0000
0100
0000
0010
0000
0000
0000
0010
0000
0001
0000
1000
0000
0001
1000
0001
1000
,
0001
0000
0000
0100
0000
0000
0000
0000
0010
1000
0000
1000
0000
1000
0001
1000
,
0001
0000
0100
0000
0000
0000
0010
0000
0000
0000
0000
0000
1000
0000
0000
0000
0010
0000
0100
0000
0000
0000
0100
0000
0001
0000
1000
0000
0001
1000
0001
1000
,
0001
0000
0010
0000
0001
0000
0000
0000
1000
0000
0010
0000
1000
0100
1000
0100
1000
0000
0000
0000
0001
0000
0100
0000
0001
0000
0010
0000
0100
0000
1000
0000
,
0001
0000
0100
0000
0001
0000
0000
0000
1000
0000
0100
0000
1000
0010
1000
0010
1000
0000
0100
0000
0010
0000
0000
0000
0001
0000
0010
0000
0100
1000
0100
1000
,
0002
0023
0230
0000
0000
0000
2300
0000
0000
0000
0000
0000
0000
0000
0000
0000
,
3020
0000
0130
1000
0001
0100
0010
1000
0001
0010
0100
1000
0001
1000
0001
1000
,
0001
0100
0001
0100
0001
0000
0100
0001
0100
0001
0100
0000
0001
1000
0001
1000
0001
0000
0010
0000
0100
0000
1000
0000
0010
0000
0100
0000
0001
0000
1000
0000
,
0001
0010
0100
1000
0001
0010
0100
1000
0010
0000
0100
0010
0000
0100
0010
1000
,
0001
0010
0001
0010
0100
1000
0100
1000
0001
0100
0001
0100
0010
1000
0010
1000
,
0001
0010
0001
1000
0010
1000
0001
0010
0100
1000
0100
0010
0001
0100
0001
1000
0100
1000
0001
0100
0010
1000
0010
0100
,
0001
0000
0100
0010
0100
0010
0100
0010
0100
0000
0100
0010
0100
0010
0100
0000
,
0100
0010
0100
0000
0100
0010
0100
0010
0100
0000
0100
0010
0100
0010
0100
0000
,
0100
0000
0100
0010
0100
0010
0100
0010
0100
0000
0100
0010
0100
0010
0100
0000
,
0100
0000
0000
0010
0000
0000
0100
0000
0000
0000
0000
0000
0100
0000
0000
0010
0000
0000
0100
0000
0000
0010
0000
0000
0100
0000
1000
0000
0100
0000
1000
0000
0000
0100
0000
0000
0001
0000
0000
1000
0000
0000
0001
0010
0100
1000
0100
0010
,
0002
0000
0000
0023
,
0230
0000
0000
0000
2300
0000
3020
0230
,
0302
0000
0000
0203
,
0320
0000
2030
3200
,
0320
0000
0032
0000
,
2003
0000
3200
0000
0320
0000
0032
0000
2003
3200
0320
0230
0302
0023
0230
2300
,
3002
0000
0023
0000
,
0230
0000
0000
0000
0000
0000
0000
0000
2300
0000
0000
0000
3002
0000
0000
0003
,
1001
0000
0010
0000
0100
0000
0010
0000
0000
0000
0100
0000
0010
0000
0100
0000
0001
0000
0010
0000
0100
0000
1000
0000
0001
0100
0001
0100
0001
0000
1000
0000
,
0001
0000
0010
0000
0100
0000
1000
0000
0000
0000
0010
0000
0100
0000
0010
0000
0000
0000
0100
0000
0001
0000
1000
0000
0001
0010
0001
0010
0001
0010
0001
0010
,
0001
0010
0100
0001
0010
1000
0001
0100
1000
0010
0100
1000
0001
0100
0010
1000
,
0001
0010
0100
1000
0000
0000
0001
0010
0100
1000
0000
0000
0001
0010
0100
1000
,
0001
0010
0010
1000
0001
0010
0010
1000
0001
0010
0010
1000
0001
0010
0010
1000
,
0001
0100
0100
1000
0001
0100
0100
1000
0001
0100
0100
1000
0001
0100
0100
1000
,
0001
0000
0010
0000
0010
0000
1000
0000
0001
0000
0100
0000
0100
0000
1000
0000
0001
0000
0010
0000
0010
0000
1000
0000
0001
0000
0100
0000
0100
1000
0100
1000
,
0001
0000
0010
0000
0100
0000
1000
0000
0001
0000
0010
0000
0100
0000
1000
0000
0001
0000
0010
0000
0100
0000
1000
0000
0001
0000
0000
0100
0000
0000
0010
0000
0000
1000
0000
0000
0100
0000
0000
0010
0000
0000
0100
0000
0000
0010
0000
0000
,
1000
0100
0010
0001
1000
0100
0010
0001
1000
0100
0010
0001
1000
0100
0010
0001
,
1000
0010
0100
0001
1000
0010
0100
0001
1000
0010
0100
0001
1000
0010
0100
0001
,
1000
0100
0010
0100
1000
0100
0010
0100
1000
0100
0010
0100
1000
0100
0010
0100
,
1000
0010
0100
0010
1000
0010
0100
0010
1000
0010
0100
0010
1000
0010
0100
0010
,
1000
0100
0000
0010
0000
0000
0000
0000
0001
0010
0000
0100
0000
1000
0001
1000
,
0001
0000
0010
0000
0000
0000
0100
0000
0000
0000
0000
0000
1000
0000
0000
0000
0100
0000
0010
0000
0000
0000
0001
0000
1000
0000
0001
0000
1000
0001
1000
0001
,
2000
3000
0000
0000
0000
0000
0000
0000
0000
0000
0000
0000
0000
0000
0000
0000
;

//--------------- dance-single - ----------------
#NOTES:
     dance-single:
     :
     Hard:
     15:
     0,0,0,0,0:
1000
0100
0010
0001
1000
0100
0010
0001
1000
0100
0010
0001
1000
0100
0010
0001
,
1000
0010
0100
0001
1000
0010
0100
0001
1000
0010
0100
0001
1000
0010
0100
0001
,
1000
0100
0010
0001
1000
0100
0010
0001
1000
0100
0010
0001
1000
0100
0010
0001
,
1000
0010
0100
0001
1000
0010
0100
0001
1000
0010
0100
0001
1000
0010
0100
0001
,
1000
0100
0000
0010
0000
0000
0000
0000
0001
0001
0000
0010
0000
0100
1000
0100
,
1000
0000
0001
0000
0000
0000
0100
0000
0000
0000
0000
0000
0010
0000
0000
0000
0100
0000
0001
0000
0000
0000
0010
0000
0100
0000
0010
0000
1000
0001
1000
0001
,
1000
0010
0000
0100
0000
0000
0000
0000
0001
0001
0000
0100
0000
0010
1000
0010
,
1000
0000
0001
0000
0000
0000
0010
0000
0000
0000
0000
0000
0100
0000
0000
0000
0010
0000
0001
0000
0000
0000
0100
0000
0010
0000
0100
0000
1000
0001
1000
0001
,
1000
0000
0100
0000
0010
0000
0000
0000
0001
0000
0010
0000
0100
0010
0100
0010
1000
0000
0000
0000
0100
0000
0010
0000
0001
0000
0010
0000
1000
0000
0001
0000
,
1000
0000
0010
0000
0100
0000
0000
0000
0001
0000
0100
0000
0010
0100
0010
0100
1000
0000
0010
0000
0100
0000
0000
0000
0001
0000
0100
0000
1000
0001
1000
0001
,
2000
3200
0320
0000
0000
0000
0032
0000
0000
0000
0000
0000
0000
0000
0000
0000
,
0203
0000
0310
0100
1000
0010
0100
0001
1000
0100
0010
0001
0100
0010
1000
0001
,
1000
0010
1000
0010
1000
0001
0100
0001
0100
0001
0100
0001
1000
0100
0010
0001
1000
0000
0100
0000
0010
0000
0100
0000
1000
0000
0010
0000
0100
0000
0010
0000
,
1000
0100
0010
0001
0100
0010
0001
0010
1000
0000
0100
0010
0000
0100
0010
0001
,
1000
0100
1000
0100
0010
0001
0010
0001
1000
0010
1000
0010
0100
0001
0100
0001
,
1000
0010
0100
0001
1000
0100
0010
0100
1000
0100
0010
0001
0010
0100
0010
0001
0010
0100
1000
0010
0100
0001
0010
0100
1000
0100
0010
0001
1000
0100
0010
0001
,
1000
0000
0010
0100
0010
0100
0010
0100
0010
0000
0010
0100
0010
0100
0010
0000
,
0010
0100
0010
0000
0010
0100
0010
0100
0010
0000
0010
0100
0010
0100
0010
0000
,
0010
0000
0010
0100
0010
0100
0010
0100
0010
0000
0010
0100
0010
0100
0010
0000
,
0010
0000
0000
0000
0100
0000
0000
0000
0010
0000
0000
0000
0000
0000
0000
0000
0010
0000
0000
0000
0100
0000
0000
0000
0010
0000
0000
0000
0100
0000
0000
0000
0010
0000
0000
0000
0001
0000
0010
0000
0001
0000
0000
0000
0010
0000
0000
0000
1000
0000
0000
0000
0001
0000
0000
0000
1000
0100
0010
0001
1000
0100
0010
0001
,
2000
0000
0000
3200
,
0320
0000
0000
0000
0000
0000
0000
0000
0000
0000
0000
0000
0000
0000
0031
1000
0002
0000
0000
0000
0000
0000
0000
0000
0023
0000
0000
0000
0230
0000
0000
0000
,
2300
0000
0000
3020
,
0230
0000
0000
0000
0000
0000
0000
0000
0000
0000
0000
0000
0000
0000
0000
0000
0000
0000
0000
0000
0000
0000
0000
0000
0302
0000
0000
0000
0000
0000
0000
0000
0000
0000
0000
0000
0023
0000
0000
0000
0000
0000
0000
0000
0000
0130
1000
0100
,
2000
0000
0000
0000
0000
0000
0000
0000
0000
0000
0000
0000
0000
0000
3010
0100
0020
0000
0000
0000
0000
0000
0000
0000
0000
0000
0000
0000
0000
0000
1030
0001
,
2000
0000
3200
0000
0320
0000
0032
0000
2003
3020
0032
0023
2030
3200
0302
0203
,
2300
0000
0000
0000
0000
0000
0000
0000
0000
0000
0000
0000
0000
0000
3100
0010
0200
0000
0000
0000
0000
0000
0000
0000
0000
0000
0000
0000
0000
0000
1300
0001
,
2000
0000
0000
0000
0000
0000
0000
0000
3020
0000
0000
0000
0230
0000
0000
0300
,
1001
0000
0010
0000
0100
0000
0001
0000
0000
0000
1000
0000
0010
0000
0100
0000
1000
0000
0010
0000
0100
0000
0001
0000
0010
0100
0010
0100
0010
0000
0100
0000
,
1000
0000
0010
0000
0100
0000
0010
0000
0000
0000
0100
0000
0001
0000
0100
0000
0000
0000
0010
0000
0100
0000
0010
0000
1000
0100
0010
0100
1000
0100
0010
0001
,
1000
0100
0010
0001
0100
0010
1000
0001
1000
0100
0010
0100
0010
0001
0100
0010
,
1000
0100
0010
0001
0000
0000
1000
0010
0100
0001
0000
0000
1000
0100
0010
0001
,
0010
0010
0010
0001
0010
0010
0010
1000
0010
0010
0010
0001
0010
0010
0010
1000
,
0100
0100
0100
0001
0100
0100
0100
1000
0100
0100
0100
0001
0100
0100
0100
1000
,
0010
0000
0010
0000
0010
0000
0001
0000
0100
0000
0100
0000
0100
0000
1000
0000
0010
0000
0010
0000
0010
0000
0001
0000
0100
0000
0100
0000
0100
0010
0100
0010
,
1000
0100
0010
0100
0010
0001
0100
0010
1000
0010
0100
0010
0100
0001
0010
0100
1000
0000
0010
0000
0100
0000
0001
0000
1000
0000
0100
0000
0010
0000
0100
0000
,
0001
0010
0100
1000
0001
0010
0100
1000
0001
0010
0100
1000
0001
0010
0100
1000
,
0001
0100
0010
1000
0001
0100
0010
1000
0001
0100
0010
1000
0001
0100
0010
1000
,
0001
0010
0100
1000
0001
0010
0100
1000
0001
0010
0100
1000
0001
0010
0100
1000
,
0001
0100
0010
1000
0001
0100
0010
1000
0001
0100
0010
1000
0001
0100
0010
1000
,
0001
0010
0000
0100
0000
0000
0000
0000
1000
1000
0000
0100
0000
0010
0001
0010
,
0001
0000
1000
0000
0000
0000
0010
0000
0000
0000
0000
0000
0100
0000
0000
0000
0010
0000
1000
0000
0000
0000
0100
0000
0010
0000
0100
0000
0001
1000
0001
1000
,
0001
0100
0000
0010
0000
0000
0000
0000
1000
1000
0000
0010
0000
0100
0001
0100
,
0001
0000
1000
0000
0000
0000
0100
0000
0000
0000
0000
0000
0010
0000
0000
0000
0100
0000
1000
0000
0000
0000
0010
0000
0100
0000
0010
0000
0001
1000
0001
1000
,
0001
0000
0010
0000
0100
0000
0000
0000
1000
0000
0100
0000
0010
0100
0010
0100
0001
0000
0000
0000
0010
0000
0100
0000
1000
0000
0100
0000
0001
0000
1000
0000
,
0001
0000
0100
0000
0010
0000
0000
0000
1000
0000
0010
0000
0100
0010
0100
0010
0001
0000
0100
0000
0010
0000
0000
0000
1000
0000
0010
0000
0001
1000
0001
1000
,
0002
0023
0230
0000
0000
0000
2300
0000
0000
0000
0000
0000
0000
0000
0000
0000
,
3020
0000
0130
0010
0001
0100
0010
1000
0001
0010
0100
1000
0010
0100
0001
1000
,
0001
0100
0001
0100
0001
1000
0010
1000
0010
1000
0010
1000
0001
0010
0100
1000
0001
0000
0010
0000
0100
0000
0010
0000
0001
0000
0100
0000
0010
0000
0100
0000
,
0001
0010
0100
1000
0010
0100
1000
0100
0001
0000
0010
0100
0000
0010
0100
1000
,
0001
0010
0001
0010
0100
1000
0100
1000
0001
0100
0001
0100
0010
1000
0010
1000
,
0001
0100
0010
1000
0001
0010
0100
0010
0001
0010
0100
1000
0100
0010
0100
1000
0100
0010
0001
0100
0010
1000
0100
0010
0001
0010
0100
1000
0001
0010
0100
1000
,
0001
0000
0100
0010
0100
0010
0100
0010
0100
0000
0100
0010
0100
0010
0100
0000
,
0100
0010
0100
0000
0100
0010
0100
0010
0100
0000
0100
0010
0100
0010
0100
0000
,
0100
0000
0100
0010
0100
0010
0100
0010
0100
0000
0100
0010
0100
0010
0100
0000
,
0100
0000
0000
0000
0010
0000
0000
0000
0100
0000
0000
0000
0000
0000
0000
0000
0100
0000
0000
0000
0010
0000
0000
0000
0100
0000
0000
0000
0010
0000
0000
0000
0100
0000
0000
0000
1000
0000
0100
0000
1000
0000
0000
0000
0100
0000
0000
0000
0001
0000
0000
0000
1000
0000
0000
0000
0001
0010
0100
1000
0001
0010
0100
1000
,
0002
0000
0000
0023
,
0230
0000
0000
0000
0000
0000
0000
0000
0000
0000
0000
0000
0000
0000
1300
0001
2000
0000
0000
0000
0000
0000
0000
0000
3200
0000
0000
0000
0320
0000
0000
0000
,
0032
0000
0000
0203
,
0320
0000
0000
0000
0000
0000
0000
0000
0000
0000
0000
0000
0000
0000
0000
0000
0000
0000
0000
0000
0000
0000
0000
0000
2030
0000
0000
0000
0000
0000
0000
0000
0000
0000
0000
0000
3200
0000
0000
0000
0000
0000
0000
0000
0000
0310
0001
0010
,
0002
0000
0000
0000
0000
0000
0000
0000
0000
0000
0000
0000
0000
0000
0103
0010
0200
0000
0000
0000
0000
0000
0000
0000
0000
0000
0000
0000
0000
0000
0301
1000
,
0002
0000
0023
0000
0230
0000
2300
0000
3002
0203
2300
3200
0302
0023
2030
3020
,
0032
0000
0000
0000
0000
0000
0000
0000
0000
0000
0000
0000
0000
0000
0013
0100
0020
0000
0000
0000
0000
0000
0000
0000
0000
0000
0000
0000
0000
0000
0031
1000
,
0002
0000
0000
0000
0000
0000
0000
0000
0203
0000
0000
0000
0320
0000
0000
0030
,
1001
0000
0100
0000
0010
0000
1000
0000
0000
0000
0001
0000
0100
0000
0010
0000
0001
0000
0100
0000
0010
0000
1000
0000
0100
0010
0100
0010
0100
0000
0010
0000
,
0001
0000
0100
0000
0010
0000
0100
0000
0000
0000
0010
0000
1000
0000
0010
0000
0000
0000
0100
0000
0010
0000
0100
0000
0001
0010
0100
0010
0001
0010
0100
1000
,
0001
0010
0100
1000
0010
0100
0001
1000
0001
0010
0100
0010
0100
1000
0010
0100
,
0001
0010
0100
1000
0000
0000
0001
0100
0010
1000
0000
0000
0001
0010
0100
1000
,
0100
0100
0100
1000
0100
0100
0100
0001
0100
0100
0100
1000
0100
0100
0100
0001
,
0010
0010
0010
1000
0010
0010
0010
0001
0010
0010
0010
1000
0010
0010
0010
0001
,
0100
0000
0100
0000
0100
0000
1000
0000
0010
0000
0010
0000
0010
0000
0001
0000
0100
0000
0100
0000
0100
0000
1000
0000
0010
0000
0010
0000
0010
0100
0010
0100
,
0001
0010
0100
0010
0100
1000
0010
0100
0001
0100
0010
0100
0010
1000
0100
0010
0001
0000
0100
0000
0010
0000
1000
0000
0001
0000
0010
0000
0100
0000
0010
0000
,
1000
0100
0010
0001
1000
0100
0010
0001
1000
0100
0010
0001
1000
0100
0010
0001
,
1000
0010
0100
0001
1000
0010
0100
0001
1000
0010
0100
0001
1000
0010
0100
0001
,
1000
0100
0010
0100
1000
0100
0010
0100
1000
0100
0010
0100
1000
0100
0010
0100
,
1000
0010
0100
0010
1000
0010
0100
0010
1000
0010
0100
0010
1000
0010
0100
0010
,
1000
0100
0000
0010
0000
0000
0000
0000
0001
0010
0000
0100
0000
1000
1000
0001
,
1000
0000
0010
0000
0000
0000
0100
0000
0000
0000
0000
0000
0001
0000
0000
0000
0100
0000
0010
0000
0000
0000
1000
0000
1000
0000
0001
0000
1000
0001
1000
0001
,
2000
3000
0000
0000
0000
0000
0000
0000
0000
0000
0000
0000
0000
0000
0000
0000
;

//--------------- dance-single - ----------------
#NOTES:
     dance-single:
     :
     Challenge:
     16:
     0,0,0,0,0:
1000
0100
1000
0100
0010
0001
0010
0001
1000
0010
1000
0010
0100
0001
0100
0001
,
1000
0001
1000
0001
0100
0010
0100
0010
1000
0001
1000
0001
0010
0100
0010
0100
,
1000
0010
1000
0010
0100
0001
0100
0001
1000
0100
1000
0100
0010
0001
0010
0001
,
0100
0010
0100
0010
1000
0001
1000
0001
0010
0100
0010
0100
1000
0001
1000
0001
,
1000
0001
0000
0010
0000
0000
0000
0000
0100
0001
0000
0010
0000
1000
1000
1000
,
0100
0000
0000
0010
0000
0000
0000
0000
0000
0001
0000
0000
0000
0000
0000
0000
0000
0000
0100
0000
0000
0000
0000
0000
0010
0000
0000
0001
0000
0000
0000
0000
0000
0010
0000
0000
0100
0000
0000
0010
0000
0000
1000
0001
1000
0001
1000
0001
,
1000
0001
0000
0100
0000
0000
0000
0000
0010
0001
0000
0100
0000
1000
1000
1000
,
0010
0000
0000
0100
0000
0000
0000
0000
0000
0001
0000
0000
0000
0000
0000
0000
0000
0000
0010
0000
0000
0000
0000
0000
0100
0000
0000
0001
0000
0000
0000
0000
0000
0100
0000
0000
0010
0000
0000
0100
0000
0000
1000
0001
1000
0001
1000
0001
,
1000
0000
0100
0000
0010
0000
0000
0000
0001
0000
0100
0000
0010
0100
1000
0001
2000
0000
0000
0000
3100
0000
0010
0000
1000
0000
0100
0000
0001
0000
0010
0000
,
1000
0000
0010
0000
0100
0000
0000
0000
0001
0000
0010
0000
0100
0010
1000
0001
1000
0000
0100
0000
0010
0000
0001
0000
1000
0000
0010
0000
0100
0001
0100
0001
,
2000
3200
0320
0000
0001
0001
0032
0000
0100
0100
0100
0000
0100
0100
0100
0000
,
0023
0000
0130
0001
1000
0100
0010
0001
0100
0010
1000
0001
1000
0010
0100
0001
,
1000
0100
0010
0100
1000
0100
0010
0001
0010
0100
0010
0001
0010
0100
0010
0100
1000
0000
0010
0000
0100
0000
0001
0000
0010
0000
0100
0000
1000
0001
1000
0001
,
1000
0100
0010
0100
1000
0010
0100
0010
2000
0000
3010
0200
0300
0100
0001
0010
,
1000
0100
1000
0010
0100
0001
0010
0100
1000
0100
0010
0001
0100
0010
1000
0100
,
1000
0100
0010
0001
0100
0010
1000
0001
1000
0100
0010
0100
1000
0010
0100
0010
1000
0010
0100
0001
0010
0100
1000
0001
1000
0100
0010
0001
1000
0100
0010
0001
,
1000
0000
0010
0100
0010
0100
0010
0100
0010
0000
0010
0100
0010
0100
0010
0000
,
0010
0100
0010
0000
0010
0100
0010
0100
0010
0000
0010
0100
0010
0100
0010
0000
,
0010
0000
0010
0100
0010
0100
0010
0100
0010
0000
0010
0100
0010
0100
0010
0000
,
0010
0000
0000
0000
0100
0000
0000
0000
0010
0000
0000
0000
0000
0000
0000
0000
0010
0000
0000
0000
0100
0000
0000
0000
0010
0000
0000
0000
0100
0000
0000
0000
0010
0000
0000
0000
0001
0000
1000
0000
0001
0000
0000
0000
0010
0000
0000
0000
1000
0000
0000
0000
0001
0000
0000
0000
1000
0100
0010
0001
1000
0100
0010
0001
,
2000
0100
3010
0000
0001
0010
0100
0000
1000
0010
0100
0000
0002
0100
0013
0000
,
2000
0000
0100
0000
3001
0000
0000
0000
1000
0000
0010
0000
0001
0000
0100
0010
0200
0000
0001
0000
0310
0000
0100
0000
2000
0000
3001
0000
2000
0000
3010
0100
,
0020
0000
0100
0000
1030
0000
0001
0000
1000
0000
0010
0000
0100
0000
0001
0000
0010
0000
0100
0000
1000
0000
0001
0000
0200
0000
0010
0000
1300
0000
0100
0010
,
0200
0000
0010
0000
1300
0000
0100
0000
1000
0000
0010
0000
0100
0000
0010
0000
2000
0000
0100
0000
3010
0000
0001
0000
0200
0000
0010
0000
1300
0001
1000
0001
,
2000
0000
0010
0000
3100
0000
0000
0000
0001
0000
0100
0000
0010
0000
0000
0000
2000
0000
0100
0000
3010
0000
0000
0000
0001
0000
0010
0000
0100
0000
0010
0100
,
2000
0000
3010
0000
0200
0000
0310
0000
2000
0000
3100
0000
0020
0000
0130
0000
2000
3000
0020
0030
0200
0300
0002
0003
2000
3000
0200
0300
0020
0030
0002
0003
,
2000
0000
0010
0000
3100
0000
0010
0000
1000
0000
0010
0000
0100
0000
0001
1000
0002
0000
0010
0000
0103
0000
0010
0000
0001
0000
0010
0000
0100
0000
1000
0001
,
2000
0100
3010
0001
1000
0100
0010
0001
2000
0010
3100
0001
2000
0100
3010
0001
,
1001
0000
0010
0000
0100
0000
0001
0000
0000
0000
0100
0000
0010
0000
0100
0000
1000
0000
0010
0000
0100
0000
0001
0000
0010
0100
0010
0100
0010
0000
0001
0000
,
1000
0000
0100
0000
0010
0000
0001
0000
0000
0000
0100
0000
0010
0000
0100
0000
0000
0000
0001
0000
1000
0000
0001
0000
1000
0100
0010
0001
1000
0010
0100
0001
,
1000
0100
0010
0001
1000
0010
0100
0001
1000
0100
0001
0100
1000
0100
0001
0100
,
1000
0100
0010
0001
0000
0000
1000
0010
0100
0001
0000
0000
1000
0100
0010
0001
,
0100
0100
0001
1000
0100
0100
1000
0001
0100
0100
0001
1000
0100
0100
1000
0001
,
0010
0010
0001
1000
0010
0010
1000
0001
0010
0010
0001
1000
0010
0010
1000
0001
,
0100
0000
0100
0000
0001
0000
1000
0000
0010
0000
0010
0000
0001
0000
1000
0000
0100
0000
0100
0000
1000
0000
0001
0000
0010
0000
0010
0000
1000
0001
1000
0001
,
1000
0100
0010
1000
0100
0001
1000
0010
0001
0100
0010
0001
1000
0100
0010
0001
1000
0000
0100
0000
0010
0000
0001
0000
0100
0000
0010
0000
0100
0000
1000
0000
,
0001
0010
0001
0010
0100
1000
0100
1000
0001
0100
0001
0100
0010
1000
0010
1000
,
0001
1000
0001
1000
0010
0100
0010
0100
0001
1000
0001
1000
0100
0010
0100
0010
,
0001
0100
0001
0100
0010
1000
0010
1000
0001
0010
0001
0010
0100
1000
0100
1000
,
0010
0100
0010
0100
0001
1000
0001
1000
0100
0010
0100
0010
0001
1000
0001
1000
,
0001
1000
0000
0100
0000
0000
0000
0000
0010
1000
0000
0100
0000
0001
0001
0001
,
0010
0000
0000
0100
0000
0000
0000
0000
0000
1000
0000
0000
0000
0000
0000
0000
0000
0000
0010
0000
0000
0000
0000
0000
0100
0000
0000
1000
0000
0000
0000
0000
0000
0100
0000
0000
0010
0000
0000
0100
0000
0000
0001
1000
0001
1000
0001
1000
,
0001
1000
0000
0010
0000
0000
0000
0000
0100
1000
0000
0010
0000
0001
0001
0001
,
0100
0000
0000
0010
0000
0000
0000
0000
0000
1000
0000
0000
0000
0000
0000
0000
0000
0000
0100
0000
0000
0000
0000
0000
0010
0000
0000
1000
0000
0000
0000
0000
0000
0010
0000
0000
0100
0000
0000
0010
0000
0000
0001
1000
0001
1000
0001
1000
,
0001
0000
0010
0000
0100
0000
0000
0000
1000
0000
0010
0000
0100
0010
0001
1000
0002
0000
0000
0000
0013
0000
0100
0000
0001
0000
0010
0000
1000
0000
0100
0000
,
0001
0000
0100
0000
0010
0000
0000
0000
1000
0000
0100
0000
0010
0100
0001
1000
0001
0000
0010
0000
0100
0000
1000
0000
0001
0000
0100
0000
0010
1000
0010
1000
,
0002
0023
0230
0000
1000
1000
2300
0000
0010
0010
0010
0000
0010
0010
0010
0000
,
3200
0000
0310
1000
0001
0010
0100
1000
0010
0100
0001
1000
0001
0100
0010
1000
,
0001
0010
0100
0010
0001
0010
0100
1000
0100
0010
0100
1000
0100
0010
0100
0010
0001
0000
0100
0000
0010
0000
1000
0000
0100
0000
0010
0000
0001
1000
0001
1000
,
0001
0010
0100
0010
0001
0100
0010
0100
0002
0000
0103
0020
0030
0010
1000
0100
,
0001
0010
0001
0100
0010
1000
0100
0010
0001
0010
0100
1000
0010
0100
0001
0010
,
0001
0010
0100
1000
0010
0100
0001
1000
0001
0010
0100
0010
0001
0100
0010
0100
0001
0100
0010
1000
0100
0010
0001
1000
0001
0010
0100
1000
0001
0010
0100
1000
,
0001
0000
0100
0010
0100
0010
0100
0010
0100
0000
0100
0010
0100
0010
0100
0000
,
0100
0010
0100
0000
0100
0010
0100
0010
0100
0000
0100
0010
0100
0010
0100
0000
,
0100
0000
0100
0010
0100
0010
0100
0010
0100
0000
0100
0010
0100
0010
0100
0000
,
0100
0000
0000
0000
0010
0000
0000
0000
0100
0000
0000
0000
0000
0000
0000
0000
0100
0000
0000
0000
0010
0000
0000
0000
0100
0000
0000
0000
0010
0000
0000
0000
0100
0000
0000
0000
1000
0000
0001
0000
1000
0000
0000
0000
0100
0000
0000
0000
0001
0000
0000
0000
1000
0000
0000
0000
0001
0010
0100
1000
0001
0010
0100
1000
,
0002
0010
0103
0000
1000
0100
0010
0000
0001
0100
0010
0000
2000
0010
3100
0000
,
0002
0000
0010
0000
1003
0000
0000
0000
0001
0000
0100
0000
1000
0000
0010
0100
0020
0000
1000
0000
0130
0000
0010
0000
0002
0000
1003
0000
0002
0000
0103
0010
,
0200
0000
0010
0000
0301
0000
1000
0000
0001
0000
0100
0000
0010
0000
1000
0000
0100
0000
0010
0000
0001
0000
1000
0000
0020
0000
0100
0000
0031
0000
0010
0100
,
0020
0000
0100
0000
0031
0000
0010
0000
0001
0000
0100
0000
0010
0000
0100
0000
0002
0000
0010
0000
0103
0000
1000
0000
0020
0000
0100
0000
0031
1000
0001
1000
,
0002
0000
0100
0000
0013
0000
0000
0000
1000
0000
0010
0000
0100
0000
0000
0000
0002
0000
0010
0000
0103
0000
0000
0000
1000
0000
0100
0000
0010
0000
0100
0010
,
0002
0000
0103
0000
0020
0000
0130
0000
0002
0000
0013
0000
0200
0000
0310
0000
0002
0003
0200
0300
0020
0030
2000
3000
0002
0003
0020
0030
0200
0300
2000
3000
,
0002
0000
0100
0000
0013
0000
0100
0000
0001
0000
0100
0000
0010
0000
1000
0001
2000
0000
0100
0000
3010
0000
0100
0000
1000
0000
0100
0000
0010
0000
0001
1000
,
0002
0010
0103
1000
0001
0010
0100
1000
0002
0100
0013
1000
0002
0010
0103
1000
,
1001
0000
0100
0000
0010
0000
1000
0000
0000
0000
0010
0000
0100
0000
0010
0000
0001
0000
0100
0000
0010
0000
1000
0000
0100
0010
0100
0010
0100
0000
1000
0000
,
0001
0000
0010
0000
0100
0000
1000
0000
0000
0000
0010
0000
0100
0000
0010
0000
0000
0000
1000
0000
0001
0000
1000
0000
0001
0010
0100
1000
0001
0100
0010
1000
,
0001
0010
0100
1000
0001
0100
0010
1000
0001
0010
1000
0010
0001
0010
1000
0010
,
0001
0010
0100
1000
0000
0000
0001
0100
0010
1000
0000
0000
0001
0010
0100
1000
,
0010
0010
1000
0001
0010
0010
0001
1000
0010
0010
1000
0001
0010
0010
0001
1000
,
0100
0100
1000
0001
0100
0100
0001
1000
0100
0100
1000
0001
0100
0100
0001
1000
,
0010
0000
0010
0000
1000
0000
0001
0000
0100
0000
0100
0000
1000
0000
0001
0000
0010
0000
0010
0000
0001
0000
1000
0000
0100
0000
0100
0000
0001
1000
0001
1000
,
0001
0010
0100
0001
0010
1000
0001
0100
1000
0010
0100
1000
0001
0010
0100
1000
0001
0000
0010
0000
0100
0000
1000
0000
0010
0000
0100
0000
0010
0000
0001
0000
,
1000
0100
0010
0001
1000
0100
0010
0001
1000
0100
0010
0001
1000
0100
0010
0001
,
1000
0010
0100
0001
1000
0010
0100
0001
1000
0010
0100
0001
1000
0010
0100
0001
,
1000
0100
0010
0100
1000
0100
0010
0100
1000
0100
0010
0100
1000
0100
0010
0100
,
1000
0010
0100
0010
1000
0010
0100
0010
1000
0010
0100
0010
1000
0010
0100
0010
,
1000
0001
0000
0100
0000
0000
0000
0000
0010
0010
0000
0001
0000
0100
0100
0100
,
0001
0000
0000
1000
0000
0000
0000
0000
0000
0010
0000
0000
0000
0000
0000
0000
0000
0000
0100
0000
0000
0000
0000
0000
1000
0000
0000
0001
0000
0000
0000
0000
0000
0100
0000
0000
0010
0000
0000
0100
0000
0000
1000
0100
0010
0001
0010
0100
,
2000
3000
0000
0000
0000
0000
0000
0000
0000
0000
0000
0000
0000
0000
0000
0000
;
