#TITLE:EXTRAVAGANZA;
#SUBTITLE:;
#ARTIST:BANYA;
#TITLETRANSLIT:;
#SUBTITLETRANSLIT:;
#ARTISTTRANSLIT:;
#GENRE:;
#CREDIT:;
#MUSIC:EXTRAVAGANZA.ogg;
#BANNER:EXTRAVAGANZA-bn.png;
#BACKGROUND:EXTRAVAGANZA-bg.png;
#CDTITLE:;
#SAMPLESTART:5.317;
#SAMPLELENGTH:19.692;
#SELECTABLE:YES;
#OFFSET:-0.067;
#BPMS:0.000=195.000
,81.000=390.000
,85.000=97.500
,86.000=195.000
;
#STOPS:;
#DISPLAYBPM:195.000;
#BGCHANGES:;
#FGCHANGES:;

//--------------- dance-single - ----------------
#NOTES:
     dance-single:
     :
     Beginner:
     3:
     0,0,0,0,0:
0000
0000
0000
0000
,
0000
0000
0000
0000
,
0000
0000
0000
0000
,
0000
0000
0000
0000
,
0000
1000
0000
0000
,
0000
0001
0000
0000
,
0000
0100
0000
0000
,
0000
0010
0000
0000
,
0000
1000
0000
0000
,
0000
0001
0000
0000
,
0000
0100
0000
0000
,
0000
0010
0000
0000
,
0000
1000
0000
0000
,
0000
0100
0000
0000
,
0000
0010
0000
0000
,
0000
0001
0000
0000
,
0000
1000
0000
0000
,
0000
0010
0000
0000
,
0000
0100
0000
0000
,
0000
0001
0000
0000
,
0000
0020
0000
0000
,
0000
0030
0001
0000
,
0001
0000
0001
0001
,
0001
0001
1000
0000
,
1000
0000
1000
1000
,
1000
1000
0010
0000
,
0010
0000
0010
0010
,
0010
0010
0100
0000
,
0100
0000
0100
0100
,
0100
0100
0001
0000
,
0001
0000
0001
0001
,
0001
0001
1000
0000
,
1000
0000
1000
1000
,
1000
1000
0010
0000
,
0010
0000
0010
0010
,
0010
0010
0100
0100
,
0100
0100
0001
0001
,
0001
0001
1000
0000
,
0000
0000
1000
0000
,
0000
0000
1000
0000
,
0000
0000
1000
0000
,
0000
0000
0001
0000
,
0000
0000
0001
0000
,
0000
0000
1000
0000
,
0000
0000
1000
0000
,
0000
0000
0010
0000
,
0000
0000
0010
0000
,
0000
0000
0100
0000
,
0000
0000
0100
0000
,
0000
0000
1000
0000
,
0000
0000
0000
0000
,
0000
0000
0000
0000
,
0000
0000
0000
0000
,
0000
0000
0010
0000
,
1000
0010
1000
0000
,
0001
0010
0001
0000
,
1000
0100
1000
0000
,
0001
0100
0001
0000
,
1000
0001
1000
0000
,
0001
1000
0001
0000
,
0100
0010
0100
0000
,
0010
0100
0010
0000
,
0010
0001
1000
0000
,
0100
1000
0010
0000
,
0010
0001
0100
0000
,
0010
0100
0001
0000
,
0100
0001
0101
0000
,
0000
0000
0010
0000
,
0000
0000
0100
0000
,
0000
0000
0010
0100
,
0010
0100
0001
1000
,
0001
1000
0010
0100
,
0010
0100
0001
1000
,
0001
1000
0010
0100
,
0001
1000
0010
0100
,
0001
1000
0010
0010
,
0100
0100
0001
0001
,
1000
1000
0020
0000
,
0000
0030
0000
0000
0000
0000
0000
0000
;

//--------------- dance-single - ----------------
#NOTES:
     dance-single:
     :
     Easy:
     9:
     0,0,0,0,0:
0000
0000
0000
0000
,
0000
0000
0000
0000
,
0000
0000
0000
0000
,
0000
0000
0000
0000
,
0000
1000
0100
0010
,
0001
1000
0001
0000
0010
0000
0100
0000
,
1000
0001
1000
0000
0100
0000
0010
0001
,
0010
0000
0100
0000
1000
0000
0100
0010
,
0100
1000
0010
0100
,
0001
1000
0001
0000
0100
0000
0010
0000
,
1000
0001
1000
0000
0010
0000
0100
0001
,
0100
0000
0010
0000
1000
0000
0010
0100
,
0010
1000
0100
0010
,
0001
1000
0001
0000
0100
0000
0010
0000
,
1000
0001
1000
0000
0100
0000
0010
0001
,
0010
0100
1000
0000
0010
0000
0100
0001
,
0100
0010
1000
0001
,
1000
0001
1000
0000
0100
0000
0010
0000
,
0001
1000
0001
0000
0010
0000
0100
1000
,
0010
0100
0001
0000
0100
0000
0010
1000
,
0100
0010
1001
0000
0000
0000
0000
0000
,
0000
0000
0000
0000
1000
0100
0010
0100
,
1000
0100
0010
0100
1100
0000
0101
0000
,
1100
0000
0101
0000
0001
0010
0100
0010
,
0001
0010
0100
0010
0011
0000
1010
0000
,
0011
0000
1010
0000
1000
0010
0100
0010
,
1000
0010
0100
0010
1010
0000
0011
0000
,
1010
0000
0011
0000
0001
0100
0010
0100
,
0001
0100
0010
0100
0101
0000
1100
0000
,
0101
0000
1100
0000
1000
0100
0010
0100
,
1000
0010
0100
0010
1000
0000
0100
0000
,
0010
0000
0001
0000
0001
0010
0100
0010
,
0001
0100
0010
0100
0001
0000
0010
0000
,
0100
0000
1000
0000
1000
0100
0010
0001
,
1000
0010
0100
0001
1010
0000
1010
0000
,
0011
0011
0101
0101
,
1100
1100
1001
1001
,
0110
0110
1000
0000
,
0000
0000
0001
0000
,
0000
0000
0000
0000
1000
0000
0001
0001
,
0000
0000
0000
0000
0001
0000
1000
1000
,
0000
0000
0000
0000
1000
0000
0010
0010
,
0000
0100
0000
0001
1000
0000
0100
0100
,
0000
0010
0000
0001
1000
0000
0010
0010
,
0000
0100
0000
0001
1000
0000
0100
0100
,
0000
0010
0000
0001
1000
0000
0001
0001
,
0000
0100
0000
0010
0100
0000
0001
0001
,
0000
0010
0000
1000
0010
0000
0100
0100
,
0000
0010
0000
0001
1000
0000
0010
0010
,
0000
0000
1000
0000
,
0000
0000
0100
0000
,
0000
0000
0010
0000
,
0000
0000
0001
0000
,
0000
0000
1000
0100
,
0010
0001
0100
0010
1000
0000
0100
0000
,
0010
0001
0010
0100
1000
0000
0010
0000
,
0100
0001
0010
0100
1000
0000
0010
0000
,
0100
0001
0100
0010
1000
0000
1000
0100
,
0010
0001
0010
0100
1000
0000
0001
0010
,
0100
1000
0100
0010
0001
0000
1000
0010
,
0100
0001
0100
0010
1000
0000
0001
0100
,
0010
1000
0010
0100
0001
0000
1000
0000
,
0001
0010
0100
1000
0001
0000
1000
0000
,
0001
0100
0010
1000
0001
0000
1000
0000
,
0001
1000
0100
0010
0001
0000
1000
0000
,
0001
1000
0010
0100
0001
0000
1000
0000
,
0001
0010
0100
1000
0000
0000
0010
0000
,
0001
0000
0000
0000
0000
0000
0000
0000
0010
0000
0000
0100
0000
0100
0000
0000
,
1000
0000
0000
0010
0001
0000
0010
0100
,
0000
1000
0001
0000
0001
0010
0100
0010
,
0001
0010
0100
0010
0001
0100
0010
0100
,
0001
0100
0010
0100
0001
0010
0100
1000
,
0001
0010
0100
1000
0001
0100
0010
1000
,
0001
0100
0010
1000
0001
0010
0100
0010
,
0001
0100
0010
0100
0001
0010
0100
1000
,
0001
0100
0010
1000
0001
0100
0010
0100
,
0001
0010
0100
0010
0001
0100
0010
1000
,
0001
0010
0100
1000
1001
0000
0000
0000
;

//--------------- dance-single - ----------------
#NOTES:
     dance-single:
     :
     Medium:
     10:
     0,0,0,0,0:
0000
0000
0000
0000
,
0000
0000
0000
0000
,
0000
0000
0000
0000
,
0000
0000
0000
0000
,
0000
0000
1000
0100
0010
0001
0100
0010
,
1000
0001
1000
0000
0001
0000
0010
0000
0100
0000
1000
0000
0010
0000
0100
0000
,
0001
1000
0001
0000
1000
0000
0100
0000
0010
0000
0001
0000
1000
0001
1000
0000
,
0001
0000
0010
0000
0100
0000
1000
0000
0010
0000
0100
0000
0001
1000
0001
0000
,
1000
0100
0010
0001
1000
0001
0100
0010
,
1000
0001
1000
0000
0001
0000
0100
0000
0010
0000
1000
0000
0100
0000
0010
0000
,
0001
1000
0001
0000
1000
0000
0010
0000
0100
0000
0001
0000
1000
0001
1000
0000
,
0001
0000
0100
0000
0010
0000
1000
0000
0100
0000
0010
0000
0001
1000
0001
0000
,
1000
0010
0100
0001
1000
0001
0010
0100
,
1000
0001
1000
0000
0001
0000
0010
0000
0100
0000
1000
0000
0010
0000
0100
0000
,
0001
1000
0001
0000
1000
0000
0100
0000
0010
0000
0001
0000
1000
0001
1000
0000
,
0001
0000
0010
0000
0100
0000
1000
0000
0010
0000
0100
0000
0001
1000
0001
0000
,
1000
0010
0100
0001
1000
0001
0010
0100
,
1000
0001
1000
0000
0001
0000
0010
0000
0100
0000
1000
0000
0010
0000
0100
0000
,
0001
1000
0001
0000
1000
0000
0010
0000
0100
0000
0001
0000
1000
0001
1000
0000
,
0001
0000
0100
0000
0010
0000
1000
0000
0100
0000
0010
0000
0001
1000
0001
0000
,
1000
0001
1001
0000
0000
0000
0000
0000
,
0000
0000
0000
0000
1000
0100
0010
0100
,
1000
0000
0100
0000
0010
0000
0001
1000
0001
0000
0000
0000
1010
0000
0000
0000
,
0001
0000
1010
0000
0001
0010
0100
0010
,
0001
0000
0010
0000
0100
0000
1000
0001
1000
0000
0000
0000
0101
0000
0000
0000
,
1000
0000
0101
0000
1000
0010
0100
0010
,
1000
0000
0010
0000
0100
0000
0001
1000
0001
0000
0000
0000
1100
0000
0000
0000
,
0001
0000
1100
0000
0001
0100
0010
0100
,
0001
0000
0100
0000
0010
0000
1000
0001
1000
0000
0000
0000
0011
0000
0000
0000
,
1000
0000
0011
0000
1000
0100
0010
0100
,
1000
0010
0100
0010
1010
0000
0100
0000
,
1010
0000
0100
0000
0001
0010
0100
0010
,
0001
0100
0010
0100
0101
0000
0010
0000
,
0101
0000
0010
0000
1000
0010
0100
0010
,
1000
0100
0010
0100
1100
0000
0101
0000
,
0011
1010
1100
0101
,
0011
1010
1100
0101
,
0011
1010
1000
0000
,
0000
0000
0001
0000
,
0000
0000
0000
0000
1000
0000
0001
0001
,
0000
0000
0000
0000
0001
0000
1000
1000
,
0000
0000
0000
0000
1000
0000
0010
0010
,
0000
0100
0000
0001
1000
0000
0100
0100
,
0000
0010
0000
0001
1000
0000
0010
0010
,
0000
0100
0000
0001
1000
0000
0100
0100
,
0000
0010
0000
0001
1000
0000
0001
0001
,
0000
0100
0000
0010
0100
0000
0001
0001
,
0000
0010
0000
1000
0010
0000
0100
0100
,
0000
0010
0000
0001
1000
0000
0010
0010
,
0000
0000
1000
0000
,
0000
0000
0100
0000
,
0000
0000
0010
0000
,
0000
0000
0001
0000
,
0000
0000
1000
0100
,
0010
0001
0100
0010
1000
0000
0010
0000
,
0100
0001
0010
0100
1000
0000
0100
0000
,
0010
0001
0010
0100
1000
0000
0010
0000
,
0100
0001
0100
0010
1000
0000
0100
0000
,
0010
0000
0001
0010
0001
0010
0001
0010
1000
0000
0000
0000
0010
0000
0000
0000
,
0100
0000
0001
0100
0001
0100
0001
0100
1000
0000
0000
0000
0100
0000
0000
0000
,
0010
0000
0001
0100
0001
0100
0001
0100
1000
0000
0000
0000
0010
0000
0000
0000
,
0100
0000
0001
0010
0001
0010
0001
0010
1000
0000
0000
0000
0001
0000
0000
0000
,
1000
0100
0010
0001
1000
0000
0001
0000
,
1000
0010
0100
0001
1000
0000
0001
0000
,
1000
0001
0010
0100
1000
0000
0001
0000
,
1000
0001
0100
0010
1000
0000
0001
0000
,
1000
0100
0010
0100
0000
0000
0100
0000
,
0010
0000
0000
0000
0001
0000
0000
0000
0010
0000
0000
0100
0000
0100
0000
0000
,
1000
0000
0000
0010
0001
0000
0010
0100
,
0000
1000
0001
0000
1000
0100
0010
0100
,
1000
0100
0010
0100
1000
0010
0100
0010
,
1000
0010
0100
0010
1000
0100
0010
0001
,
1000
0100
0010
0001
1000
0010
0100
0001
,
1000
0010
0100
0001
1000
0100
0010
0100
,
1000
0010
0100
0010
1000
0100
0010
0001
,
1000
0010
0100
0001
1000
0010
0100
0010
,
1000
0100
0010
0100
1000
0010
0100
0001
,
1000
0100
0010
0001
1001
0000
0000
0000
;

//--------------- dance-single - ----------------
#NOTES:
     dance-single:
     :
     Hard:
     11:
     0,0,0,0,0:
0000
0000
0000
0000
,
0000
0000
0000
0000
,
0000
0000
0000
0000
,
0000
0000
0000
0000
,
0000
0000
1000
0100
0010
0001
0100
0010
,
1000
0001
1000
0000
0001
0000
0100
0000
0010
0000
1000
0000
0100
0000
0010
0000
,
0001
0100
0001
0100
0001
0000
0010
0000
0100
0000
1000
0000
1000
0010
0100
0000
,
0001
0010
0001
0000
0010
0000
0100
0000
0001
0000
1000
0000
0010
0100
0010
0000
,
0100
0001
1000
0100
0010
0001
1000
0010
,
0100
0001
0100
0000
0001
0000
0010
0000
0100
0000
1000
0000
0010
0000
0100
0000
,
0001
1000
0001
1000
0001
0000
0010
0000
0100
0000
1000
0000
1000
0100
0010
0000
,
0001
0100
0001
0000
1000
0000
0100
0000
0010
0000
0001
0000
1000
0010
1000
0000
,
0001
0001
1000
0100
0010
0001
0100
0010
,
1000
0100
1000
0000
0100
0000
0010
0000
0001
0000
0100
0000
0010
0000
1000
0000
,
0100
0001
0100
0001
0100
0000
0001
0000
0010
0000
0100
0000
1000
0010
0100
0000
,
0001
0010
0001
0000
1000
0000
0100
0000
0010
0000
0100
0000
1000
0010
1000
0000
,
0001
0010
0100
1000
0010
0100
1000
0001
,
1000
0100
1000
0000
0100
0000
0010
0000
0001
0000
0100
0000
0010
0000
1000
0000
,
1000
0010
1000
0010
1000
0000
0100
0000
0010
0000
0001
0000
0001
0010
0100
0000
,
1000
0100
1000
0000
1000
0000
0100
0000
0010
0000
0001
0000
0100
0010
0100
0000
,
0010
1000
2002
0000
0000
0000
0000
0000
,
3003
0000
0000
0000
0020
0000
0030
0000
1000
0100
2000
0000
3001
0100
0002
0000
,
1003
0010
2000
0000
3001
0010
0002
0000
1003
0100
0000
0000
0010
0001
0000
0000
,
1000
0010
0000
0000
0100
0001
0000
0000
1000
0010
2000
0000
3001
0010
0002
0000
,
1003
0100
2000
0000
3001
0100
0002
0000
1003
0010
0000
0000
0100
0001
0000
0000
,
1000
0100
0000
0000
0010
0001
0000
0000
0001
0100
0002
0000
1003
0100
2000
0000
,
3001
0010
0002
0000
1003
0010
2000
0000
3001
0010
0000
0000
0100
1000
0000
0000
,
0001
0100
0000
0000
0010
1000
0000
0000
0001
0010
0002
0000
1003
0010
2000
0000
,
3001
0100
0002
0000
1003
0100
2000
0000
3001
0100
0000
0000
0010
1000
0000
0000
,
0001
0010
0000
0000
0100
1000
0000
0000
1000
0001
2000
0000
3100
0010
0200
0000
,
0301
1000
0002
0000
0013
0100
0020
0000
1030
0100
0000
0000
1000
0010
0000
0000
,
0100
0001
0000
0000
0010
0001
0000
0000
1000
0100
2000
0000
3100
0001
0200
0000
,
0301
0010
0002
0000
0013
1000
0020
0000
1030
0100
0000
0000
0100
0001
0000
0000
,
1000
0010
0000
0000
0010
0001
0000
0000
0100
1000
0200
0000
0310
1000
0020
0000
,
0130
0001
0200
0000
0310
0001
0020
0000
1030
0010
0000
0000
0010
0001
0000
0000
,
1000
0100
0000
0000
0100
0001
0000
0000
1000
0100
2000
0000
3001
0100
0002
0000
,
1003
0010
2000
0000
3001
0010
0002
0000
1003
0100
0000
0000
1000
0100
0000
0000
,
0010
0001
0000
0000
0010
0001
0000
0000
2000
0000
0000
0100
0000
0000
0200
0000
,
0000
0000
0000
0000
0000
0000
0300
0000
3002
0000
0000
0010
0000
0000
0020
0000
,
0000
0000
0000
0000
0000
0000
0030
0000
2003
0000
0000
0010
0000
0000
0020
0000
,
0000
0000
0000
0000
0000
0000
0030
0000
3002
0000
0000
0100
0000
0000
0200
0000
,
0000
0000
0000
0000
0000
0000
0300
0000
2003
0000
0000
0100
0000
0000
0100
0000
,
0000
0000
0100
0000
0000
0000
0100
0000
3200
0000
0000
0010
0000
0000
0010
0000
,
0000
0000
0010
0000
0000
0000
0010
0000
0320
0000
0000
0001
0000
0000
0001
0000
,
0000
0000
0001
0000
0000
0000
0001
0000
0032
0000
0000
1000
0000
0000
1000
0000
,
0000
0000
1000
0000
0000
0000
1000
0000
2003
0000
0000
0010
0000
0000
0010
0000
,
0000
0000
0010
0000
0000
0000
0010
0000
3020
0000
0000
0100
0000
0000
0100
0000
,
0000
0000
0100
0000
0000
0000
0100
0000
0230
0000
0000
0001
0000
0000
0001
0000
,
0000
0000
0001
0000
0000
0000
0001
0000
0302
0000
0000
1000
0000
0000
1000
0000
,
0000
0000
1000
0000
0000
0000
1000
0000
1003
0100
1000
0100
1000
0100
0000
0000
,
0100
0010
0100
0010
0100
0010
0000
0000
0010
0001
0010
0001
0010
0001
0000
0000
,
0001
0100
0001
0100
0001
0100
0000
0000
0010
1000
0010
1000
0010
1000
0000
0000
,
0100
1000
0100
1000
0100
1000
0000
0000
0001
0010
0001
0010
0001
0010
0000
0000
,
1000
0001
1000
0001
1000
0001
0000
0000
1000
0000
0000
0000
1001
0000
0000
0000
,
1000
0100
1000
0100
1000
0100
1000
0100
0010
0000
0000
0000
0110
0000
0000
0000
,
0100
0010
0100
0010
0100
0010
0100
0010
0001
0000
0000
0000
1001
0000
0000
0000
,
0001
0100
0001
0100
0001
0100
0001
0100
0010
0000
0000
0000
0110
0000
0000
0000
,
0010
0100
0010
0100
0010
0100
0010
0100
1000
0000
0000
0000
1001
0000
0000
0000
,
1000
0010
1000
0010
1000
0010
1000
0010
0100
0000
0000
0000
0110
0000
0000
0000
,
0100
0001
0100
0001
0100
0001
0100
0001
0010
0000
0000
0000
0011
0000
0000
0000
,
0001
0010
0001
0010
0001
0010
0001
0010
0100
0000
0000
0000
0101
0000
0000
0000
,
0100
0010
0100
0010
0100
0010
0100
0010
1000
0000
0000
0000
1100
0000
0000
0000
,
0100
1000
0100
1000
0100
1000
0100
1000
0010
0000
0000
0000
1010
0000
0000
0000
,
0010
0001
0010
0001
0010
0001
0010
0001
0100
0000
0000
0000
0110
0000
0000
0000
,
0010
0100
0010
0100
0010
0100
0010
0100
0001
0000
0000
0000
1001
0000
0000
0000
,
1000
0010
1000
0010
1000
0010
1000
0010
0100
0000
0000
0000
0110
0000
0000
0000
,
0010
0100
0010
0001
0100
0010
0001
0010
0100
0000
0000
0000
0210
0000
0000
0000
,
0001
0000
0000
0000
1300
0000
0000
0000
1001
0000
0000
1001
0000
0000
1001
0000
,
0000
1001
0000
1000
0100
0000
0010
0001
,
0000
0010
0100
0000
0002
0023
2030
3020
,
0032
0203
2300
3020
0032
0023
2030
3200
,
0302
0203
2300
3020
0032
0203
2300
3200
,
0302
0203
0320
0032
0023
2030
3020
0230
,
2300
3020
0032
0023
2030
3200
0302
0023
,
2030
3020
0032
0203
2300
3200
0302
0023
,
0230
0302
0203
2300
3002
0023
2030
3020
,
0230
2300
3002
0023
2030
3020
0032
0203
,
2300
3020
0032
0023
0230
0000
0000
0000
,
0000
0300
0000
0000
0000
0000
0000
0000
;

//--------------- dance-single - ----------------
#NOTES:
     dance-single:
     :
     Challenge:
     13:
     0,0,0,0,0:
0000
0000
0000
0000
,
0000
0000
0000
0000
,
0000
0000
0000
0000
,
0000
0000
0000
0000
,
0000
0000
1000
0100
0001
0010
1000
0010
,
0001
0100
1000
0000
0001
0000
0010
0000
0100
0000
0001
0000
0100
0000
1000
0000
,
0010
0001
0100
0010
1000
0000
0100
0000
0001
0000
0010
1000
0100
0000
0010
0001
,
0100
0000
1000
0000
0010
0000
0100
0000
0001
0000
0010
0100
1000
0000
0001
0010
,
1000
0100
0001
0010
0100
1000
0010
0001
,
0100
0010
1000
0000
0100
0000
0001
0000
0010
0000
0100
0000
0001
0000
0100
0000
,
0010
0001
0010
0100
1000
0000
0010
0000
0100
0000
0001
0000
0010
0100
0001
0000
,
0010
0100
1000
0000
0010
0000
0001
0000
0100
0000
0010
0000
0100
0010
1000
0000
,
0001
0010
0100
0000
2002
0000
3003
0000
1000
0000
0010
0000
0001
0000
0100
0000
,
1000
0100
0001
0000
1000
0000
0010
0000
0100
0000
0001
0000
0010
0000
0100
0000
,
1000
0010
0001
0000
0010
0000
0100
0000
1000
0000
0001
0000
0100
1000
0010
0000
,
0001
0010
0100
0000
1000
0000
0010
0000
0100
0000
0001
0000
1000
0100
0010
0000
,
0001
0100
0010
0000
2002
0000
3003
0000
1000
0000
0100
0000
0001
0000
0010
0000
,
1000
0100
0001
0000
0010
0000
0100
0000
1000
0000
0010
0000
0001
0000
0100
0000
,
1000
0010
0100
0000
0001
0000
0010
0000
0100
0000
1000
0000
0001
0010
1000
0000
,
0001
0100
1000
0000
1000
0000
0010
0000
0100
0000
0001
0000
1000
0100
0010
0000
,
0100
0010
0001
0000
2002
0000
0000
0000
0000
0000
0000
0000
0000
0000
0000
0000
,
3003
0000
0000
0000
0020
0000
0000
0030
1000
0100
0020
0000
0031
0100
0020
0000
,
1030
0100
0002
0000
0013
0100
0002
0000
2003
0200
3000
0300
0002
0020
0003
0030
,
2000
0020
3000
0030
0002
0020
0003
0030
1000
0010
0200
0000
0301
0010
0200
0000
,
0301
0010
2000
0000
3100
0010
2000
0000
3002
0020
0003
0030
2000
0200
3000
0300
,
0002
0200
0003
0300
2000
0020
3000
0030
0100
0010
0002
0000
0103
0010
2000
0000
,
3001
0010
2000
0000
3001
0010
0200
0000
2300
0020
3000
0030
0002
0020
0003
0030
,
2000
0200
3000
0300
0002
0200
0003
0300
0010
0100
2000
0000
3010
0100
0002
0000
,
1003
0100
0002
0000
1003
0100
0020
0000
0032
0200
0003
0300
2000
0200
3000
0300
,
0002
0020
0003
0030
2000
0020
3000
0030
1000
0010
0002
0000
1003
0010
0200
0000
,
0301
0100
2000
0000
3001
0100
0020
0000
2030
0002
3000
0003
0200
0020
0300
0030
,
0020
0200
0030
0300
0002
2000
0003
3000
0001
0010
2000
0000
3001
0010
0200
0000
,
1300
0100
0002
0000
1003
0100
0020
0000
0032
0020
0003
0030
2000
0020
3000
0030
,
0020
0000
0000
0000
0200
0000
0000
0000
0030
0000
0000
0000
0300
0000
0000
0000
0002
0000
0000
0000
0200
0000
0000
0000
0003
0000
0000
0000
0300
0000
0000
0000
0001
0000
0000
0000
0010
0000
0000
0000
2000
0000
0000
0000
0000
0000
0000
0000
3001
0000
0000
0000
0100
0000
0000
0000
2000
0000
0000
0000
0000
0000
0000
3000
,
1000
0010
0002
0000
1003
0100
0002
0000
2003
0200
3000
0300
0200
0020
0300
0030
,
0020
0002
0030
0003
0002
2000
0003
3000
2000
0020
3000
0030
0020
0200
0030
0300
,
0200
0002
0300
0003
0002
2000
0003
3000
2000
0200
3000
0300
0002
0020
0003
0030
,
2000
0020
3000
0030
0002
0200
0003
0300
2000
0000
0000
0010
0000
0000
0200
0000
,
0000
0000
0000
0000
0000
0000
0000
0300
3002
0000
0000
0010
0000
0000
0200
0000
,
0000
0000
0000
0000
0000
0000
0000
0300
2003
0000
0000
0100
0000
0000
0020
0000
,
0000
0000
0000
0000
0000
0000
0000
0030
3002
0000
0000
0100
0000
0000
0020
0000
,
0000
0000
0000
0000
0000
0000
0000
0030
2003
0000
0000
0100
0000
0000
0010
0000
,
0000
0000
0000
0000
0001
0000
0000
0000
0000
0000
0000
0000
0020
0000
0000
0030
3200
0000
0000
0000
0000
0000
0010
0000
0000
0000
0000
0000
0001
0000
0000
0000
,
0000
0000
0000
0000
1000
0000
0000
0000
0000
0000
0000
0000
0002
0000
0000
0003
0320
0000
0000
0000
0000
0000
0001
0000
0000
0000
0000
0000
1000
0000
0000
0000
,
0000
0000
0000
0000
0100
0000
0000
0000
0000
0000
0000
0000
2000
0000
0000
3000
0032
0000
0000
0000
0000
0000
1000
0000
0000
0000
0000
0000
0100
0000
0000
0000
,
0000
0000
0010
0000
0000
0000
0100
0003
2100
0000
0000
0010
0000
0000
0100
0000
,
0000
0000
0001
0000
0000
0000
0100
3000
0210
0000
0000
0001
0000
0000
0010
0000
,
0000
0000
1000
0000
0000
0000
0010
0300
0021
0000
0000
1000
0000
0000
0001
0000
,
0000
0000
0100
0000
0000
0000
0001
0030
1002
0000
0000
0100
0000
0000
1000
0000
,
0000
0000
0010
0000
0000
0000
1000
0003
1000
0100
0001
0100
1000
0010
0001
0100
,
1000
0010
0100
0010
1000
0100
0001
0100
1000
0010
0100
0001
0010
1000
0010
0001
,
1000
0100
0010
0001
1000
0010
0001
0010
1000
0100
0001
0010
1000
0010
0001
0100
,
1000
0010
0100
0001
0010
0001
0100
0010
1000
0100
0001
0100
1000
0010
0001
0010
,
1000
0100
0001
0100
1000
0010
0100
0001
1000
0000
0001
0000
0110
0000
1000
0000
,
0001
0010
0100
1000
0010
0100
0001
1000
1001
0000
1000
0000
0110
0000
0001
0000
,
1000
0010
0100
0001
0010
0100
1000
0001
1001
0000
0001
0000
0110
0000
1000
0000
,
0001
0100
0010
1000
0100
0010
0001
1000
1001
0000
1000
0000
0110
0000
0001
0000
,
1000
0100
0010
0001
0100
0010
1000
0001
1001
0000
0010
0000
0101
0000
0010
0000
,
1100
0100
1000
0010
0100
0001
0010
0001
0101
0000
0010
0000
1100
0000
1000
0000
,
0011
0010
0001
0100
0010
1000
0100
1000
1010
0000
0100
0000
0011
0000
0100
0000
,
1010
0010
1000
0100
0010
0001
0100
0001
0011
0000
1000
0000
0110
0000
1000
0000
,
0101
0100
0001
0010
0100
1000
0010
1000
1100
0000
0110
0000
0011
0000
1001
0000
,
1100
0100
0001
0010
1000
0010
0001
0100
1100
0000
0110
0000
0101
0000
1001
0000
,
1010
0010
0001
0100
1000
0100
0001
0010
1010
0000
0110
0000
0101
0000
1001
0000
,
0011
0010
1000
0100
0001
0100
1000
0010
0011
0000
0110
0000
1010
0000
1001
0000
,
0101
0100
1000
0010
0001
0010
1000
0100
0101
0000
0110
0000
1001
0000
1010
0000
,
1100
0100
0001
0100
1000
0100
0001
0100
1100
0000
0000
0000
0110
0000
0000
0000
,
0011
0000
0000
0000
1001
0000
0000
0000
1010
0000
0000
0011
0000
0000
0101
0000
,
0000
1100
0000
0100
1001
0000
0010
1001
,
0000
0110
1001
0000
2000
3200
0302
0203
,
2300
3020
0032
0203
2300
3200
0302
0023
,
2030
3020
0032
0203
2300
3020
0032
0023
,
2030
3020
0230
2300
3200
0302
0203
0320
,
0032
0203
2300
3200
0302
0023
2030
3200
,
0302
0203
2300
3020
0032
0023
2030
3200
,
0320
2030
3020
0032
2003
3200
0302
0203
,
0320
0032
2003
3200
0302
0203
2300
3020
,
0032
0203
2300
3200
0320
0000
0000
0000
,
0000
0030
0000
0000
0000
0000
0000
0000
;

//--------------- dance-single - ----------------
#NOTES:
     dance-single:
     :
     Edit:
     14:
     0,0,0,0,0:
0000
0000
0000
0000
,
0000
0000
0000
0000
,
0000
0000
0000
0000
,
0000
0000
0000
0000
,
0000
0000
1000
0100
0001
0010
1000
0010
,
0001
0100
1000
0000
0001
0000
0010
0000
0100
0000
0001
0000
0100
0000
1000
0000
,
0010
0001
0100
0010
1000
0000
0100
0000
0001
0000
0010
1000
0100
0000
0010
0001
,
0100
0000
1000
0000
0010
0000
0100
0000
0001
0000
0010
0100
1000
0000
0001
0010
,
1000
0100
0001
0010
0100
1000
0010
0001
,
0100
0010
1000
0000
0100
0000
0001
0000
0010
0000
0100
0000
0001
0000
0100
0000
,
0010
0001
0010
0100
1000
0000
0010
0000
0100
0000
0001
0000
0010
0100
0001
0000
,
0010
0100
1000
0000
0010
0000
0001
0000
0100
0000
0010
0000
0100
0010
1000
0000
,
0001
0010
0100
0000
2002
0000
3003
0000
1000
0000
0010
0000
0001
0000
0100
0000
,
1000
0100
0001
0000
1000
0000
0010
0000
0100
0000
0001
0000
0010
0000
0100
0000
,
1000
0010
0001
0000
0010
0000
0100
0000
1000
0000
0001
0000
0100
1000
0010
0000
,
0001
0010
0100
0000
1000
0000
0010
0000
0100
0000
0001
0000
1000
0100
0010
0000
,
0001
0100
0010
0000
2002
0000
3003
0000
1000
0000
0100
0000
0001
0000
0010
0000
,
1000
0100
0001
0000
0010
0000
0100
0000
1000
0000
0010
0000
0001
0000
0100
0000
,
1000
0010
0100
0000
0001
0000
0010
0000
0100
0000
1000
0000
0001
0010
1000
0000
,
0001
0100
1000
0000
1000
0000
0010
0000
0100
0000
0001
0000
1000
0100
0010
0000
,
0100
0010
0001
0000
2002
0000
0000
0000
0000
0000
0000
0000
0000
0000
0000
0000
,
3003
0000
0000
0000
0020
0000
0000
0030
1000
0100
0020
0000
0031
0100
0020
0000
,
1030
0100
0002
0000
0013
0100
0002
0000
2003
0200
3000
0300
0002
0020
0003
0030
,
2000
0020
3000
0030
0002
0020
0003
0030
1000
0010
0200
0000
0301
0010
0200
0000
,
0301
0010
2000
0000
3100
0010
2000
0000
3002
0020
0003
0030
2000
0200
3000
0300
,
0002
0200
0003
0300
2000
0020
3000
0030
0100
0010
0002
0000
0103
0010
2000
0000
,
3001
0010
2000
0000
3001
0010
0200
0000
2300
0020
3000
0030
0002
0020
0003
0030
,
2000
0200
3000
0300
0002
0200
0003
0300
0010
0100
2000
0000
3010
0100
0002
0000
,
1003
0100
0002
0000
1003
0100
0020
0000
0032
0200
0003
0300
2000
0200
3000
0300
,
0002
0020
0003
0030
2000
0020
3000
0030
1000
0010
0002
0000
1003
0010
0200
0000
,
0301
0100
2000
0000
3001
0100
0020
0000
2030
0002
3000
0003
0200
0020
0300
0030
,
0020
0200
0030
0300
0002
2000
0003
3000
0001
0010
2000
0000
3001
0010
0200
0000
,
1300
0100
0002
0000
1003
0100
0020
0000
0032
0020
0003
0030
2000
0020
3000
0030
,
0020
0000
0000
0000
0200
0000
0000
0000
0030
0000
0000
0000
0300
0000
0000
0000
0002
0000
0000
0000
0200
0000
0000
0000
0003
0000
0000
0000
0300
0000
0000
0000
0001
0000
0000
0000
0010
0000
0000
0000
2000
0000
0000
0000
0000
0000
0000
0000
3001
0000
0000
0000
0100
0000
0000
0000
2000
0000
0000
0000
0000
0000
0000
3000
,
1000
0010
0002
0000
1003
0100
0002
0000
2003
0200
3000
0300
0200
0020
0300
0030
,
0020
0002
0030
0003
0002
2000
0003
3000
2000
0020
3000
0030
0020
0200
0030
0300
,
0200
0002
0300
0003
0002
2000
0003
3000
2000
0200
3000
0300
0002
0020
0003
0030
,
2000
0020
3000
0030
0002
0200
0003
0300
2000
0000
0000
0010
0000
0000
0200
0000
,
0000
0000
0000
0000
0000
0000
0000
0300
3002
0000
0000
0010
0000
0000
0200
0000
,
0000
0000
0000
0000
0000
0000
0000
0300
2003
0000
0000
0100
0000
0000
0020
0000
,
0000
0000
0000
0000
0000
0000
0000
0030
3002
0000
0000
0100
0000
0000
0020
0000
,
0000
0000
0000
0000
0000
0000
0000
0030
2003
0000
0000
0100
0000
0000
0010
0000
,
0000
0000
0000
0000
0001
0000
0000
0000
0000
0000
0000
0000
0020
0000
0000
0030
3200
0000
0000
0000
0000
0000
0010
0000
0000
0000
0000
0000
0001
0000
0000
0000
,
0000
0000
0000
0000
1000
0000
0000
0000
0000
0000
0000
0000
0002
0000
0000
0003
0320
0000
0000
0000
0000
0000
0001
0000
0000
0000
0000
0000
1000
0000
0000
0000
,
0000
0000
0000
0000
0100
0000
0000
0000
0000
0000
0000
0000
2000
0000
0000
3000
0032
0000
0000
0000
0000
0000
1000
0000
0000
0000
0000
0000
0100
0000
0000
0000
,
0000
0000
0010
0000
0000
0000
0100
0003
2100
0000
0000
0011
0000
0000
0110
0000
,
0000
0000
0101
0000
0000
0000
0110
3000
0210
0000
0000
1001
0000
0000
0011
0000
,
0000
0000
1010
0000
0000
0000
0011
0300
0021
0000
0000
1100
0000
0000
1001
0000
,
0000
0000
0101
0000
0000
0000
1001
0030
1002
0000
0000
0110
0000
0000
1100
0000
,
0000
0000
1010
0000
0000
0000
1100
0003
1000
0100
0001
0100
1000
0010
0001
0100
,
1000
0010
0100
0010
1000
0100
0001
0100
1000
0010
0100
0001
0010
1000
0010
0001
,
1000
0100
0010
0001
1000
0010
0001
0010
1000
0100
0001
0010
1000
0010
0001
0100
,
1000
0010
0100
0001
0010
0001
0100
0010
1000
0100
0001
0100
1000
0010
0001
0010
,
1000
0100
0001
0100
1000
0010
0100
0001
1001
0000
0011
0000
0110
0000
1010
0000
,
0011
0010
0100
1000
0010
0100
0001
1000
1001
0000
1010
0000
0110
0000
0011
0000
,
1010
0010
0100
0001
0010
0100
1000
0001
1001
0000
0101
0000
0110
0000
1100
0000
,
0101
0100
0010
1000
0100
0010
0001
1000
1001
0000
1100
0000
0110
0000
0101
0000
,
1100
0100
0010
0001
0100
0010
1000
0001
1001
0000
0011
0000
0101
0000
0110
0000
,
1100
0100
1000
0010
0100
0001
0010
0001
0101
0000
0110
0000
1100
0000
1010
0000
,
0011
0010
0001
0100
0010
1000
0100
1000
1010
0000
0110
0000
0011
0000
0110
0000
,
1010
0010
1000
0100
0010
0001
0100
0001
0011
0000
1010
0000
0110
0000
1100
0000
,
0101
0100
0001
0010
0100
1000
0010
1000
1100
0000
0110
0000
0011
0000
1001
0000
,
1100
0100
0001
0010
1000
0010
0001
0100
1100
0000
0110
0000
0101
0000
1001
0000
,
1010
0010
0001
0100
1000
0100
0001
0010
1010
0000
0110
0000
0101
0000
1001
0000
,
0011
0010
1000
0100
0001
0100
1000
0010
0011
0000
0110
0000
1010
0000
1001
0000
,
0101
0100
1000
0010
0001
0010
1000
0100
0101
0000
0110
0000
1001
0000
1010
0000
,
1100
0100
0001
0100
1000
0100
0001
0100
1100
0000
0100
0000
0110
0000
0010
0000
,
0011
0000
0001
0000
1001
0000
1000
0000
1010
0000
0000
0011
0000
0000
0101
0000
,
0000
1100
0000
0110
1001
0010
0110
1001
,
0010
0000
0110
0000
1001
0000
0010
0000
2000
0010
3200
0000
0302
0010
0203
0000
,
2300
0100
3020
0000
0032
1000
0203
0000
2300
0001
3200
0000
0302
0100
0023
0000
,
2030
0001
3020
0000
0032
1000
0203
0000
2300
0100
3020
0000
0032
0100
0023
0000
,
2030
0100
3020
0000
0230
0001
2300
0000
3200
0010
0302
0000
0203
1000
0320
0000
,
0032
0010
0203
0000
2300
0001
3200
0000
0302
0100
0023
0000
2030
0001
3200
0000
,
0302
0010
0203
0000
2300
0100
3020
0000
0032
0100
0023
0000
2030
0001
3200
0000
,
0320
0100
2030
0000
3020
0100
0032
0000
2003
0010
3200
0000
0302
0010
0203
0000
,
0320
1000
0032
0000
2003
0010
3200
0000
0302
0010
0203
0000
2300
0100
3020
0000
,
0032
0010
0203
0000
2300
0001
3200
0010
0320
0000
0000
0000
0000
0000
0000
0000
,
0000
0030
0000
0000
0000
0000
0000
0000
;
