#VERSION:0.83;
#TITLE:Doppelganger;
#SUBTITLE:;
#ARTIST:LeaF;
#TITLETRANSLIT:;
#SUBTITLETRANSLIT:;
#ARTISTTRANSLIT:;
#GENRE:;
#ORIGIN:;
#CREDIT:;
#BANNER:Doppelganger-bn.png;
#BACKGROUND:Doppelganger-bg.png;
#PREVIEWVID:;
#JACKET:;
#CDIMAGE:;
#DISCIMAGE:;
#LYRICSPATH:;
#CDTITLE:;
#MUSIC:Doppelganger.ogg;
#OFFSET:-0.390000;
#SAMPLESTART:0.750000;
#SAMPLELENGTH:10.339000;
#SELECTABLE:YES;
#DISPLAYBPM:*;
#BPMS:0.000=280.000,
648.000=99280.000;
#STOPS:;
#DELAYS:;
#WARPS:;
#TIMESIGNATURES:0.000=4=4;
#TICKCOUNTS:0.000=4;
#COMBOS:0.000=1;
#SPEEDS:0.000=1.000=0.000=0;
#SCROLLS:0.000=1.000;
#FAKES:;
#LABELS:0.000=Song Start;
#BGCHANGES:-0.390=Doppelganger.avi=1.000=1=0=0=StretchNoLoop==CrossFade==,
99999=-nosongbg-=1.000=0=0=0 // don't automatically add -songbackground-
;
#KEYSOUNDS:;
#ATTACKS:
;

//---------------dance-single - ----------------
#NOTEDATA:;
#CHARTNAME:;
#STEPSTYPE:dance-single;
#DESCRIPTION:;
#CHARTSTYLE:;
#DIFFICULTY:Beginner;
#METER:9;
#RADARVALUES:0.472657,1.467247,0.185336,0.199065,0.013729,482.000000,455.000000,27.000000,29.000000,0.000000,0.000000,3.000000,0.000000,0.000000,0.472657,1.467247,0.185336,0.199065,0.013729,482.000000,455.000000,27.000000,29.000000,0.000000,0.000000,3.000000,0.000000,0.000000;
#CREDIT:;
#OFFSET:-0.390000;
#BPMS:0.000000=560.000000
,4.000000=280.000000
,50.000000=140.000000
,51.000000=280.000000
,67.000000=140.000000
,67.500000=280.000000
,68.500000=140.000000
,69.000000=280.000000
,70.000000=140.000000
,70.500000=280.000000
,71.500000=140.000000
,72.000000=280.000000
,75.000000=560.000000
,76.000000=280.000000
,77.000000=140.000000
,77.500000=560.000000
,87.000000=280.000000
,90.000000=140.000000
,114.000000=280.000000
,116.000000=560.000000
,119.500000=280.000000
,124.000000=560.000000
,124.500000=280.000000
,131.000000=560.000000
,131.500000=280.000000
,141.000000=560.000000
,142.000000=280.000000
,146.000000=140.000000
,148.000000=280.000000
,167.500000=560.000000
,172.000000=280.000000
,224.000000=140.000000
,226.000000=280.000000
,228.000000=140.000000
,229.000000=280.000000
,231.000000=140.000000
,232.000000=280.000000
,233.000000=140.000000
,233.500000=280.000000
,234.500000=140.000000
,235.000000=280.000000
,236.000000=140.000000
,237.000000=280.000000
,244.000000=560.000000
,244.500000=280.000000
,246.500000=140.000000
,250.000000=280.000000
,308.000000=140.000000
,321.000000=280.000000
,334.000000=140.000000
,336.000000=280.000000
,338.000000=560.000000
,342.000000=280.000000
,375.000000=560.000000
,379.000000=140.000000
,380.000000=280.000000
,454.000000=140.000000
,468.000000=280.000000
,477.000000=560.000000
,641.000000=140.000000
,648.000000=99280.000000
,920.000000=280.000000
,3888.000000=140.000000
;
#STOPS:73.000000=0.200000
,73.500000=0.200000
,74.000000=0.200000
,74.500000=0.200000
,116.000000=0.055000
,116.500000=0.055000
,117.000000=0.055000
,117.500000=0.055000
,118.000000=0.055000
,118.500000=0.055000
,119.000000=0.055000
,122.000000=0.200000
,122.500000=0.200000
,123.000000=0.200000
,123.500000=0.200000
,127.500000=0.100000
,128.000000=0.100000
,128.500000=0.100000
,129.000000=0.200000
,129.500000=0.200000
,130.000000=0.200000
,130.500000=0.200000
,167.500000=0.100000
,168.500000=0.028000
,169.000000=0.125000
,170.000000=0.100000
,171.000000=0.100000
,366.000000=0.013000
,366.250000=0.013000
,366.500000=0.013000
,366.750000=0.013000
,367.000000=0.013000
,367.250000=0.013000
,367.500000=0.013000
,367.750000=0.013000
,368.000000=0.013000
,368.125000=0.013000
,368.250000=0.013000
,368.375000=0.013000
,368.500000=0.013000
,368.625000=0.013000
,368.750000=0.013000
,368.875000=0.013000
,454.000000=6.625000
;
#DELAYS:;
#WARPS:;
#TIMESIGNATURES:0.000000=4=4
;
#TICKCOUNTS:0.000000=4
;
#COMBOS:0.000000=1
;
#SPEEDS:0.000000=1.000000=0.000000=0
;
#SCROLLS:0.000000=1.000000
,224.000000=0.250000
,226.000000=1.000000
,228.000000=0.250000
,229.000000=1.000000
,231.000000=0.250000
,232.000000=1.000000
,233.000000=0.250000
,233.500000=1.000000
,234.500000=0.250000
,235.000000=1.000000
,236.000000=0.250000
,237.000000=1.000000
,246.500000=0.500000
,250.000000=0.250000
,251.000000=1.000000
,255.000000=2.000000
,256.000000=1.000000
,257.000000=2.000000
,258.000000=1.000000
,271.000000=4.000000
,275.000000=1.000000
,322.000000=0.125000
,330.000000=1.000000
,334.000000=0.500000
,336.000000=1.000000
,338.000000=2.000000
,342.000000=0.500000
,346.000000=1.000000
,366.000000=0.250000
,369.000000=1.000000
,375.000000=4.000000
,379.000000=0.250000
,380.000000=1.000000
,391.000000=2.000000
,391.500000=1.500000
,392.000000=1.000000
,392.500000=2.000000
,393.000000=1.500000
,393.500000=1.000000
,394.000000=2.000000
,394.500000=1.500000
,395.000000=1.000000
,397.500000=2.000000
,398.000000=1.500000
,398.500000=1.000000
,399.000000=2.000000
,399.500000=1.500000
,400.000000=1.000000
,400.500000=2.000000
,401.000000=1.500000
,401.500000=1.000000
,421.500000=2.000000
,422.000000=1.500000
,422.500000=1.000000
,423.000000=2.000000
,423.500000=1.500000
,424.000000=1.000000
,424.500000=2.000000
,425.000000=1.500000
,425.500000=1.000000
,426.000000=2.000000
,430.500000=0.500000
,434.000000=4.000000
,438.000000=0.125000
,439.000000=2.000000
,444.000000=0.250000
,445.000000=1.500000
,450.000000=0.500000
,451.000000=1.000000
,454.000000=0.125000
,455.000000=1.000000
;
#FAKES:;
#LABELS:0.000000=Song Start
;
#DISPLAYBPM:*;
#NOTES:
0000
0000
0000
0000
,
0000
0000
0000
0000
,
0000
0000
0000
0000
,
0000
0000
0000
0000
,
0000
0000
0000
0000
,
1000
0100
0010
0001
,
1000
0010
0100
0001
,
2002
0000
0000
0000
,
0000
0000
0000
3003
,
0001
0010
0100
1000
,
0001
0100
0010
1000
,
2002
0000
0000
3003
,
1001
0110
1001
1001
,
1000
1000
0100
0100
,
0010
0010
0001
0000
,
1000
1000
0010
0010
,
0100
0000
0100
0000
0001
0000
1000
0100
,
0000
0010
0001
0000
1000
0010
0000
0100
,
0001
0000
1010
1100
0011
0101
0220
0000
,
0000
0000
0330
2002
0000
0000
0000
0000
,
0000
0000
0000
0000
,
0000
0000
0000
0000
0000
3003
0002
0000
,
0000
0000
0003
0000
1000
0100
0010
0001
,
1000
0001
1000
0001
1000
0010
0100
0001
,
0100
0010
0100
0010
1000
0001
1000
1000
,
0100
0010
1000
1000
0001
0010
0100
1000
,
0001
0001
0001
0001
0010
0100
1000
0010
,
0100
0010
0010
0001
1000
0100
0010
0001
,
2000
3000
0002
0003
1000
0000
0001
0000
,
0010
0100
0010
0100
0010
0100
0010
0100
,
0000
0000
0100
0000
1010
0101
1100
0011
,
1001
0000
0000
0000
0000
0000
0000
0010
,
0010
0010
1100
0011
1010
0101
0110
0000
,
0000
0000
0000
2002
0000
0000
0000
0000
,
0000
0000
0000
0000
,
0000
3003
1000
0100
,
0010
0000
0000
0000
0001
0000
0000
0000
0100
0000
0000
0100
0000
0000
0100
0000
,
0100
1000
0010
0001
,
0100
0010
0001
0001
,
0100
0100
1000
0100
,
0001
0010
1000
0001
,
0100
0000
1000
0000
0001
0000
1000
0001
,
0000
1000
1000
0000
0100
0000
0100
0000
,
0200
0300
0001
0010
,
0000
0100
1000
0001
,
0100
0100
0100
0010
,
0000
0004
0000
0003
1001
0000
1001
0000
,
0001
0010
0100
1000
,
0001
0000
0000
1000
0000
0000
0000
0000
,
0001
0000
1000
0000
,
0100
0000
0100
0000
,
0100
0010
0001
0010
,
1000
0010
0100
0001
,
1000
0100
0010
0001
,
0000
1000
1000
0000
0010
0000
0010
0000
,
1000
0100
1000
0100
,
0002
0000
0000
0000
0000
0000
0000
0003
1000
0000
0000
0000
0100
0000
0000
0000
,
0002
0000
0000
0003
1000
0000
0000
0000
0100
0000
0000
0000
0002
0000
0000
0003
,
1000
0000
0000
0000
0002
0003
1000
0000
0000
0000
0002
0003
1000
0000
0000
0000
,
0002
0000
0000
0003
1000
0000
0000
0000
0100
0000
0000
0000
1000
0000
0000
0000
,
0100
1000
0010
0010
,
0010
0000
0000
0000
0000
0100
0100
0100
,
0100
0010
0010
0010
0010
0000
1000
0000
,
0100
0010
0001
1000
,
0000
0001
0000
1000
,
1000
0100
0100
0010
,
0010
0001
0001
1000
,
1000
1000
1000
0001
,
0000
0000
0000
1000
,
0000
0010
0000
0100
,
0000
0001
0000
1000
,
0000
1000
0000
0100
,
0000
0100
0000
0010
,
0000
0010
0000
0001
,
0000
0001
0000
1000
,
0000
0001
0000
0100
,
0000
0010
0000
1000
,
1000
0000
0000
1000
0000
0000
0000
1000
,
0000
0000
0000
1000
0000
1000
0000
1000
,
0000
1000
0000
0100
0000
0100
0000
0100
,
0000
0000
0100
0000
0000
0000
0000
0000
0001
0000
0000
0000
0000
0010
0000
0000
,
0000
0000
0100
0000
0000
0000
0000
0010
0000
0000
0000
0000
0100
0000
0000
0000
,
0000
0000
1000
1000
,
0100
0100
0010
0000
,
0001
0001
1000
0000
,
0001
0000
0000
0000
0100
0000
0000
0100
,
0000
0100
0100
0010
,
0010
1000
0010
0010
,
0001
0100
0010
0010
,
1000
0001
0010
0010
,
0010
0000
1000
1000
,
1000
1000
2002
0000
,
0000
0000
0000
0000
0000
0000
0000
3003
1000
0000
0000
0000
0000
0000
0000
0000
0000
0000
0000
0000
0000
0000
0000
0000
0100
0000
0000
0000
0000
0000
0000
0000
,
0000
0010
0000
0001
,
0000
0000
0000
0010
,
1000
0000
0000
1000
0000
0000
0001
0000
,
0000
0001
0000
0000
1000
0001
1000
0001
,
1000
1000
0000
0100
,
0000
0100
0000
0000
0100
0000
0000
0000
,
0000
0000
0000
0010
0000
0000
0010
0000
,
0000
0010
0000
0000
0000
0000
0000
0000
,
0000
0000
0000
1000
0000
0000
1000
0000
,
0000
0000
0100
0000
,
0010
0000
0001
0000
,
1000
0000
0010
0000
,
0100
0000
0000
0001
0000
0000
0001
0000
,
0000
0001
0000
0000
1000
0000
0000
0000
,
0000
0000
0000
0000
0000
0100
0000
0000
,
0000
0000
0010
0000
,
0000
0000
0000
0001
,
0000
0000
0000
0000
,
0000
1000
0000
0000
,
0000
0000
0000
0000
0000
0000
0004
4000
,
0000
0000
0000
0000
0000
0000
0000
0000
0000
0000
0000
0000
0000
0000
0000
0000
0000
3003
0000
0000
0000
0000
0000
0000
1000
0000
0001
0000
1000
0000
0000
0000
,
0001
2000
0000
0000
0000
3200
0000
0000
,
0000
0320
0000
0000
0000
0032
0000
0000
,
0000
2003
0000
0000
0000
3002
0000
0000
,
0003
1000
1000
0100
,
0100
0010
0010
0001
,
0001
1000
0000
0100
,
0000
0010
0000
0001
,
0000
1000
0000
0010
,
0000
0100
0000
0001
,
0000
1000
0000
1000
,
0000
0010
0000
0010
,
0000
0100
0000
0100
,
0000
0001
0000
0001
,
0000
1000
0000
0100
,
0000
0001
0000
0100
,
0000
1000
0000
0010
,
0000
0001
0000
0010
,
0000
1000
0000
0100
,
0000
1000
0000
0100
,
0000
0010
0000
0001
,
0000
0010
0000
0001
,
0000
1000
0000
0010
,
0000
0100
0000
0001
,
0000
1000
0000
0100
,
0000
0010
0000
0001
,
0000
1000
0000
1000
,
0000
0001
0000
0001
,
0000
1000
0001
1000
,
0000
0001
1000
0001
,
0000
1000
0000
1000
,
0000
0100
0000
0100
,
0000
0010
0000
0010
,
0000
0001
0000
0001
,
0000
1000
0000
1000
,
0000
0010
0000
0010
,
0000
0100
0000
0100
,
0000
0001
0000
0001
,
0000
1000
0100
1000
,
0000
0001
0100
0001
,
0000
1000
0010
1000
,
0000
0001
0010
0001
,
0000
1000
0000
0100
,
0000
0010
0000
0001
,
0000
1000
0000
0010
,
0000
0100
0000
0001
,
0000
0000
0000
0000
,
0000
1001
0000
0000
,
0000
0000
0000
0000
,
0020
0000
0000
0000
,
0000
0000
0000
0000
,
0000
0000
0000
0000
,
0000
0000
0000
0000
,
0000
0000
0000
0000
,
0000
0000
0000
0000
,
0000
0000
0000
0000
,
0000
0000
0000
0000
,
0000
0000
0000
0000
,
0000
0000
0000
0000
,
0000
0000
0000
0000
,
0000
0000
0000
0000
,
0000
0000
0000
0000
,
0000
0000
0000
0000
,
0000
0000
0000
0000
,
0000
0000
0000
0000
,
0000
0000
0000
0000
,
0000
0000
0000
0000
,
0000
0000
0000
0000
,
0000
0000
0000
0000
,
0000
0000
0000
0000
,
0000
0000
0000
0000
,
0000
0000
0000
0000
,
0000
0000
0000
0000
,
0000
0000
0000
0000
,
0000
0000
0000
0000
,
0000
0000
0000
0000
,
0000
0000
0000
0000
,
0000
0000
0000
0000
,
0000
0000
0000
0000
,
0000
0000
0000
0000
,
0000
0000
0000
0000
,
0000
0000
0000
0000
,
0000
0000
0000
0000
,
0000
0000
0000
0000
,
0000
0000
0000
0000
,
0000
0000
0000
0000
,
0000
0000
0000
0000
,
0000
0000
0000
0000
,
0000
0000
0000
0000
,
0000
0000
0000
0000
,
0000
0000
0000
0000
,
0000
0000
0000
0000
,
0000
0000
0000
0000
,
0000
0000
0000
0000
,
0000
0000
0000
0000
,
0000
0000
0000
0000
,
0000
0000
0000
0000
,
0000
0000
0000
0000
,
0000
0000
0000
0000
,
0000
0000
0000
0000
,
0000
0000
0000
0000
,
0000
0000
0000
0000
,
0000
0000
0000
0000
,
0000
0000
0000
0000
,
0000
0000
0000
0000
,
0000
0000
0000
0000
,
0000
0000
0000
0000
,
0000
0000
0000
0000
,
0000
0000
0000
0000
,
0000
0000
0000
0000
,
0000
0000
0000
0000
,
0000
0000
0000
0000
,
0030
0000
0000
0000
;

//---------------dance-single - ----------------
#NOTEDATA:;
#CHARTNAME:;
#STEPSTYPE:dance-single;
#DESCRIPTION:;
#CHARTSTYLE:;
#DIFFICULTY:Easy;
#METER:11;
#RADARVALUES:0.648187,1.460383,0.205929,0.205929,0.374105,661.000000,631.000000,30.000000,30.000000,0.000000,0.000000,0.000000,0.000000,0.000000,0.648187,1.460383,0.205929,0.205929,0.374105,661.000000,631.000000,30.000000,30.000000,0.000000,0.000000,0.000000,0.000000,0.000000;
#CREDIT:;
#OFFSET:-0.390000;
#BPMS:0.000000=560.000000
,8.000000=280.000000
,30.000000=140.000000
,34.000000=280.000000
,42.000000=140.000000
,44.000000=560.000000
,48.000000=280.000000
,65.000000=140.000000
,68.500000=560.000000
,70.500000=280.000000
,71.000000=140.000000
,71.500000=280.000000
,72.000000=140.000000
,72.500000=280.000000
,73.000000=140.000000
,73.500000=280.000000
,74.000000=140.000000
,74.500000=560.000000
,75.000000=280.000000
,75.500000=140.000000
,76.000000=560.000000
,86.500000=70.000000
,87.250000=140.000000
,111.000000=280.000000
,119.500000=560.000000
,119.750000=280.000000
,120.000000=140.000000
,120.500000=280.000000
,121.500000=560.000000
,121.750000=280.000000
,122.000000=140.000000
,122.500000=280.000000
,123.500000=560.000000
,125.000000=280.000000
,222.000000=70.000000
,223.000000=280.000000
,225.000000=70.000000
,225.500000=280.000000
,227.500000=70.000000
,228.000000=280.000000
,229.000000=70.000000
,229.250000=280.000000
,230.250000=70.000000
,230.500000=280.000000
,231.500000=70.000000
,232.000000=280.000000
,241.000000=70.000000
,243.000000=280.000000
,303.000000=140.000000
,315.000000=280.000000
,327.000000=140.000000
,329.000000=280.000000
,331.000000=560.000000
,343.000000=280.000000
,371.000000=1120.000000
,379.000000=140.000000
,380.000000=280.000000
,394.000000=560.000000
,401.000000=280.000000
,431.500000=140.000000
,433.500000=560.000000
,440.000000=280.000000
,454.000000=560.000000
,459.500000=35.000000
,463.500000=140.000000
,477.000000=280.000000
,486.000000=560.000000
,644.000000=70.000000
,648.250000=99280.000000
,800.000000=280.000000
,1160.000000=140.000000
;
#STOPS:48.000000=0.200000
,120.500000=0.150000
,122.500000=0.150000
,127.000000=0.125000
,127.500000=0.100000
,128.000000=0.100000
,128.500000=0.215000
,129.000000=0.215000
,129.500000=0.215000
,130.000000=0.215000
,139.750000=0.100000
,154.000000=0.100000
,154.500000=0.100000
,155.000000=0.100000
,155.500000=0.100000
,169.750000=0.050000
,363.000000=0.055000
,363.250000=0.055000
,363.500000=0.055000
,363.750000=0.055000
,364.000000=0.055000
,364.250000=0.055000
,364.500000=0.055000
,364.750000=0.055000
,425.000000=0.200000
,425.500000=0.200000
;
#DELAYS:;
#WARPS:;
#TIMESIGNATURES:0.000000=4=4
;
#TICKCOUNTS:0.000000=4
;
#COMBOS:0.000000=1
;
#SPEEDS:0.000000=1.000000=0.000000=0
;
#SCROLLS:0.000000=1.000000
;
#FAKES:;
#LABELS:0.000000=Song Start
;
#DISPLAYBPM:*;
#NOTES:
0000
0000
0000
0000
,
0000
0000
0000
0000
,
0000
0000
0000
0000
,
0000
0000
0000
0000
,
0000
0000
0000
0000
,
0000
0000
1000
0100
,
0010
0001
1001
0010
,
0010
0000
0000
0000
0010
0000
0000
0000
1000
0100
1000
0100
1000
0000
0010
0001
,
0000
0010
0010
0000
0001
0000
0000
0000
0001
0000
0000
0000
0010
0000
0000
0000
,
0100
1000
1001
0100
,
0100
0000
0000
0000
0100
0000
0000
0000
0001
0010
0100
1000
0001
0000
0001
0000
,
1001
0000
1001
0000
,
1001
1000
0100
0100
,
0001
0100
0100
1000
,
0001
1000
0010
0010
,
0001
0010
0010
1000
,
0001
0000
1000
0100
0010
0001
1000
0010
,
0100
0001
0000
0000
0000
1100
0000
0110
,
0000
0011
0000
0101
0000
1010
0000
0000
,
1001
0000
0000
0000
,
0000
0000
0000
0000
,
0000
0000
0000
0000
0000
0000
0000
0000
0000
0000
1000
0000
0000
0100
0000
0010
,
0000
0001
0000
0100
0000
0010
0000
1000
0000
1000
0000
0100
0000
0010
0000
0001
,
0000
0010
0000
1000
0000
0010
0000
0010
0000
1000
0000
0100
0000
0001
0000
0010
,
0000
0001
0000
0100
0000
0001
0000
1000
0000
0010
0000
0001
0000
0100
0000
1000
,
0000
0010
0000
0100
0000
0001
0000
0001
0000
0001
0000
0001
0000
1000
0000
0100
,
0000
1000
0000
0010
0000
0100
0000
0001
0000
0010
0000
0001
0000
0100
0000
0010
,
0000
1000
0000
0100
0000
1000
0000
0000
0000
0001
0000
0000
0000
0000
1000
0000
,
0000
1000
0000
0010
0100
0010
0100
0010
,
0100
0010
0100
0000
0100
0010
0000
0011
,
0000
1010
0000
1100
0000
0011
0000
2002
,
0000
0000
0000
0000
0000
3003
1001
1001
,
1001
1100
0101
0011
1010
1001
0000
0000
,
0000
0000
0000
0000
,
0000
0000
0000
0000
,
1000
0000
0100
0000
0010
0001
0000
0001
,
0100
0000
1000
1000
0000
0001
0001
0000
,
1000
0100
0001
0100
,
1000
0000
0001
0000
0100
0100
0100
0100
,
1000
0010
0100
0001
,
0010
0000
0100
0000
1000
0001
1000
0001
,
1000
0000
0001
0000
1000
0000
0001
0000
0000
0000
0000
0010
0000
0010
0000
0000
,
0000
0010
0000
0000
0000
0010
0000
0000
1000
0000
0000
0000
0010
0000
0000
0000
,
0100
0001
0010
0100
0000
1000
0010
0100
,
0001
0000
0010
0000
0100
0000
0000
0000
1000
0100
0000
0000
0010
0001
0000
0000
,
1000
0001
0000
0000
0000
0000
0000
0000
1000
0000
0100
0000
0001
0000
0100
0000
,
1000
1000
0001
0010
,
0100
1000
0100
1000
0010
0000
0000
0001
,
0010
0100
1000
0000
0010
0010
0000
0010
,
1000
0000
0000
0100
0000
0000
0010
0000
0001
0000
0000
0000
0000
0000
0000
0000
,
1000
0000
0000
0000
0000
0000
0000
0000
0000
0000
0000
0000
0000
0000
0000
0000
0001
0000
0000
0000
0000
0000
0000
1000
0000
0000
0000
0000
0000
0000
0000
0100
,
0000
0000
0000
0000
0000
0000
0000
0010
0000
0000
0000
0000
0000
0000
0000
0001
0000
0000
0010
0000
0000
0001
0000
0000
0010
0000
0000
0000
0000
0000
0000
0000
,
0100
0100
1000
1000
,
0001
0000
0001
0000
0000
1000
1000
0000
,
0100
0010
1000
0100
,
1000
0000
0000
0000
0100
0000
0000
0000
0020
0032
0023
0032
1003
0000
0000
0000
,
0100
0000
0000
0000
0020
0032
1003
0000
0000
0000
0100
0000
0000
0000
0020
0032
,
1003
0000
0000
0000
0020
0130
0000
0000
0000
0001
1000
0000
0000
0000
0002
0023
,
1030
0100
0100
0001
,
0001
0010
0010
0010
,
0000
0000
0000
0000
2000
3200
0320
0032
2003
3020
0230
0302
1003
0000
0000
0000
,
1000
0001
0001
0010
,
0000
0000
0000
0100
0000
0000
0000
0000
1000
0100
0000
0010
,
0001
0000
1000
0010
0000
0100
0001
0000
1000
0100
0000
0010
,
0001
0000
1000
0010
0000
0100
0001
0000
0000
1001
0000
0000
,
1001
1001
1001
1001
,
0000
0000
0000
1000
,
0000
0100
0000
0010
,
0000
0010
0000
0000
0001
0000
0010
0000
,
0000
0010
0000
0000
0100
0000
1000
0000
,
1000
0000
1000
1000
0000
0100
0100
0000
,
0000
0010
0000
0001
,
0000
0010
0000
0000
1000
0000
0010
0000
,
0000
0010
0000
0000
0001
0000
0100
0000
,
0100
0000
1000
1000
0000
0001
0001
0000
,
1000
0000
0100
0000
0010
0000
0001
0010
,
0100
1000
0001
0100
0010
1000
0001
0100
,
1000
0100
0001
0010
1000
0010
0001
0001
,
1000
1000
0010
0010
0100
0100
0001
0000
,
0010
0000
0000
0000
0010
0000
0000
0000
0000
0000
0000
0000
0100
0000
0000
1000
0000
0000
0100
0000
0000
1000
0000
0000
0100
0000
0000
0000
0000
0000
0000
0000
,
0010
0001
0100
0000
0100
0000
1000
0000
,
0100
0010
0001
1000
,
0010
0010
0001
0000
1000
0000
0001
0000
,
0010
0100
1000
0001
,
0001
0000
1000
1000
,
0000
1000
0001
1000
,
0100
0100
0001
0010
,
0010
1000
0100
0001
,
0001
1000
1000
0010
,
0010
0010
0000
1000
,
1000
0000
0000
0000
0001
0000
0000
0000
0001
0000
0000
0000
1000
0100
0010
0001
,
1000
0100
0010
0001
1000
0000
0000
0000
0000
0000
0000
0000
1000
0000
0000
0000
,
0000
1000
1000
1000
,
0000
0000
0000
0000
,
0000
0000
0000
0100
,
0010
0000
0000
0100
0000
0000
1000
0000
,
0010
0000
0000
0000
0000
0000
0010
0000
0000
0000
0000
0000
0001
0000
0000
0010
0000
0000
0100
0000
0000
0000
1000
0000
,
0000
0001
0000
1000
0000
0000
0000
0000
0000
0100
0000
0000
,
0000
0100
0000
0000
0100
0000
0000
0000
,
0000
0000
0000
0000
,
0000
0000
0010
0000
0000
0010
0000
0000
,
0010
0001
0100
0010
,
1000
0000
0100
0100
0000
0100
0000
0000
,
0010
0010
0000
0001
0010
1000
0100
0000
,
0001
0001
0000
0010
0000
0100
0000
0000
,
0100
0000
0000
0100
0000
1000
0000
0010
,
0000
0100
0001
0001
0001
0001
0000
0002
,
0000
0000
0000
0013
0000
0000
0000
0100
,
0010
0001
0100
0010
0000
0000
0000
0000
,
0000
0000
0000
0000
,
1000
0000
0100
0000
,
0000
0000
0000
0000
,
0010
0000
0000
0000
,
0000
0000
0001
0000
,
0000
0000
0000
0000
0000
0000
0000
0000
0000
0000
0000
0000
0000
0000
2000
0100
,
0100
0000
0000
0100
0100
0000
0100
0000
0100
0000
0100
0000
0100
0000
0100
0000
0100
0000
0000
0100
0100
0000
0100
0000
0100
0000
0100
0000
3000
0000
0000
0000
,
0001
0010
0100
0000
1000
0000
0002
0000
0000
0000
0010
0000
0000
0000
0023
0000
,
0000
0100
0000
0230
0000
1000
0000
2300
,
0000
0100
0000
3200
0000
0010
0000
0320
,
0000
0031
0000
0000
1000
0000
0100
0000
,
0010
0001
1000
1000
,
1000
1000
0001
0000
,
0001
0010
0001
0000
,
1000
0010
1000
0000
,
0100
0010
0001
0000
,
0010
0000
1000
0100
,
1000
0000
0001
0100
,
0001
0000
1000
0010
,
0100
0000
0001
0100
,
0010
0000
1000
1000
,
0001
0000
1000
1000
,
0010
0010
0100
0000
,
0001
0000
0010
0000
,
0100
0100
1000
0000
,
0001
0000
1000
0010
,
0100
0001
0010
0000
,
0100
0000
1000
0000
,
0001
1000
0001
0000
,
1000
0000
0100
0000
,
0010
0000
0001
0000
,
1000
0001
1000
0000
,
0001
0000
0010
0000
,
0010
0000
0100
0000
,
0100
0000
0000
0000
0000
0000
1000
0000
0001
0000
1000
0000
,
0001
0000
0000
0000
0000
0000
0001
0000
1000
0000
0001
0000
,
1000
0000
1000
0000
,
0100
0000
0010
0000
,
0001
0000
1000
0100
,
0010
0000
0001
0010
,
0100
0000
1000
0010
,
0100
0000
0001
0100
,
0010
0000
1000
0100
,
0010
0001
1000
0010
,
0100
0001
1000
0100
,
1000
0100
0010
0001
,
0010
0001
1000
0010
,
1000
0010
0100
0001
,
0100
0001
1000
0000
,
0100
0000
0010
0000
,
0001
0000
1000
0000
,
0010
0000
0100
0000
,
0001
0000
0000
1001
0000
0000
0000
0000
0000
0000
0000
0000
0000
0000
0000
0000
,
0000
0020
0000
0000
0000
0000
0000
0000
0000
0000
0000
0000
0000
0000
0000
0000
,
0000
0000
0000
0000
,
0000
0000
0000
0000
,
0000
0000
0000
0000
,
0000
0000
0000
0000
,
0000
0000
0000
0000
,
0000
0000
0000
0000
,
0000
0000
0000
0000
,
0000
0000
0000
0000
,
0000
0000
0000
0000
,
0000
0000
0000
0000
,
0000
0000
0000
0000
,
0000
0000
0000
0000
,
0000
0000
0000
0000
,
0000
0000
0000
0000
,
0000
0000
0000
0000
,
0000
0000
0000
0000
,
0000
0000
0000
0000
,
0000
0000
0000
0000
,
0000
0000
0000
0000
,
0000
0000
0000
0000
,
0000
0000
0000
0000
,
0000
0000
0000
0000
,
0030
0000
0000
0000
;

//---------------dance-single - ----------------
#NOTEDATA:;
#CHARTNAME:;
#STEPSTYPE:dance-single;
#DESCRIPTION:;
#CHARTSTYLE:;
#DIFFICULTY:Medium;
#METER:14;
#RADARVALUES:0.765861,1.513581,0.370673,0.226522,0.339783,781.000000,727.000000,54.000000,33.000000,3.000000,0.000000,0.000000,0.000000,8.000000,0.765861,1.513581,0.370673,0.226522,0.339783,781.000000,727.000000,54.000000,33.000000,3.000000,0.000000,0.000000,0.000000,8.000000;
#CREDIT:;
#OFFSET:-0.390000;
#BPMS:0.000000=280.000000
,1.750000=140.000000
,20.000000=280.000000
,75.000000=140.000000
,78.000000=280.000000
,88.000000=140.000000
,112.000000=280.000000
,147.000000=560.000000
,148.000000=280.000000
,260.000000=140.000000
,264.000000=280.000000
,321.000000=140.000000
,334.500000=280.000000
,342.000000=560.000000
,343.000000=280.000000
,347.000000=140.000000
,349.000000=280.000000
,351.000000=560.000000
,355.000000=280.000000
,389.000000=560.000000
,393.000000=140.000000
,394.000000=280.000000
,468.000000=140.000000
,492.000000=280.000000
,501.000000=560.000000
,665.000000=8.750000
,665.437500=99280.000000
,880.000000=280.000000
;
#STOPS:50.000000=0.200000
,114.000000=0.025000
,114.500000=0.025000
,115.000000=0.025000
,115.500000=0.025000
,116.000000=0.025000
,468.000000=6.625000
;
#DELAYS:;
#WARPS:9.875000=10.125000
,469.000000=10.000000
;
#TIMESIGNATURES:0.000000=4=4
;
#TICKCOUNTS:0.000000=4
;
#COMBOS:0.000000=1
;
#SPEEDS:0.000000=1.000000=0.000000=0
;
#SCROLLS:0.000000=1.000000
;
#FAKES:;
#LABELS:0.000000=Song Start
;
#DISPLAYBPM:*;
#NOTES:
0000
0000
0000
0000
,
0000
0000
0000
0000
,
0000
0000
0000
0000
0000
0000
0000
0000
0000
0000
0000
0000
0000
0000
0000
M000
0000
0000
0000
0000
0000
0000
0000
0M00
0000
0000
0000
0000
0000
0000
0000
00M0
,
0000
0000
0000
0000
0000
0000
0000
000M
0000
0000
0000
0000
0000
0000
0000
0000
0000
0000
0000
0000
0000
0000
0000
0000
0000
0000
0000
0000
0000
0000
0000
0000
,
0000
0000
0000
0000
,
1000
0100
0010
0001
,
1000
0010
0100
0001
,
1000
0100
0010
0001
1000
0010
0100
0001
,
1000
0100
0010
0001
1000
0010
0100
0001
,
0001
0010
0100
1000
,
0001
0100
0010
1000
,
0001
0010
0100
1000
0001
0100
0010
1000
,
1001
0110
1001
1001
,
0010
0010
1000
0010
,
0010
0001
1000
0000
,
1000
0010
0010
0001
,
0010
0010
1000
0001
,
0010
0000
0100
1000
0010
0001
0100
1000
,
0001
0000
0000
0000
0010
0000
0100
0000
0010
0000
0000
0000
0022
0000
0033
2200
,
0000
3300
0202
0000
0303
2020
0000
3030
2002
0000
3003
0000
0000
0000
0000
0000
,
0200
0000
0000
0000
,
0000
0320
0000
0030
,
1000
0000
0100
0000
0010
0000
0001
0000
1000
0000
0010
0100
0001
0000
0010
0000
,
0001
0000
0010
0000
0100
0000
1000
0001
0100
0000
0010
1000
0001
0000
0100
0010
,
0100
0010
1000
0010
0001
0010
0100
0010
,
1000
0000
0100
0000
0010
0001
0100
0010
1000
0000
1000
0000
0001
0000
0001
0000
,
1000
0000
0000
0100
0000
0000
0010
0000
0000
0001
0000
0000
1000
0000
0000
0001
1000
0001
1000
0000
0000
0001
0000
0000
,
1000
0000
0000
0010
0000
0000
0100
0000
0000
0001
0000
0000
2000
0000
0000
0000
0000
3000
0020
0000
0000
0000
0000
0030
,
1001
0000
0100
0000
0110
0010
0110
0010
,
0110
0010
0110
0000
1000
0001
0000
1010
,
0000
0000
0011
0000
0000
0101
0000
0000
,
1100
0000
0000
0110
0000
0000
0000
0000
,
0000
1001
0000
1001
0000
1001
0000
0101
,
0000
0000
1100
0000
0000
1010
0000
0000
,
0011
0000
0000
1001
0000
0000
0000
1000
,
0000
0100
0000
0010
0000
0001
0000
1000
,
0100
0010
0001
1000
0010
0100
0001
0000
,
1000
0000
0001
0000
0010
0100
0001
0100
,
1000
0000
0100
0100
0000
0010
0010
0000
,
0001
0000
0010
0000
0100
0000
1000
0000
0000
0001
0000
0000
1000
0000
0000
0010
0000
0000
0100
0000
0000
0001
0000
0000
,
1000
0100
0001
0100
1000
0000
1000
0000
,
1000
1000
0001
0010
,
0100
1000
0010
0001
0100
1000
0001
0000
,
1000
0000
0100
0000
1000
0000
0100
0000
1000
0000
0100
0000
1000
0000
0100
0000
1000
0000
0100
0000
0000
0010
0000
0000
,
0000
1001
1001
0000
0110
0000
0110
0000
,
1000
0100
1000
0000
0100
0000
0000
0000
0010
0000
0001
0000
0100
0000
0010
0000
,
0000
1000
0010
0001
0010
1000
0001
0000
,
1000
0100
0000
0000
0000
0000
0010
0001
0000
0000
0000
0000
1000
0010
0000
0000
0000
0000
0100
0001
0000
0000
0000
0000
,
1000
0100
0010
0001
0010
0100
1000
0000
0000
1000
0000
0000
,
1000
0000
0010
0000
0001
0100
1000
0100
,
0001
0000
0000
1000
1000
0100
0100
0000
,
0010
0000
0000
0000
0010
0000
0000
0000
0000
0001
0000
0000
0010
0000
0000
0000
1000
0000
0000
0000
0100
0000
0000
0000
,
0001
0000
1000
0000
,
1001
0000
0000
0000
0000
0000
0000
0000
0000
0000
0000
0000
0000
0000
0000
0000
0000
0000
0000
0000
0000
0000
0000
0000
0000
0000
0000
0000
0000
0000
0000
0000
0000
0000
0000
0000
0000
0000
0000
0000
0000
0000
0000
0000
0000
0000
0000
0000
1000
0000
0000
0000
0000
0000
0000
0000
0000
0000
0000
0000
0000
0000
0000
0000
0000
0000
0000
0100
0000
0000
0000
0000
0000
0000
0000
0000
0000
0000
0000
0000
0000
0000
0000
0000
0000
0000
0000
0000
0000
0000
0000
0000
0000
0000
0000
0000
0000
0000
0000
0000
0000
0000
0000
0000
0000
0000
0010
0000
0000
0000
0000
0000
0000
0000
0000
0000
0000
0000
0000
0000
0000
0000
0000
0000
0000
0001
0000
0000
0000
0000
0000
0000
0000
0000
0000
0000
0000
0000
0000
0000
0000
0000
0000
0000
0100
0000
0000
0000
0000
0000
0000
0000
0000
0000
0000
0000
0000
0000
0000
0000
0000
0000
0000
0010
0000
0000
0000
0000
0000
0000
0000
0000
0000
0000
0000
0000
0000
0000
0000
0000
0000
0000
1000
0000
0000
0000
0000
0000
0000
0000
0000
0000
,
0001
0000
0000
0000
0000
0000
0000
0000
0000
0000
1000
0000
0000
0000
0000
0000
0000
0000
0000
0000
0000
0000
0000
0000
0000
0000
0000
0000
0000
0010
0000
0000
0000
0000
0000
0000
0000
0000
0000
0000
0000
0000
0000
0000
0000
0000
0000
0000
0001
0000
0000
0000
0000
0000
0000
0000
0000
0000
0000
0000
0000
0000
0000
0000
0000
0000
0000
0010
0000
0000
0000
0000
0000
0000
0000
0000
0000
0000
0000
0000
0000
0000
0000
0000
0000
0000
0100
0000
0000
0000
0000
0000
0000
0000
0000
0000
0000
0000
0000
0000
0000
0000
0000
0000
0000
0000
0000
0000
0000
0000
0000
0000
0000
0000
0000
1000
0000
0000
0000
0000
0000
0000
0000
0000
0000
0000
0000
0000
0000
0000
0000
0000
0000
0000
0000
0000
0000
0000
0000
0000
0000
0000
0000
0000
0010
0000
0000
0000
0000
0000
0000
0000
0000
0000
0000
0000
0000
0000
0000
0000
0000
0000
0000
0000
0000
0000
0000
0000
0000
0000
0000
0000
0000
0001
0000
0000
0000
0000
0000
0000
0000
0000
0000
0000
0000
0000
0000
0000
0000
0000
0000
0000
,
0000
0000
0000
0000
0000
0000
0000
0000
0000
0000
0010
0000
0000
0000
0000
0000
0000
0000
0000
0000
0000
0000
0000
0000
0000
0000
0000
0000
0000
0000
0000
0000
0000
0000
0000
0000
0000
0000
1000
0000
0000
0000
0000
0000
0000
0000
0000
0000
0000
0000
0000
0000
0000
0000
0000
0000
0000
0000
0010
0000
0000
0000
0000
0000
0000
0000
0000
0000
0000
0000
0000
0000
0000
0000
0000
0000
0000
0001
0000
0000
0000
0000
0000
0000
0000
0000
0000
0000
0000
0000
0000
0000
0000
0000
0000
0000
1000
0000
0000
0000
0000
0000
0000
0000
0000
0000
0000
0000
0000
0000
0000
0000
0001
0000
0000
0000
0000
0000
0000
0000
0000
0000
0000
0000
0000
0000
0000
0000
1000
0000
0000
0000
0000
0000
0000
0000
0000
0000
0000
0000
0000
0000
0000
0000
0001
0000
0000
0000
0000
0000
0000
0000
0000
0000
0000
0000
0000
0000
0000
0000
0000
0000
0000
0000
0000
0000
0000
0000
0000
0000
0000
0000
0000
0000
0000
0000
0000
0000
0000
0000
0000
0000
0000
0000
0000
0000
0000
0000
0000
0000
0000
0000
,
0000
1100
1100
0000
0011
0000
1010
0000
,
1000
0100
0010
0001
,
0000
0000
0000
0000
,
1000
0100
0000
0000
,
1000
0100
0000
0000
,
1000
0000
1000
0000
,
1000
0000
0000
1000
,
0100
0000
1000
0100
,
0010
0001
1001
0000
,
0010
0000
0001
0000
0100
0000
1000
0000
0010
0000
0001
0010
1000
0000
0001
0000
,
1001
0110
0011
1100
,
0101
0000
0000
0000
0000
0000
1010
0000
0000
0000
0000
1000
,
0100
0000
0100
0010
0000
0010
0001
0000
0001
0100
0000
1000
,
0100
0000
0001
0010
0000
1000
0010
0000
0001
1000
0000
0000
,
1001
0110
1001
0110
,
1001
0000
0000
0000
,
1000
0100
1000
0000
0010
0001
0100
0000
,
1000
0000
0000
0000
0000
0000
0010
0000
0000
0010
0000
0000
0000
0000
0000
0000
0000
0000
0001
0000
0100
0000
0001
0000
,
1000
0000
0100
0010
0000
0001
0010
0000
,
0100
0000
0100
0000
1000
0010
0000
0001
,
0020
0000
2030
0000
,
3001
0000
0000
0000
0000
0000
0010
0000
0000
0010
0000
0000
0000
0000
0000
1000
0000
0000
1000
0000
0100
0000
1000
0000
,
0001
0000
0000
0000
0010
0000
0010
0000
0000
0000
0100
1000
0100
1000
0100
0000
,
0010
0000
0010
0000
0010
0001
0000
0001
,
1000
0000
1000
0000
0000
0200
0000
0000
,
0300
0020
0000
0000
0030
0002
0003
0020
,
0030
0000
0000
0000
0200
0000
0000
0000
0300
0000
0000
0000
2000
0000
0000
0000
3000
0000
0000
0000
1000
0100
0000
0000
0000
0000
0000
0000
0010
0001
0000
0000
,
0000
0000
0000
0000
1000
0010
0000
0000
0000
0000
0000
0000
0100
0001
0000
0000
0000
0000
0000
0000
1000
0000
0000
0000
0000
0000
0000
0000
0100
0000
0000
0000
,
0100
0000
0010
0001
0100
0010
0000
0100
,
0010
0001
0000
0001
0000
0000
1000
0000
,
1000
0000
0000
0000
0010
0000
0000
0000
0010
0000
0000
0000
1000
0000
0100
0001
,
0010
1000
1000
0000
0001
0000
10M0
0000
,
0010
0000
M001
0000
01M0
0000
1000
1000
,
0000
0000
0000
0010
0000
0000
0001
0000
0000
0100
0000
0000
0010
0000
1000
0000
0001
0000
1000
0000
0000
0000
0000
0000
,
0010
0100
0010
0000
1000
0010
0001
0000
,
0001
2000
3010
0100
,
0001
0000
1000
0100
0010
0001
1001
0000
,
1001
1001
0000
1000
,
0100
0000
0001
0000
0010
0000
1000
0100
,
0001
0100
1000
0010
0001
0010
1000
0000
,
0000
0100
0000
0010
,
0000
0001
0000
0000
,
0000
0000
1000
0000
0100
0000
0000
0010
,
0000
0001
0010
0100
,
1000
0000
0001
0000
0010
0000
0100
0000
0000
1000
0000
0000
0001
0000
0000
0100
0000
0000
0010
0000
0000
1000
0000
0000
,
0000
0000
0010
0000
0000
0010
0000
0000
,
0010
0000
0100
0000
0001
0000
0010
0000
0000
0000
0000
0000
0000
0000
0000
0000
0000
0000
0000
0000
0000
0100
0000
0000
,
0000
0000
0100
0000
0000
0100
0000
0000
,
1000
0000
0001
0000
1000
0000
0001
0000
1000
0000
0001
0000
1000
0000
0001
0000
1000
0000
0001
0000
0000
1000
0000
0000
,
1000
0000
0110
0000
0000
0001
0100
0000
,
1000
0010
0001
0010
0000
1000
1000
0000
,
0100
0000
0010
0000
0000
0001
0000
0000
,
0010
0000
1000
0000
0100
0000
0001
0001
,
0000
0000
0001
0000
0000
0001
0000
0000
,
1001
0100
0010
0001
0100
0010
1000
0000
,
0001
0010
0100
1000
0001
0100
0010
1000
,
0001
1000
0001
1000
0001
1000
0001
0000
0000
0001
0000
0000
,
0000
0000
1000
0000
0000
0100
0000
0000
,
0010
0000
0001
0001
0000
0000
0001
0000
,
0100
0000
0000
0010
0000
0000
1000
0000
,
0000
0000
1000
0100
0010
0001
1000
0100
,
0020
0000
0000
0000
0031
0010
0100
0000
1000
0000
0000
0000
0000
0000
0000
0000
,
0000
0000
0000
0000
,
0000
0000
0000
0000
0000
0000
0000
0000
0000
0000
0000
0000
0001
0010
0100
0000
,
1000
0002
0000
0000
0003
0020
0000
0000
,
0030
0200
0000
0000
0300
2000
0000
0000
,
3000
0002
0000
0000
0003
2000
0000
0000
,
3000
0000
0000
0000
0000
0000
0000
0000
0001
0000
0000
0000
0000
0000
0000
0000
0010
0000
0000
0100
0000
0000
1000
0000
0000
0010
0000
0000
0100
0000
0000
0001
,
0000
0000
0000
0000
0000
0000
1000
0000
0000
0000
0000
0000
0000
0000
0000
0001
0000
0000
0000
0000
0000
0000
0000
0000
1000
0000
0000
0000
0000
0000
0000
0000
0000
0000
0000
0000
0000
0000
0000
0000
0100
0000
0000
0000
0000
0000
0000
0000
0010
0000
0000
0000
0000
0000
0000
0000
0000
0000
0000
0000
0001
0000
0000
0000
0000
0000
0000
0000
0000
0000
0000
0000
1000
0000
0000
0000
0000
0000
0000
0000
0000
0000
0000
0000
0000
0000
0000
0000
0000
0000
0000
0000
0000
0000
0000
0000
,
0001
1000
0100
1000
,
0100
0010
0000
0010
,
0000
0010
0000
0001
,
0010
0100
0000
1000
,
0000
1000
0000
0010
,
0000
0001
0000
0100
,
1000
0100
0010
0001
,
1000
0010
0100
0010
,
0100
0001
0000
0010
,
0000
0100
0000
1000
,
0010
0100
0001
1000
,
0000
0100
0000
0010
,
0010
0001
0000
0001
,
0000
1000
0010
0001
,
0010
1000
0000
1000
,
0000
0001
0000
0001
,
0000
1000
0000
0100
,
0000
0010
0000
0001
,
0000
0000
0000
1000
0000
0000
0000
0000
0000
0001
0000
0010
,
0000
0100
0000
1000
0000
0000
0000
0000
0000
0001
0000
0000
,
0000
1000
0000
0010
,
0000
0100
0000
0001
,
0000
0000
1000
0100
1000
0000
0100
0000
,
0000
0000
0001
0100
0001
0000
0100
0000
,
0000
1000
0100
0010
,
0001
0000
1000
0001
1000
0000
0001
0000
,
0000
1000
0010
0100
,
0001
1000
0001
1000
0001
0000
1000
0000
,
0000
0001
0010
0100
,
1000
0000
0010
0100
0010
0000
0100
0000
,
0000
0001
0100
0010
,
1000
0100
0010
0100
0010
0000
0100
0000
,
0000
0000
0001
0010
0001
0000
0100
0000
,
0000
0000
1000
0010
1000
0000
0100
0000
,
0000
0000
0001
0100
0001
0000
0010
0000
,
0000
0000
1000
0100
1000
0000
0010
0000
,
0001
1000
0000
0100
,
0000
0010
0000
0001
,
0000
1000
0000
0010
,
0000
0100
0000
0001
,
0000
0000
0000
0000
,
0000
0000
0000
0000
0000
0000
0000
0000
0000
0000
0000
0000
0000
0000
0000
0000
2002
0000
0000
0000
0000
0000
3003
0020
0000
0000
0000
0000
0000
0000
0000
0000
0000
0000
0000
0000
0000
0000
0000
0000
0000
0000
0000
0000
0000
0000
0000
0000
0000
0000
0000
0000
0000
0000
0000
0000
0000
0000
0000
0000
0000
0000
0000
0000
,
0000
0000
0000
0000
,
0000
0000
0000
0000
,
0000
0000
0000
0000
,
0000
0000
0000
0000
,
0000
0000
0000
0000
,
0000
0000
0000
0000
,
0000
0000
0000
0000
,
0000
0000
0000
0000
,
0000
0000
0000
0000
,
0000
0000
0000
0000
,
0000
0000
0000
0000
,
0000
0000
0000
0000
,
0000
0000
0000
0000
,
0000
0000
0000
0000
,
0000
0000
0000
0000
,
0000
0000
0000
0000
,
0000
0000
0000
0000
,
0000
0000
0000
0000
,
0000
0000
0000
0000
,
0000
0000
0000
0000
,
0000
0000
0000
0000
,
0000
0000
0000
0000
,
0000
0000
0000
0000
,
0000
0000
0000
0000
,
0000
0000
0000
0000
,
0000
0000
0000
0000
,
0000
0000
0000
0000
,
0000
0000
0000
0000
,
0000
0000
0000
0000
,
0000
0000
0000
0000
,
0000
0000
0000
0000
,
0000
0000
0000
0000
,
0000
0000
0000
0000
,
0000
0000
0000
0000
,
0000
0000
0000
0000
,
0000
0000
0000
0000
,
0000
0000
0000
0000
,
0000
0000
0000
0000
,
0000
0000
0000
0000
,
0000
0000
0000
0000
,
0000
0000
0000
0000
,
0000
0000
0000
0000
,
0000
0000
0000
0000
,
0030
0000
0000
0000
;

//---------------dance-single - ----------------
#NOTEDATA:;
#CHARTNAME:;
#STEPSTYPE:dance-single;
#DESCRIPTION:;
#CHARTSTYLE:;
#DIFFICULTY:Hard;
#METER:17;
#RADARVALUES:0.920799,2.186627,0.775667,0.631517,0.652110,939.000000,826.000000,113.000000,92.000000,88.000000,0.000000,3.000000,0.000000,258.000000,0.920799,2.186627,0.775667,0.631517,0.652110,939.000000,826.000000,113.000000,92.000000,88.000000,0.000000,3.000000,0.000000,258.000000;
#CREDIT:;
#OFFSET:-0.390000;
#BPMS:0.000000=560.000000
,3.500000=280.000000
,158.000000=1120.000000
,176.000000=280.000000
,194.000000=560.000000
,220.000000=280.000000
,228.000000=140.000000
,230.000000=560.000000
,244.000000=280.000000
,268.000000=560.000000
,411.500000=280.000000
,423.000000=140.000000
,447.000000=280.000000
,461.000000=560.000000
,461.500000=280.000000
,462.000000=140.000000
,463.000000=280.000000
,472.000000=140.000000
,475.000000=280.000000
,664.000000=560.000000
,668.000000=280.000000
,704.000000=140.000000
,718.000000=280.000000
,722.000000=140.000000
,724.000000=280.000000
,726.000000=560.000000
,738.000000=280.000000
,739.000000=140.000000
,740.000000=280.000000
,757.000000=1120.000000
,765.000000=280.000000
,771.000000=1120.000000
,779.000000=140.000000
,780.000000=280.000000
,902.000000=70.000000
,924.000000=280.000000
,932.000000=560.000000
,1096.000000=70.000000
,1107.500000=280.000000
;
#STOPS:11.750000=0.050000
,19.875000=0.225000
,28.000000=0.150000
,36.125000=0.150000
,44.250000=0.250000
,52.375000=0.075000
,60.500000=0.075000
,68.625000=0.075000
,76.750000=0.150000
,84.875000=0.150000
,93.000000=0.275000
,101.125000=0.050000
,109.250000=0.200000
,117.375000=0.200000
,125.500000=0.250000
,133.625000=0.075000
,141.750000=0.075000
,149.875000=0.075000
,234.000000=0.300000
,290.000000=0.100000
,298.500000=0.300000
,307.000000=0.300000
,315.500000=0.300000
,324.000000=0.225000
,462.750000=0.050000
,567.000000=0.850000
,579.000000=0.400000
,589.000000=0.400000
,599.000000=0.200000
,608.000000=0.200000
,617.000000=0.200000
,627.000000=0.400000
,636.000000=0.400000
,647.875000=1.700000
,664.000000=0.105000
,665.000000=0.105000
,666.000000=0.105000
,667.000000=0.105000
,717.937500=1.700000
,757.000000=0.055000
,758.000000=0.055000
,759.000000=0.055000
,760.000000=0.055000
,761.000000=0.055000
,762.000000=0.055000
,763.000000=0.055000
,764.000000=0.055000
,902.000000=6.625000
,1107.500000=0.100000
;
#DELAYS:;
#WARPS:3.750000=8.000000
,11.875000=8.000000
,20.000000=8.000000
,28.125000=8.000000
,36.250000=8.000000
,44.375000=8.000000
,52.500000=8.000000
,60.625000=8.000000
,68.750000=8.000000
,76.875000=8.000000
,85.000000=8.000000
,93.125000=8.000000
,101.250000=8.000000
,109.375000=8.000000
,117.500000=8.000000
,125.625000=8.000000
,133.750000=8.000000
,141.875000=8.000000
,150.000000=8.000000
,165.500000=10.500000
,184.000000=10.000000
,210.000000=10.000000
,235.000000=9.000000
,260.000000=8.000000
,282.000000=8.000000
,290.500000=8.000000
,299.000000=8.000000
,307.500000=8.000000
,316.000000=8.000000
,324.500000=8.000000
,336.500000=8.500000
,346.000000=8.000000
,355.000000=8.000000
,364.000000=8.000000
,373.000000=8.000000
,382.000000=8.000000
,391.000000=8.000000
,400.000000=8.000000
,414.250000=8.750000
,479.000000=8.000000
,567.125000=7.875000
,579.125000=7.875000
,589.125000=7.875000
,599.125000=7.875000
,608.125000=7.875000
,617.125000=7.875000
,627.125000=7.875000
,636.125000=7.875000
,838.000000=8.000000
,847.000000=8.000000
,860.000000=8.000000
,869.000000=8.000000
,882.000000=8.000000
,891.000000=8.000000
,902.500000=7.500000
,916.750000=7.250000
,1099.500000=8.000000
,1107.625000=8.000000
;
#TIMESIGNATURES:0.000000=4=4
;
#TICKCOUNTS:0.000000=4
;
#COMBOS:0.000000=1
;
#SPEEDS:0.000000=1.000000=0.000000=0
;
#SCROLLS:0.000000=2.000000
,176.000000=1.000000
,194.000000=0.500000
,220.000000=1.000000
,228.000000=2.000000
,244.000000=1.000000
;
#FAKES:;
#LABELS:0.000000=Song Start
;
#DISPLAYBPM:*;
#NOTES:
// measure 0
MMMM
0000
0000
0000
,  // measure 1
0000
0000
0000
0000
,  // measure 2
0000
0000
0000
0000
0000
0000
0000
0000
0000
0000
0000
0000
0000
0000
0000
0MMM
,  // measure 3
0000
M00M
0000
M00M
0000
M00M
0000
M00M
0000
0MMM
0000
0000
0000
0000
0000
0000
,  // measure 4
0000
0000
0000
0000
0000
0000
0000
0000
0000
0000
0000
0000
0000
0000
0000
0000
0000
0000
0000
0000
0000
0000
0000
0000
0000
0000
0000
0000
0000
0000
0000
0MM0
,  // measure 5
0000
0000
0000
M00M
0000
0000
0000
M00M
0000
0000
0000
M00M
0000
0000
0000
M00M
0000
0000
0000
0MM0
0000
0000
0000
0000
0000
0000
0000
0000
0000
0000
0000
0000
,  // measure 6
0000
0000
0000
0000
,  // measure 7
0MMM
M00M
M00M
0MMM
000M
000M
0000
0000
,  // measure 8
0000
0000
0000
0000
,  // measure 9
0000
0MMM
0000
0000
0000
M00M
0000
0000
0000
M00M
0000
0000
0000
0MMM
0000
0000
0000
000M
0000
0000
0000
000M
0000
0000
0000
0000
0000
0000
0000
0000
0000
0000
,  // measure 10
0000
0000
0000
0000
,  // measure 11
0000
MMMM
0000
000M
0000
MMMM
0000
000M
0000
000M
0000
MMMM
0000
0000
0000
0000
,  // measure 12
0000
0000
0000
0000
,  // measure 13
0000
0000
0000
000M
0000
0000
0000
000M
0000
0000
0000
000M
0000
0000
0000
000M
0000
0000
0000
000M
0000
0000
0000
MMMM
0000
0000
0000
0000
0000
0000
0000
0000
,  // measure 14
0000
0000
0000
0000
,  // measure 15
0000
MMMM
000M
000M
MM0M
M00M
MMMM
0000
,  // measure 16
0000
0000
0000
0000
,  // measure 17
0000
0000
0000
0000
0000
0MM0
0000
0000
0000
M00M
0000
0000
0000
MMMM
0000
0000
0000
M00M
0000
0000
0000
M00M
0000
0000
0000
M00M
0000
0000
0000
0000
0000
0000
,  // measure 18
0000
0000
0000
0000
,  // measure 19
0000
0000
0000
M00M
0000
M0MM
0000
M0MM
0000
MM0M
0000
MM0M
0000
M00M
0000
0000
,  // measure 20
0000
0000
0000
0000
,  // measure 21
0000
0000
0000
0000
0000
0000
0000
MMMM
0000
0000
0000
000M
0000
0000
0000
000M
0000
0000
0000
MM0M
0000
0000
0000
M00M
0000
0000
0000
MMMM
0000
0000
0000
0000
,  // measure 22
0000
0000
0000
0000
,  // measure 23
0000
0000
MMMM
000M
MMMM
000M
000M
MMMM
,  // measure 24
0000
0000
0000
0000
,  // measure 25
0000
0000
0000
0000
0000
0000
0000
0000
0000
0MMM
0000
0000
0000
M00M
0000
0000
0000
M00M
0000
0000
0000
0MMM
0000
0000
0000
M00M
0000
0000
0000
M00M
0000
0000
,  // measure 26
0000
0000
0000
0000
,  // measure 27
0000
0000
0000
0000
0000
000M
0000
000M
0000
000M
0000
000M
0000
000M
0000
MMMM
,  // measure 28
0000
0000
0000
0000
,  // measure 29
0000
0000
0000
0000
0000
0000
0000
0000
0000
0000
0000
MMMM
0000
0000
0000
000M
0000
0000
0000
MMMM
0000
0000
0000
000M
0000
0000
0000
000M
0000
0000
0000
MMMM
,  // measure 30
0000
0000
0000
0000
,  // measure 31
0000
0000
0000
0MM0
M00M
MMMM
M00M
M00M
,  // measure 32
M00M
0000
0000
0000
,  // measure 33
0000
0000
0000
0000
0000
0000
0000
0000
0000
0000
0000
0000
0000
MMMM
0000
0000
0000
000M
0000
0000
0000
MMMM
0000
0000
0000
000M
0000
0000
0000
000M
0000
0000
,  // measure 34
0000
000M
0000
0000
0000
0000
0000
0000
0000
0000
0000
0000
0000
0000
0000
0000
0000
0000
0000
0000
0000
0000
0000
0000
0000
0000
0000
0000
0000
0000
0000
0000
,  // measure 35
0000
0000
0000
0000
0000
0000
0000
MMMM
0000
0000
0000
0000
0000
0000
0000
0000
,  // measure 36
0000
0000
0000
0000
,  // measure 37
0000
0000
0000
0000
0000
0000
0000
0000
0000
0000
0000
0000
0000
0000
0000
MM00
0000
0000
0000
0000
0000
0000
0000
00MM
0000
0000
0000
0000
0000
0000
0000
0000
,  // measure 38
0000
0000
0000
0000
,  // measure 39
0000
0000
M000
0M00
,  // measure 40
00M0
000M
M000
0M00
,  // measure 41
00M0
0000
0000
0000
000M
0000
M000
0M00
M000
0000
M000
00M0
M000
0000
M000
000M
,  // measure 42
M000
0000
0000
0000
,  // measure 43
0000
0000
0000
0000
,  // measure 44
1000
0100
1000
0000
1000
0010
1000
0000
,  // measure 45
1000
0001
1000
0000
0110
0000
0110
0000
,  // measure 46
0001
0010
1000
0100
,  // measure 47
0010
0001
0000
0000
,  // measure 48
0000
0000
100M
01M0
,  // measure 49
M010
0M01
10M0
001M
,  // measure 50
M100
00M1
1M00
010M
,  // measure 51
0M10
M001
10M0
001M
,  // measure 52
01M0
M001
M00M
M00M
,  // measure 53
0MM0
0MM0
00MM
00MM
,  // measure 54
MM00
MM00
0000
0000
,  // measure 55
1001
1001
0110
0110
,  // measure 56
0011
0011
1100
1100
,  // measure 57
1000
0100
0010
0001
0010
0100
1000
0000
1001
0000
0000
0000
0000
0000
0000
0000
,  // measure 58
0110
0000
0000
0000
2002
3003
M00M
0000
,  // measure 59
0000
0000
0000
0000
,  // measure 60
0000
0000
0000
0000
,  // measure 61
1001
0000
0100
0010
0100
0001
0100
0010
,  // measure 62
0100
1000
0100
0010
0100
0001
0100
0000
,  // measure 63
1001
0000
0010
0100
0010
1000
0010
0100
,  // measure 64
0010
0001
0010
0100
0010
1000
0010
0000
,  // measure 65
M000
0000
0000
0000
,  // measure 66
0000
0000
0000
0000
,  // measure 67
1000
0000
0100
0000
,  // measure 68
0010
0000
0001
0000
0100
0010
0100
0010
,  // measure 69
0100
0000
1000
0000
0100
0000
0010
0000
0001
0000
1000
0000
,  // measure 70
0001
0000
1000
0000
0001
0000
M00M
0000
0000
0000
0000
0000
,  // measure 71
0000
0000
0000
0000
,  // measure 72
0000
0000
1001
0000
,  // measure 73
0000
0000
0000
0000
,  // measure 74
0000
0000
0000
0000
0000
1001
0000
0000
,  // measure 75
0000
0000
0000
0000
,  // measure 76
0000
0000
0000
1001
,  // measure 77
0000
0000
0000
0000
,  // measure 78
0000
0000
0000
0000
0000
0000
0000
1001
,  // measure 79
0000
0000
0000
0000
,  // measure 80
0000
0000
0000
0000
,  // measure 81
1001
0000
0000
0000
,  // measure 82
0000
0000
0000
0000
,  // measure 83
0000
0200
0300
0000
0000
0000
0000
0000
,  // measure 84
0000
M000
0000
00M0
,  // measure 85
0000
0000
0000
0000
,  // measure 86
0000
0000
1000
0000
0000
0M00
0000
0000
,  // measure 87
0000
000M
0000
0000
0000
0000
0000
0000
,  // measure 88
0000
0000
0000
0000
0100
0000
0000
00M0
,  // measure 89
0000
0000
0000
M000
0000
0000
0000
0000
,  // measure 90
0000
0000
0000
0010
,  // measure 91
0000
000M
0000
0000
0000
0M00
0000
0000
,  // measure 92
0000
0000
0000
0000
,  // measure 93
0001
0000
0000
M000
0000
0000
0000
00M0
,  // measure 94
0000
0000
0000
0000
,  // measure 95
0000
0000
1000
0000
0000
0M00
0000
0000
,  // measure 96
0000
000M
0000
0000
0000
0000
0000
0000
,  // measure 97
0000
0000
0000
0000
0100
0000
0000
00M0
,  // measure 98
0000
0000
0000
M000
0000
0000
0000
0000
,  // measure 99
0000
0000
0000
0010
,  // measure 100
0000
000M
0000
0000
0000
0M00
0000
0000
,  // measure 101
0000
0000
0000
0000
,  // measure 102
0001
0000
0000
0000
0000
0000
0000
1000
,  // measure 103
0000
0000
0000
0000
0000
0000
0000
0000
0000
0001
0000
0000
0000
0000
0000
0000
,  // measure 104
0000
0000
0000
0000
,  // measure 105
0000
0000
0000
0000
0000
0000
1000
0100
,  // measure 106
0010
0000
0001
0000
0100
0000
0010
1000
0001
0000
0001
0000
1000
0000
0100
0000
,  // measure 107
0001
0000
0100
1000
0010
0000
0001
0010
1000
0000
0100
0010
0001
0000
1000
0000
,  // measure 108
0001
0000
1000
0001
0001
0000
0001
0000
0010
0000
0100
0100
1000
0000
1000
0000
,  // measure 109
0010
0100
0010
0100
0010
0000
0010
0000
0100
0000
0100
0000
0001
0000
0010
0000
,  // measure 110
1000
0000
0000
0100
0000
0000
0001
0000
0000
1000
0100
0010
0001
0000
0000
1000
0000
0000
0001
0000
0000
0010
0000
0000
,  // measure 111
0100
0000
1000
0000
0004
0000
0000
0003
4000
0000
0000
3000
2002
0000
3003
0000
,  // measure 112
0100
0000
0000
0000
2200
3300
2200
3300
0022
0033
0022
0033
2020
3030
1000
0000
,  // measure 113
0202
0303
0001
0000
0000
0000
1000
0000
0220
0330
0000
0000
2200
0000
0000
0000
,  // measure 114
3300
0022
0000
0033
2020
0000
3030
0202
,  // measure 115
0000
0303
2002
0000
0000
3003
1001
0000
,  // measure 116
1000
0000
1000
0000
2020
0000
3030
0202
,  // measure 117
0000
0303
2200
0000
3300
0022
0000
0033
,  // measure 118
0220
0000
0000
0300
0000
0000
0400
0000
0000
0000
0000
0000
0000
0000
0000
0330
0000
0000
1000
0000
0100
0000
1000
0000
,  // measure 119
0100
0010
0100
0010
0001
0010
0001
1000
0001
M00M
0000
0000
,  // measure 120
0000
0000
0000
0000
,  // measure 121
0000
0000
0000
1001
,  // measure 122
0010
0100
0000
0000
0000
0000
0000
0000
2000
0000
0000
0000
3200
0000
0000
0000
0302
0000
0000
0000
0023
0000
0000
0000
2030
0000
0000
0000
0000
0000
0000
0000
,  // measure 123
3010
0000
0000
0010
0000
0000
0000
0000
0000
0100
0000
0000
0100
0000
0000
0000
0000
0000
1000
0000
0010
0000
1000
0000
,  // measure 124
0010
0000
0100
0000
0010
0000
0110
0000
0000
0010
0000
0000
0001
0000
0000
0000
0000
0000
0110
0000
0000
0100
0000
0000
,  // measure 125
1000
1010
1100
0101
,  // measure 126
0011
0000
0000
0000
0000
0000
1000
0100
0000
0000
0000
0000
0010
0000
0000
0001
0000
0000
1000
0000
0000
0010
0000
0000
,  // measure 127
0100
0000
0000
0000
0000
0000
0020
0000
0000
0030
0000
0000
0020
0000
0000
0000
0000
0000
1030
0000
0100
0000
1000
0000
,  // measure 128
0100
0000
0010
0000
0100
0000
0010
0000
0000
0010
0000
0000
0010
0000
0000
0010
0000
0000
0000
0000
0000
1001
0000
0000
,  // measure 129
1001
0000
0000
0000
0110
0000
0000
0000
0110
0000
0000
0000
1000
0001
1000
0001
,  // measure 130
1000
0000
0001
0010
1000
0100
0000
0001
,  // measure 131
0010
0000
0100
0000
1000
0000
0001
0000
1000
0000
0000
0000
0001
0010
0001
0000
,  // measure 132
1000
0000
0000
0001
0000
0000
1000
0000
0000
0000
0000
0000
0010
0000
0000
1000
0000
0000
0010
0000
0000
1000
0000
0000
0010
0000
0000
0000
0000
0000
0000
0000
0000
0000
0000
0000
1000
0000
0000
0000
0010
0000
0000
0000
1000
0000
0000
0000
,  // measure 133
0010
0100
0010
0110
0000
0000
0110
0000
0000
1001
0000
0000
,  // measure 134
0100
0000
0000
0000
0000
0000
0000
0000
0000
0000
0010
0000
0000
0000
0000
0000
0000
0000
0000
0000
0000
0000
0000
0000
0000
0000
0000
0000
0000
0000
0000
0000
0000
0000
0000
0000
0000
0000
0000
0000
0000
0000
0000
0000
0000
0000
0000
0000
1000
0000
0000
0000
0000
0000
0000
0000
0000
0000
0000
0000
0000
0000
0000
0000
0000
0000
0000
0000
0000
0000
0000
0000
0100
0000
0000
0000
0000
0000
0000
0000
0000
0000
0000
0000
0000
0000
0000
0000
0000
0000
0000
0000
0000
0000
0000
0000
0001
0000
0000
0000
0000
0000
0000
0000
0000
0000
0000
0000
0000
0000
0000
0000
0000
0000
0000
0000
0000
0000
0000
0000
0010
0000
0000
0000
0000
0000
0000
0000
0000
0000
0000
0000
0000
0000
0000
0000
0000
0000
0000
0000
0000
0000
0000
0000
2000
0000
0000
0000
0000
0000
0000
0000
0000
0000
0000
0000
0000
0000
0000
0000
0000
0000
0000
0000
0000
0000
0000
0000
0000
0000
0000
0000
0000
0000
0000
0000
0000
0000
0000
0000
0000
0000
0000
0000
0000
0000
0000
0000
0000
0000
0000
0000
,  // measure 135
3000
0100
0100
0010
0010
0000
0001
0010
,  // measure 136
0000
0100
1000
0010
0100
0001
2200
0000
,  // measure 137
3300
0000
0022
0000
0033
0000
0220
0330
,  // measure 138
1000
0000
0100
0000
0010
0000
0001
0000
1000
0000
0010
0000
0100
0001
0100
0000
,  // measure 139
0001
0000
0000
1000
0000
0000
0001
0000
0010
0000
0001
0000
0010
0000
0000
0100
0000
0000
1000
0000
0000
0010
0000
0000
,  // measure 140
0100
0000
0001
0000
1000
0001
1000
0000
0001
1000
0001
0000
0000
0000
0110
0000
,  // measure 141
0110
0000
1010
0000
0101
0000
0000
0001
,  // measure 142
0000
0010
0000
0100
0000
1000
0000
0000
,  // measure 143
0000
0000
0000
2000
,  // measure 144
3200
0320
0032
0003
2000
3000
0000
0001
,  // measure 145
0000
0010
0000
0000
0000
0000
0000
0000
,  // measure 146
0000
0000
0000
2000
,  // measure 147
3200
0000
0320
0030
0000
0000
0001
0000
0000
0000
0010
0000
0100
0000
0000
0000
,  // measure 148
0000
0000
0000
0000
,  // measure 149
0000
0000
0000
0000
2000
0000
0000
0000
3200
0000
0320
0030
0000
0000
0001
0000
,  // measure 150
0000
0000
0000
0000
,  // measure 151
0000
0000
0000
0000
0000
0000
2000
3000
,  // measure 152
0000
0001
0000
0000
0000
0000
0000
0000
,  // measure 153
0000
0000
0000
0000
,  // measure 154
2000
0000
3200
0300
0000
0000
0001
0000
0000
0000
0000
0000
0000
0000
0000
0000
,  // measure 155
0000
0000
0000
0000
,  // measure 156
0000
0000
2000
0000
3200
0300
0000
0001
,  // measure 157
0010
0100
0000
0000
0000
0000
0000
0000
,  // measure 158
0000
0000
0000
0000
0000
0000
2000
3000
,  // measure 159
0000
0001
0010
0100
1000
0000
0000
0000
,  // measure 160
0000
0000
0000
0000
,  // measure 161
2002
3003
0220
0330
2002
0000
3003
0000
,  // measure 162
1001
0110
1001
0110
,  // measure 163
1001
0000
0000
0000
0000
0000
0110
0000
0000
1000
0100
0010
,  // measure 164
0001
0000
0010
1000
0000
0100
0001
0000
0100
1000
0000
0010
,  // measure 165
0001
0000
0010
1000
0000
0100
0001
0000
0100
1000
0000
0000
,  // measure 166
1001
1001
0110
0110
,  // measure 167
1001
0000
1000
0100
0010
0001
0010
0100
,  // measure 168
1000
1000
1000
0000
0110
0010
0100
0000
,  // measure 169
0011
0000
0000
0000
0000
0000
1000
0000
0000
1010
0000
0000
0000
0000
0000
0001
0000
0000
1000
0000
0010
0000
1000
0000
,  // measure 170
0010
0000
0100
0000
0010
0000
0100
0000
0000
0110
0000
0000
0000
0000
0000
1001
0000
0000
1100
0000
0000
0000
0000
0000
,  // measure 171
0110
0000
0110
0000
0001
1001
0000
1000
,  // measure 172
2002
3003
0220
0330
,  // measure 173
1001
0000
0000
0000
0000
0000
0110
0000
0000
0110
0000
0000
0000
0000
0000
0001
0000
0000
1000
0000
0001
0000
1000
0000
,  // measure 174
0001
0000
0100
0000
0001
0000
0100
0000
0000
1010
0000
0000
0000
0000
0000
1000
0000
0000
0100
1000
0100
1000
0000
0000
,  // measure 175
1000
0000
1000
0000
1000
1000
0000
0001
,  // measure 176
0001
0000
1000
0100
0010
0000
0001
0000
0001
0000
0010
0000
0100
0000
1000
0000
,  // measure 177
0100
0000
0010
0001
1000
0000
1000
0000
0001
0000
0010
0000
1000
0000
0010
0001
,  // measure 178
0100
0000
1000
0100
0001
0000
0010
0100
1000
0000
0001
0000
1000
0000
1000
0010
,  // measure 179
0100
0100
0001
0001
1010
0000
0011
0000
,  // measure 180
1100
0000
0000
0000
0101
0000
0000
0000
1000
0000
0100
0100
0010
0000
0001
0000
,  // measure 181
1001
0110
1000
0001
,  // measure 182
0010
0100
0010
0100
0010
0000
0010
0000
,  // measure 183
0000
0100
1000
0010
,  // measure 184
0100
0000
0000
0000
0001
0000
0000
0000
1000
0000
0000
0000
0100
0010
0100
0000
,  // measure 185
0001
0010
0100
0000
0100
0000
1000
0000
,  // measure 186
1000
0000
1001
0000
0110
0000
1000
0001
,  // measure 187
0100
0010
1001
0000
0110
0000
1001
0000
,  // measure 188
0000
1000
1000
1000
,  // measure 189
1000
1000
0100
0010
,  // measure 190
0001
1000
0010
0100
,  // measure 191
0001
0000
1000
0001
0000
0000
1000
0001
,  // measure 192
0000
0000
1000
0010
0100
0001
0020
0000
,  // measure 193
0000
0000
0000
0000
,  // measure 194
0000
0000
0000
0130
,  // measure 195
1001
0000
0000
0100
0000
0000
0010
0000
,  // measure 196
0001
0000
0000
0010
0000
0000
0100
0000
0000
1000
0000
0000
0001
0000
1000
0000
0001
0000
1000
0000
0000
0001
0000
0000
,  // measure 197
0010
0010
0010
0010
0000
0000
0110
0000
,  // measure 198
0000
0000
1001
0000
0000
0000
0000
0000
1000
0001
1000
0000
0000
0000
0020
0000
,  // measure 199
0030
0000
0000
1100
0000
0000
0011
0000
,  // measure 200
0000
1010
0000
0000
1000
0100
0010
0001
,  // measure 201
1000
0010
0100
0001
0001
0000
0100
0000
,  // measure 202
0000
0010
0010
0000
1000
0010
0100
1000
,  // measure 203
0000
0010
0001
0000
1000
0000
0100
0000
,  // measure 204
0000
0100
0000
0000
0010
0000
0010
0000
,  // measure 205
0010
0000
0010
0001
0000
0000
0001
0000
,  // measure 206
0000
0001
1000
0000
1001
0000
0000
0000
,  // measure 207
0000
0000
0000
0000
1000
0100
0010
0001
,  // measure 208
1000
0000
0000
0010
0000
0000
0100
0000
0000
0001
0000
0000
1000
0000
0001
0000
1000
0000
0001
0000
1000
0000
0001
0000
,  // measure 209
1000
1000
0000
M00M
,  // measure 210
0000
0000
0000
0000
,  // measure 211
0000
0000
0000
0000
,  // measure 212
0000
0000
0000
0000
,  // measure 213
0000
0000
0000
1001
,  // measure 214
0000
0110
0000
0000
1001
0000
0010
0010
,  // measure 215
0000
M000
0000
0000
,  // measure 216
0000
0000
0000
0000
,  // measure 217
0000
0000
0000
0000
,  // measure 218
0000
0000
0000
0000
,  // measure 219
0000
0000
1000
0000
0100
0000
0000
0100
,  // measure 220
0000
0000
0000
0100
0000
0000
0000
0000
0000
M000
0M00
00M0
,  // measure 221
000M
00M0
0M00
M000
0000
0000
0000
0000
0000
0000
0000
0000
,  // measure 222
0000
0000
0000
0000
,  // measure 223
0000
0000
0000
0000
,  // measure 224
0000
0000
0000
0000
0000
0000
0000
0000
0000
1000
0100
0010
,  // measure 225
0001
0000
0000
0000
0000
0000
0000
0000
0000
0000
0000
0000
0000
0000
0000
0000
0010
0000
0000
0000
0000
0000
0000
0000
0000
0000
0000
0000
0000
0000
0000
0000
0100
0000
0000
0000
0000
0000
0000
0000
0000
0000
0000
0000
0000
0000
0000
0000
1000
0000
0000
0000
0000
0000
0000
0000
0000
0000
0000
0000
0000
0000
0000
0000
0100
0000
0000
0000
0000
0000
0000
0000
0000
0000
0000
0000
0000
0000
0000
0000
1000
0000
0000
0000
0000
0000
0000
0000
0000
0000
0000
0000
0000
0000
0000
0000
0020
0000
0000
0000
0000
0000
0000
0000
0000
0000
0000
0000
0030
0000
0000
0000
0000
0000
0000
0000
0000
0000
0000
0000
0001
0000
0000
0000
0000
0000
0010
0000
0000
0000
0000
0000
0100
0000
0000
0000
0000
0000
0000
0000
0000
0000
0000
0000
0000
0000
0000
0000
0000
0000
0000
0000
0000
0000
0000
0000
0000
0000
0000
0000
0000
0000
0000
0000
0000
0000
0000
0000
0000
0000
0000
0000
0000
0000
0000
0000
0000
0000
0000
0000
0000
0000
0000
0000
0000
0000
0000
0000
0000
0000
0000
0000
,  // measure 226
0000
0000
0000
0000
,  // measure 227
0000
0000
0000
0000
0000
0000
0000
0000
0000
0000
0000
0000
0000
0000
0000
0000
0001
0010
0100
0000
1000
0000
0002
0000
0000
0000
0000
0000
0003
0000
0020
0000
,  // measure 228
0000
0000
0030
0200
0000
0000
0300
2000
0000
0000
3000
0020
0000
0000
0030
0200
,  // measure 229
0000
0000
0300
0001
0000
0000
0000
0000
0000
0000
0000
0000
0000
0000
0000
0000
,  // measure 230
0000
0000
0000
0000
,  // measure 231
1001
0000
0000
0000
0000
0000
1001
0000
0000
0000
1000
0000
0001
0000
0000
0010
0000
0000
0100
0000
0000
1000
0000
0000
,  // measure 232
0001
0000
0001
0100
0010
0000
1000
0000
,  // measure 233
0001
0010
0100
1000
,  // measure 234
0001
0100
0010
1000
,  // measure 235
0001
0010
1000
0010
,  // measure 236
0001
0100
1000
0100
,  // measure 237
0001
0010
0001
0010
,  // measure 238
0100
1000
0100
1000
,  // measure 239
0001
0100
0001
0100
,  // measure 240
0010
1000
0010
1000
,  // measure 241
0001
0001
1000
0100
,  // measure 242
0001
0001
1000
0100
,  // measure 243
0001
0100
0010
1000
,  // measure 244
0010
0010
0100
0100
,  // measure 245
1000
0100
0010
0001
,  // measure 246
1000
0010
0100
0001
,  // measure 247
1000
0100
1000
0000
0001
0100
0001
0000
,  // measure 248
1000
0010
1000
0000
0001
0010
0001
0000
,  // measure 249
1000
0100
1000
0100
,  // measure 250
0010
0001
0010
0001
,  // measure 251
1000
0000
0000
0001
0000
0000
1000
0000
0100
0000
0010
0000
,  // measure 252
0001
0000
1000
0000
,  // measure 253
1000
0100
0010
0001
,  // measure 254
1000
0010
0100
0001
,  // measure 255
1000
0001
1000
0001
1000
0000
0000
0000
,  // measure 256
0010
0100
0010
0100
0010
0000
0000
0000
,  // measure 257
1000
0100
0010
0001
,  // measure 258
1000
0010
1000
0010
1000
0000
0001
0000
,  // measure 259
1000
0000
0010
0000
0100
0000
0001
0100
,  // measure 260
0001
0100
0001
0100
0001
0000
1000
0000
,  // measure 261
0001
0010
0100
1000
,  // measure 262
0001
0010
0001
0010
0001
0000
1000
0000
,  // measure 263
0001
0000
0100
0000
0010
0000
1000
0100
,  // measure 264
1000
0100
1000
0100
1000
0000
0001
0000
,  // measure 265
1000
0100
1000
0000
0100
0000
0100
0000
,  // measure 266
0001
0010
0001
0000
0010
0000
0010
0000
,  // measure 267
1000
0010
1000
0000
0010
0000
0010
0000
,  // measure 268
0001
0100
0001
0000
0100
0010
1000
0100
,  // measure 269
0010
0000
0001
0000
,  // measure 270
1000
0000
0010
0000
,  // measure 271
0100
0000
0001
0000
,  // measure 272
1000
0000
0001
0000
,  // measure 273
0000
0000
0000
0000
,  // measure 274
2MM2
00M0
0M00
00M0
0M00
00M0
3M03
00M0
,  // measure 275
0000
0000
0000
0000
,  // measure 276
0000
0000
0000
0000
0000
0000
0000
0020
,  // measure 277
0030
0000
0000
0000
;

//---------------dance-single - ----------------
#NOTEDATA:;
#CHARTNAME:;
#STEPSTYPE:dance-single;
#DESCRIPTION:;
#CHARTSTYLE:;
#DIFFICULTY:Challenge;
#METER:20;
#RADARVALUES:1.080639,2.915788,0.864903,0.226522,1.050240,1102.000000,976.000000,126.000000,33.000000,174.000000,0.000000,2.000000,0.000000,283.000000,1.080639,2.915788,0.864903,0.226522,1.050240,1102.000000,976.000000,126.000000,33.000000,174.000000,0.000000,2.000000,0.000000,283.000000;
#CREDIT:;
#OFFSET:-0.390000;
#BPMS:0.000000=560.000000
,3.500000=280.000000
,158.000000=1120.000000
,176.000000=280.000000
,192.000000=560.000000
,216.000000=280.000000
,224.000000=140.000000
,226.000000=560.000000
,240.000000=280.000000
,264.000000=560.000000
,470.500000=280.000000
,481.000000=140.000000
,513.000000=280.000000
,527.000000=560.000000
,527.500000=280.000000
,528.000000=140.000000
,529.000000=280.000000
,711.000000=70.000000
,713.000000=280.000000
,770.000000=140.000000
,792.000000=280.000000
,799.000000=560.000000
,800.000000=280.000000
,804.000000=140.000000
,806.000000=280.000000
,808.000000=1120.000000
,816.000000=560.000000
,824.000000=280.000000
,844.000000=2240.000000
,860.000000=280.000000
,866.000000=4480.000000
,896.000000=17.500000
,904.000000=280.000000
,982.000000=560.000000
,990.000000=140.000000
,992.000000=280.000000
,1013.000000=560.000000
,1031.000000=280.000000
,1040.000000=70.000000
,1041.000000=140.000000
,1050.000000=280.000000
,1062.000000=140.000000
,1093.000000=280.000000
,1101.000000=560.000000
,1261.000000=35.000000
,1271.000000=9999.000000
,1308.000000=140.000000
;
#STOPS:11.750000=0.050000
,19.875000=0.225000
,28.000000=0.150000
,36.125000=0.150000
,44.250000=0.250000
,52.375000=0.075000
,60.500000=0.075000
,68.625000=0.075000
,76.750000=0.150000
,84.875000=0.150000
,93.000000=0.275000
,101.125000=0.050000
,109.250000=0.200000
,117.375000=0.200000
,125.500000=0.250000
,133.625000=0.075000
,141.750000=0.075000
,149.875000=0.075000
,230.000000=0.300000
,286.000000=0.100000
,294.500000=0.300000
,303.000000=0.300000
,311.500000=0.300000
,320.000000=0.225000
,473.000000=0.025000
,528.750000=0.050000
,639.875000=0.865000
,649.875000=0.430000
,659.875000=0.430000
,668.875000=0.215000
,677.875000=0.215000
,686.875000=0.430000
,696.875000=0.215000
,800.000000=0.050000
,839.750000=0.050000
,844.000000=0.055000
,846.000000=0.055000
,848.000000=0.055000
,850.000000=0.055000
,852.000000=0.055000
,854.000000=0.055000
,856.000000=0.055000
,858.000000=0.055000
,1062.000000=6.625000
;
#DELAYS:;
#WARPS:3.750000=8.000000
,11.875000=8.000000
,20.000000=8.000000
,28.125000=8.000000
,36.250000=8.000000
,44.375000=8.000000
,52.500000=8.000000
,60.625000=8.000000
,68.750000=8.000000
,76.875000=8.000000
,85.000000=8.000000
,93.125000=8.000000
,101.250000=8.000000
,109.375000=8.000000
,117.500000=8.000000
,125.625000=8.000000
,133.750000=8.000000
,141.875000=8.000000
,150.000000=8.000000
,165.500000=10.500000
,184.000000=8.000000
,208.000000=8.000000
,231.000000=9.000000
,256.000000=8.000000
,278.000000=8.000000
,286.500000=8.000000
,295.000000=8.000000
,303.500000=8.000000
,312.000000=8.000000
,320.500000=8.000000
,332.500000=7.500000
,340.666656=8.000000
,349.333344=8.000000
,358.000000=8.000000
,366.666656=8.000000
,375.333344=8.000000
,384.000000=8.000000
,392.666656=8.000000
,401.333344=8.000000
,410.000000=8.000000
,418.666656=8.000000
,427.333344=8.000000
,436.000000=8.000000
,444.666656=8.000000
,453.333344=8.000000
,462.000000=8.000000
,473.250000=7.750000
,505.000000=8.000000
,548.000000=8.000000
,640.000000=8.000000
,650.000000=8.000000
,660.000000=8.000000
,669.000000=8.000000
,678.000000=8.000000
,687.000000=8.000000
,697.000000=8.000000
,783.500000=8.500000
,896.125000=7.875000
,914.000000=8.000000
,923.000000=8.000000
,936.500000=8.000000
,945.500000=8.000000
,996.000000=8.000000
,1005.000000=8.000000
,1023.000000=8.000000
,1032.000000=8.000000
,1041.500000=8.500000
,1051.000000=8.000000
,1063.000000=8.000000
,1084.500000=8.500000
,1263.000000=8.000000
,1300.000000=8.000000
;
#TIMESIGNATURES:0.000000=4=4
;
#TICKCOUNTS:0.000000=4
;
#COMBOS:0.000000=1
;
#SPEEDS:0.000000=1.000000=0.000000=0
;
#SCROLLS:0.000000=2.000000
,176.000000=1.000000
;
#FAKES:;
#LABELS:0.000000=Song Start
;
#DISPLAYBPM:*;
#NOTES:
MMMM
0000
0000
0000
,
0000
0000
0000
0000
,
0000
0000
0000
0000
0000
0000
0000
0000
0000
0000
0000
0000
0000
0000
0000
MMM0
,
0000
M00M
0000
M00M
0000
M00M
0000
M00M
0000
MMM0
0000
0000
0000
0000
0000
0000
,
0000
0000
0000
0000
0000
0000
0000
0000
0000
0000
0000
0000
0000
0000
0000
0000
0000
0000
0000
0000
0000
0000
0000
0000
0000
0000
0000
0000
0000
0000
0000
0MM0
,
0000
0000
0000
M00M
0000
0000
0000
M00M
0000
0000
0000
M00M
0000
0000
0000
M00M
0000
0000
0000
0MM0
0000
0000
0000
0000
0000
0000
0000
0000
0000
0000
0000
0000
,
0000
0000
0000
0000
,
MMM0
M00M
M00M
MMM0
M000
M000
0000
0000
,
0000
0000
0000
0000
,
0000
MMM0
0000
0000
0000
M00M
0000
0000
0000
M00M
0000
0000
0000
MMM0
0000
0000
0000
M000
0000
0000
0000
M000
0000
0000
0000
0000
0000
0000
0000
0000
0000
0000
,
0000
0000
0000
0000
,
0000
MMMM
0000
M000
0000
MMMM
0000
M000
0000
M000
0000
MMMM
0000
0000
0000
0000
,
0000
0000
0000
0000
,
0000
0000
0000
M000
0000
0000
0000
M000
0000
0000
0000
M000
0000
0000
0000
M000
0000
0000
0000
M000
0000
0000
0000
MMMM
0000
0000
0000
0000
0000
0000
0000
0000
,
0000
0000
0000
0000
,
0000
MMMM
M000
M000
M0MM
M00M
MMMM
0000
,
0000
0000
0000
0000
,
0000
0000
0000
0000
0000
0MM0
0000
0000
0000
M00M
0000
0000
0000
MMMM
0000
0000
0000
M00M
0000
0000
0000
M00M
0000
0000
0000
M00M
0000
0000
0000
0000
0000
0000
,
0000
0000
0000
0000
,
0000
0000
0000
M00M
0000
MM0M
0000
MM0M
0000
M0MM
0000
M0MM
0000
M00M
0000
0000
,
0000
0000
0000
0000
,
0000
0000
0000
0000
0000
0000
0000
MMMM
0000
0000
0000
M000
0000
0000
0000
M000
0000
0000
0000
M0MM
0000
0000
0000
M00M
0000
0000
0000
MMMM
0000
0000
0000
0000
,
0000
0000
0000
0000
,
0000
0000
MMMM
M000
MMMM
M000
M000
MMMM
,
0000
0000
0000
0000
,
0000
0000
0000
0000
0000
0000
0000
0000
0000
MMM0
0000
0000
0000
M00M
0000
0000
0000
M00M
0000
0000
0000
MMM0
0000
0000
0000
M00M
0000
0000
0000
M00M
0000
0000
,
0000
0000
0000
0000
,
0000
0000
0000
0000
0000
M000
0000
M000
0000
M000
0000
M000
0000
M000
0000
MMMM
,
0000
0000
0000
0000
,
0000
0000
0000
0000
0000
0000
0000
0000
0000
0000
0000
MMMM
0000
0000
0000
M000
0000
0000
0000
MMMM
0000
0000
0000
M000
0000
0000
0000
M000
0000
0000
0000
MMMM
,
0000
0000
0000
0000
,
0000
0000
0000
0MM0
M00M
MMMM
M00M
M00M
,
M00M
0000
0000
0000
,
0000
0000
0000
0000
0000
0000
0000
0000
0000
0000
0000
0000
0000
MMMM
0000
0000
0000
M000
0000
0000
0000
MMMM
0000
0000
0000
M000
0000
0000
0000
M000
0000
0000
,
0000
M000
0000
0000
0000
0000
0000
0000
0000
0000
0000
0000
0000
0000
0000
0000
0000
0000
0000
0000
0000
0000
0000
0000
0000
0000
0000
0000
0000
0000
0000
0000
,
0000
0000
0000
0000
0000
0000
0000
MMMM
0000
0000
0000
0000
0000
0000
0000
0000
,
0000
0000
0000
0000
,
0000
0000
0000
0000
0000
0000
0000
0000
0000
0000
0000
0000
0000
0000
0000
00MM
0000
0000
0000
0000
0000
0000
0000
MM00
0000
0000
0000
0000
0000
0000
0000
0000
,
0000
0000
0000
0000
,
0000
0000
000M
00M0
,
0M00
M000
000M
00M0
,
0M00
M000
0000
0000
,
0000
0000
0000
0000
,
0000
0000
0000
0000
,
1000
0100
1000
0010
0100
0001
0010
0100
,
1000
0100
0010
0001
0100
0010
1000
0100
,
M001
0010
0100
1000
,
0010
0001
0000
0000
,
100M
01M0
M010
0001
,
M100
001M
1M00
0010
,
010M
M001
0M10
010M
,
10M0
0000
0000
0000
0M01
0000
0000
0000
1MM0
0MM0
0MM1
0MM0
1MM0
0MM0
0MM1
0MM0
,
100M
00M0
000M
0000
0000
0000
0000
0000
,
0000
0000
0000
0000
,
0001
0010
0001
0100
0010
1000
0100
0010
,
0001
0010
0100
1000
0010
0100
0001
0010
,
M001
0010
010M
1000
01M0
0010
0M01
0000
1MM1
0000
0000
0000
0000
0000
0000
0000
,
M11M
0000
0000
0000
2MM2
3003
M00M
0000
,
0000
0000
0000
0000
,
0000
0000
0000
0000
,
1001
0000
1000
0100
0001
0100
1000
0100
,
0001
0100
1000
0100
0001
0100
1000
0000
,
1001
0000
1000
0010
0001
0010
1000
0010
,
0001
0010
1000
0010
0001
0010
1000
0000
,
000M
0000
0000
0000
,
0000
0000
0000
0000
,
0001
0010
0100
1000
,
1000
0000
0100
0000
0010
0000
0001
0000
0100
0000
0010
0000
,
1000
0000
0000
0000
0010
0000
0000
0000
0100
0000
0000
0000
1000
0000
0000
0100
0000
0000
1000
0000
0000
0100
0000
0000
,
0010
0001
0010
0001
M00M
0000
0000
0000
,
0000
0000
0000
0000
,
0000
0000
1001
0000
,
0000
0000
0000
0000
,
0000
0000
0000
0000
0000
1010
0000
0000
,
0000
0000
0000
0000
,
0000
0000
0000
0101
,
0000
0000
0000
0000
,
0000
0000
0000
0000
0000
0000
0000
1100
,
0000
0000
0000
0000
,
0000
0000
0000
0000
,
0011
0000
0000
0000
,
0000
0000
0000
0000
,
0000
0020
0030
0000
0000
0000
0000
0000
,
0000
0000
0000
M000
0000
0M00
0000
00M0
0000
0000
0000
0000
,
0000
0000
0000
0000
,
1000
0000
0000
0M00
0000
00M0
0000
000M
0000
0000
0000
0000
,
0000
0000
0000
0000
,
0000
0000
0100
0000
0000
00M0
0000
000M
0000
0M00
0000
0000
,
0000
0000
0000
0000
,
0000
0000
0000
0000
0010
0000
0000
000M
0000
0M00
0000
00M0
,
0000
0000
0000
0000
,
0000
0000
0000
0000
0000
0000
0001
0000
0000
0M00
0000
00M0
,
0000
M000
0000
0000
0000
0000
0000
0000
0000
0000
0000
0000
,
0000
0000
0000
0000
0000
0000
0000
0000
0100
0000
0000
00M0
,
0000
M000
0000
00M0
0000
0000
0000
0000
0000
0000
0000
0000
,
0000
0000
0000
0000
0000
0000
0000
0000
0000
0000
0010
0000
,
0000
M000
0000
00M0
0000
0M00
0000
0000
0000
0000
0000
0000
,
0000
0000
0000
0000
,
1000
0000
0000
00M0
0000
0M00
0000
000M
0000
0000
0000
0000
,
0000
0000
0000
0000
,
0000
0000
0010
0000
0000
0M00
0000
000M
0000
00M0
0000
0000
,
0000
0000
0000
0000
,
0000
0000
0000
0000
0100
0000
0000
000M
0000
00M0
0000
0M00
,
0000
0000
0000
0000
,
0000
0000
0000
0000
0000
0000
0001
0000
0000
00M0
0000
0M00
,
0000
M000
0000
0000
0000
0000
0000
0000
0000
0000
0000
0000
,
0000
0000
0000
0000
0000
0000
0000
0000
0010
0000
0000
0M00
,
0000
M000
0000
0M00
0000
0000
0000
0000
0000
0000
0000
0000
,
0000
0000
0000
0000
0000
0000
0000
0000
0000
0000
0100
0000
,
0000
M000
0000
0M00
0000
000M
0000
0000
0000
0000
0000
0000
,
0000
0000
0000
0000
,
1000
0000
0000
0M00
0000
000M
0000
00M0
0000
0000
0000
0000
,
0000
0000
0000
0000
,
0000
0000
0000
0000
0100
0000
0000
0000
0000
0000
000M
0000
0000
0000
00M0
0000
0000
M000
0000
0000
0000
0000
0000
0000
,
0000
0000
0000
0000
,
0000
0000
0000
0000
0000
0000
0000
0000
0001
0000
0000
0000
0000
0000
00M0
0000
0000
M000
0000
0000
0000
0000
0000
0000
,
0000
0000
0000
0000
,
0000
0000
0000
0000
0010
1000
0000
0000
,
0000
0000
0000
0000
0000
1000
0000
0000
0000
0000
0000
0000
0000
0000
0000
0000
,
0000
0000
0000
0000
,
0000
0000
0000
0000
0001
0000
0010
0000
0100
0000
1000
0000
0010
0000
0100
0001
,
1000
0000
1000
0000
0001
0000
0010
0000
1000
0000
0010
0001
0100
0000
1000
0100
,
0001
0000
0010
0100
1000
0000
0001
0000
1000
0000
0001
1000
1000
0000
1000
0000
,
0100
0000
0010
0010
0001
0000
0001
0000
0100
0010
0100
0010
0100
0000
0100
0000
,
0010
0000
0000
0010
0000
0000
1000
0000
0000
0100
0000
0000
0001
0000
0000
0010
0000
0000
1000
0000
0000
0001
0010
0100
,
1000
0000
0001
0000
1000
0000
0100
0000
0010
0000
0001
0000
4000
0000
0000
3000
,
0004
0000
0000
0003
1MM1
0000
0000
0000
0000
0000
0000
0000
0000
0000
0000
0000
,
0000
0000
0000
0000
,
0000
0000
M11M
0000
1001
0000
0010
0010
,
0010
0010
0100
1000
0010
0100
0000
0100
,
0001
0000
1010
0000
0000
0101
0000
0000
,
1100
0000
0000
0011
0000
0000
2002
0000
,
0000
3003
0110
0000
1001
0000
0110
0000
,
0011
0000
0000
1100
0000
0000
0101
0000
,
0000
1010
0000
0000
0220
0000
0000
0330
,
1000
0100
0010
0001
0100
0010
1000
0100
1000
0100
0010
0100
,
0010
0001
0010
0001
0010
0100
1000
0100
0001
1000
0010
0001
,
M11M
0000
0000
0000
,
0000
0000
0000
0000
,
1MM1
0000
0000
0000
0000
0000
0000
0000
0100
0010
0000
0000
0000
0000
0000
0000
0002
0000
0000
0000
0023
0000
0000
0000
2030
0000
0000
0000
3200
0000
0000
0000
,
0302
0000
0103
0100
0000
0010
0010
0000
,
0001
0000
0100
0000
0001
0000
0100
0000
0010
0000
0100
0000
0110
0000
0000
0100
0000
0000
1000
0000
0000
0000
0000
0000
,
0110
0010
0001
0000
0101
0000
0011
0000
,
1010
0000
0000
0000
0000
0000
1100
0000
0000
0000
0000
0000
0001
0010
0000
0000
0000
0000
0100
0000
0000
1000
0000
0000
,
0001
0100
0010
0000
0200
0300
0200
0000
,
0301
0000
0010
0000
0001
0000
0010
0000
0100
0000
0010
0000
0100
0000
0000
0100
0000
0000
0100
0000
0000
0100
0000
0000
,
0000
1001
1001
0000
0110
0000
0110
0000
,
0001
1000
0001
1000
0001
0000
0000
0000
1000
0000
0100
0000
0001
0000
0010
0000
,
0000
1000
0100
0010
0001
1000
0001
0000
,
1000
0100
1000
0000
0001
1000
0001
0000
0100
0001
0100
0001
0100
0000
0000
0000
,
0001
0100
0001
0100
0010
0100
0010
0100
0110
0000
0000
0000
0110
0000
0000
0000
,
1001
0000
0000
0000
0000
0000
0000
0000
0000
0000
0000
0000
0000
0000
0000
0000
0000
0000
0000
0000
0000
0000
0000
0000
0000
0000
0000
0000
0000
0000
0000
0000
0000
0000
0000
0000
0000
0000
0000
0000
0000
0000
0000
0000
0000
0000
0000
0000
0010
0000
0000
0000
0000
0000
0000
0000
0000
0000
0100
0000
0000
0000
0000
0000
0000
0000
0000
0000
0000
0000
0000
0000
0000
0000
0000
0000
0000
0000
0000
0000
0000
0000
0000
0000
0000
0000
0000
0000
0000
0000
0000
0000
0000
0000
0000
0000
0001
0000
0000
0000
0000
0000
0000
0000
0000
0000
0000
0000
0000
0000
0000
0000
0000
0000
0000
0000
0000
0000
0000
0000
0010
0000
0000
0000
0000
0000
0000
0000
0000
0000
0000
0000
0000
0000
0000
0000
0000
0000
0000
0000
0000
0000
0000
0000
1000
0000
0000
0000
0000
0000
0000
0000
0000
0000
0000
0000
0000
0000
0000
0000
0000
0000
0000
0000
0000
0000
0000
0000
0100
0000
0000
0000
0000
0000
0000
0000
0000
0000
0000
0000
0000
0000
0000
0000
0000
0000
0000
0000
0000
0000
0000
0000
,
0002
0000
0003
0010
0010
0100
0100
0000
,
1000
0100
0000
0010
0001
0100
0010
1000
,
0022
0033
2200
3300
,
0220
0000
0000
0000
0000
0000
0000
0000
0000
0000
0000
0000
0000
0000
0000
0000
0000
0000
0000
0000
0000
0000
0000
0000
0330
0000
0000
0000
0000
0000
0000
0000
0000
0000
0000
0000
0000
0000
0000
0000
0000
0000
0000
0000
0000
0000
0000
0000
1000
0000
0000
0000
0000
0000
0000
0000
0000
0000
0000
0000
0000
0000
0000
0000
0000
0000
0000
0100
0000
0000
0000
0000
0000
0000
0000
0000
0000
0000
0000
0000
0000
0000
0000
0000
0000
0000
0000
0000
0000
0000
0000
0000
0000
0000
0000
0000
0010
0000
0000
0000
0000
0000
0000
0000
0000
0000
0000
0000
0000
0000
0000
0000
0000
0000
0000
0001
0000
0000
0000
0000
0000
0000
0000
0000
0000
0000
0000
0000
0000
0000
0000
0000
0000
0000
0100
0000
0000
0000
0000
0000
0000
0000
0000
0000
0000
0000
0000
0000
0000
0000
0000
0000
0000
0000
0010
0000
0000
0000
0000
0000
0000
0000
0000
0000
0000
0000
0000
0000
0000
0000
0000
0000
0000
1000
0000
0000
0000
0000
0000
0000
0000
0000
0100
0000
0000
0000
0000
0000
0000
0000
0000
0000
,
1000
0000
0000
0000
0000
0000
0000
0000
0000
0000
0000
0000
0000
0000
0000
0000
0000
0000
0000
0100
0000
0000
0000
0000
0000
0000
0000
0000
0000
0000
0000
0000
0000
0000
0000
0000
0000
0000
0010
0000
0000
0000
0000
0000
0000
0000
0000
0000
0001
0000
0000
0000
0000
0000
0000
0000
0000
0000
0000
0000
0000
0000
0000
0000
0000
0000
0010
0000
0000
0000
0000
0000
0000
0000
0000
0000
0000
0000
0000
0000
0000
0000
0000
0000
0100
0000
0000
0000
0000
0000
0000
0000
0000
0000
0000
0000
1000
0000
0000
0000
0000
0000
0000
0000
0000
0000
0000
0000
0010
0000
0000
0000
0000
0000
0000
0000
0000
0000
0000
0000
1000
0000
0000
0000
0000
0000
0000
0000
0000
0000
0000
0000
0010
0000
0000
0000
0000
0000
0000
0000
0000
0000
0000
0000
1000
0000
0000
0000
0000
0000
0000
0000
0000
0000
0000
0000
0000
0000
0000
0000
0000
0000
0000
0000
0000
0000
0000
0000
0001
0000
0000
0000
0000
0000
0000
0000
0000
0000
0000
0000
0000
0000
0000
0000
0000
0000
0000
0000
0000
0000
0000
0000
,
1000
0000
0000
0000
0100
0000
0000
0000
0010
0000
0000
0000
1000
0000
0000
0000
0100
0000
0000
0000
0001
0000
0000
0000
1000
0000
0000
0000
0010
0000
0000
0000
0001
0000
0000
0000
0100
0000
0000
0010
0000
0000
0001
0000
0000
0000
0000
0000
,
0000
1001
0110
0000
0110
0000
1001
0000
,
0001
0010
0100
1000
,
2000
0000
3200
0320
0032
0000
2003
3000
,
0000
0000
0000
0000
,
0001
0000
0010
0000
2000
0000
3200
0320
,
0030
0000
0000
0000
,
0000
0000
0000
0000
0001
0000
0010
0100
,
2000
0000
3200
0320
0030
0000
0000
0000
,
0000
0000
0000
0000
,
0001
2000
3000
0000
,
0000
0000
0000
0000
,
0000
0000
0001
0000
2000
3200
0300
0000
,
0000
0000
0000
0000
,
0000
0000
0001
2000
,
3200
0300
0000
0000
,
0000
0000
0000
0000
0000
0000
0001
0010
,
0100
0000
2000
3000
0000
0000
0000
0000
,
0000
0000
0000
0000
,
0000
0000
0001
0010
0100
1000
1001
0000
,
0110
0000
0000
0000
1001
0000
0000
0000
0000
0000
0000
0000
0001
0010
0100
1000
,
0001
0000
0000
0010
0100
1000
0100
0000
0000
0100
0000
0000
1001
0000
0000
0000
0000
0000
0000
0000
0000
0000
0000
0000
0110
0000
0000
0000
0000
0000
0000
0000
0000
0000
0000
0000
1001
0000
0000
0000
0000
0000
0000
0000
0000
0000
0000
0000
,
0110
1001
0000
1001
,
0001
1000
0001
1000
0001
1000
0001
0000
0000
0000
1000
0000
0100
0000
0000
0000
0001
0000
0100
0000
0000
0000
1000
0000
,
0010
0000
0001
0010
0000
1000
0100
0000
0001
0010
0000
1000
,
0001
0110
0110
1001
,
1001
0000
0000
0000
1001
0000
0000
0000
0010
0000
1000
0010
1000
0010
1000
0010
,
1000
0010
1000
0000
1010
0000
1100
0000
1001
0000
0000
0000
0011
0000
1000
0000
,
0100
0000
1001
0000
0010
0101
0000
1000
,
1000
0010
1000
0010
1000
0000
0000
0000
0100
0000
0100
0000
0000
0000
0010
0000
,
0010
0000
0000
0000
0000
0000
1001
0000
0000
0000
0000
0000
1001
0000
0000
0000
0000
0000
0010
0100
0010
0100
0000
0000
,
0000
0100
1001
0000
0000
0000
0110
0000
,
0000
0000
1001
0000
0010
0011
0000
0100
,
1000
0000
0000
0010
0000
0000
0100
0000
0000
0010
0000
0000
1000
0000
0000
0000
0000
0000
0000
0000
0000
0000
0000
0000
0001
0000
0000
0000
0000
0000
0001
0000
0000
0000
0000
0000
0000
0000
0000
0000
0000
0000
0010
0000
0100
0000
0010
0000
,
0100
0000
1100
0000
0011
0000
1010
0101
,
0000
0110
1001
0000
1000
0000
0000
0001
,
0000
0000
0000
1000
0000
0000
0000
0001
,
0000
0000
0000
0000
0000
0000
1000
0000
0000
0000
0000
0000
0000
0000
0000
0000
0000
0000
0001
0000
0000
0000
0000
0000
0000
0000
0000
0000
0000
0000
1000
0000
0000
0000
0000
0000
0000
0000
0000
0000
0000
0000
0001
0010
0000
0000
0000
0000
,
0000
0000
0000
0000
0000
0000
0100
1000
0000
0000
0000
0000
0000
0000
0000
0000
0000
0000
0001
0100
0000
0000
0000
0000
0000
0000
0000
0000
0000
0000
0010
1000
0000
0000
0000
0000
0000
0000
0000
0000
0000
0000
M11M
0000
0000
0000
0000
0000
,
0000
0000
0000
0000
,
0000
0000
0000
0000
,
1MM1
0000
0000
0000
0000
0000
0000
0000
0000
0110
0000
0000
0000
0000
0000
0110
0000
0000
0000
0000
0000
0000
0000
0000
0000
0000
0000
1000
0000
0000
0100
0000
0000
1000
0000
0000
0100
0000
0000
0000
0010
0000
0000
0000
0100
0000
0000
0000
,
0010
0001
1000
0001
0000
1000
0000
0000
,
1000
1000
1000
1000
,
1001
0000
0100
0010
0100
0000
0010
0000
1001
0000
0000
0000
0110
0000
0000
0000
,
1000
0100
1000
0100
,
0010
0001
0010
0001
,
0100
0100
0000
0001
,
0010
0010
1000
1000
,
1001
0000
1000
0100
1000
0000
0010
0010
,
0010
0001
0000
0000
0010
1000
0000
0000
0100
0001
0000
0000
0100
1000
0000
0000
,
1001
0000
0110
0000
1000
0010
0001
0100
,
1001
0110
1001
0000
,
0010
0010
0010
0010
,
0001
0000
0010
0000
,
0100
0000
1000
0000
,
0001
0000
0100
0000
,
0010
0000
1000
0000
,
0012
0020
0033
0000
2100
0200
3300
0000
,
1001
1000
0100
0001
0020
0000
0000
0000
,
0000
0000
0000
0000
,
0000
0000
0000
0000
,
0000
0000
0000
0000
,
0000
0000
0000
0000
,
0000
0000
0000
0000
,
0000
0000
0000
0000
,
0000
0000
0000
0000
,
0230
0300
M11M
0000
0000
0000
0000
0000
0000
0000
0000
0000
0000
0000
0000
0000
0000
0000
0000
0000
0000
0000
0000
0000
0000
0000
0000
0000
0000
0000
0000
0000
0000
0000
0000
0000
0000
0000
0000
0000
0000
0000
0000
0000
0000
0000
0000
0000
0000
0000
0000
0000
0000
0000
0000
0000
0000
0000
0000
0000
0000
0000
0000
0000
,
0000
0000
0000
0000
,
1001
0000
0000
0010
0000
0000
0001
0000
,
1000
0000
0000
0000
0000
0000
0100
0000
0000
0000
0000
0000
0010
0000
0000
0000
0000
0000
0001
0000
0000
0000
0000
0000
1000
0000
0001
0000
1000
0000
0001
0000
0000
1000
0000
0000
0001
0000
0000
0000
1000
0000
0000
0000
0001
0000
0000
0000
,
1000
0001
1000
0001
M00M
0000
0000
0000
,
0000
0000
0000
0000
,
0000
0000
0000
0000
,
0000
0000
0000
0000
,
0000
0000
0000
1001
,
0000
0000
0000
0000
0000
0000
1001
0000
0000
0000
0000
0000
0000
0000
0000
0000
0000
0000
0000
0000
0000
0000
0000
0000
1000
0000
0001
0000
1000
0000
0001
0000
0000
0010
0000
0000
0001
0000
0000
0000
0000
0000
1000
0000
0000
0000
0000
0000
,
0000
0MM0
0000
0000
0000
0000
0000
0000
,
0000
0000
0000
0000
,
0000
0000
0000
0000
,
0000
0000
0000
0000
,
0000
0000
0000
0110
0000
0000
0110
0000
,
0000
0000
0110
0000
0000
0000
0000
0000
1000
0100
1000
0100
0010
0001
0010
0001
,
1000
0010
1000
0010
0100
0001
0100
0000
0100
0000
0000
0000
0110
0000
0000
0000
,
0000
0000
0000
1001
0000
0000
1001
0000
0000
0000
0000
0000
1000
0000
0100
0000
0010
0000
0001
0000
0000
0010
0000
0000
,
0000
0100
0100
0000
1000
0000
0010
0000
,
0000
0100
0000
0000
0011
0010
1010
1000
,
1100
0100
0101
1001
0000
0000
1001
0000
,
0000
1000
1001
0000
0020
0000
0000
0000
,
0000
0000
0000
0000
,
0000
0000
0000
0000
0000
0000
0000
0000
0000
0000
0000
0000
0000
0000
0000
0000
0000
0000
0030
0000
0000
0000
0000
0000
1000
0000
0100
0000
0010
0000
0001
0000
0100
0000
0010
0000
1000
0000
0000
0001
0000
0000
1000
0000
0000
0001
0000
0000
,
1000
0010
1000
0010
0100
0001
0100
0001
0010
0000
0000
0000
0010
0000
0000
0000
,
0000
0000
0000
0000
,
0000
0000
0000
0000
,
0000
0000
0000
0000
,
0000
0000
0000
0000
,
0000
1000
0000
0000
,
0100
0000
0000
0010
,
0000
0001
0001
0000
,
0000
0000
0000
0000
,
0000
0000
0000
0000
,
0000
0000
0000
0000
,
0000
0000
0000
0000
,
1000
0100
0010
0000
0001
0000
0000
0000
0000
0000
0000
0000
0000
0000
0000
0000
,
0000
0000
0000
0000
,
0000
0000
0000
0000
,
0000
0000
0000
0000
,
0000
0000
0000
0000
0000
0000
0000
0000
0000
1000
0100
0010
,
1000
0000
0000
0000
0100
0000
0000
0000
0001
0000
0000
0000
1000
0000
0000
0000
0010
0000
0000
0000
0001
0000
0000
0000
0020
0000
0000
0000
0000
0000
0000
0000
0000
0000
0000
0000
0031
0000
0000
0010
0000
0000
0100
0000
0000
0000
0000
0000
,
0000
0000
0000
0000
,
0000
0000
0000
0000
0000
0000
0000
0000
0000
0000
0000
0000
0001
0010
0100
0000
,
1000
0000
0001
0000
0010
0000
0010
0000
1000
0000
0010
0000
0001
0100
0010
0000
,
1000
0000
0100
0000
0100
0000
0001
0000
0010
0010
1000
0000
0010
0010
0001
0000
,
0010
0010
0100
0000
1000
0000
0100
0000
0001
0001
0100
0000
0100
0000
0100
0000
,
0100
0010
M10M
0000
0000
0000
0000
0000
0000
0000
0000
0000
0000
0000
0000
0000
,
0000
0000
0000
0000
,
0000
0000
0000
0000
0000
0000
0000
0000
0000
0000
0000
0000
1001
0000
0000
0000
0000
0000
0000
0000
0000
0000
0000
0000
0110
0000
0000
0000
0000
0000
0001
0000
0010
0000
0001
0000
0010
0000
0000
0100
0000
0000
0010
0000
0000
0100
0000
0000
,
1000
0000
0100
0000
0010
0000
0001
0000
0010
0000
0100
0000
1000
0000
0000
0100
0000
0000
0010
0000
0000
0000
0000
0000
,
0001
0000
1000
0000
0100
0000
0010
0001
,
0010
0000
0001
0100
0001
0000
1000
0001
,
1000
0000
0110
0000
0001
0010
0001
0010
,
0001
0000
0110
0000
1000
0100
1000
0100
,
1000
0000
0110
0000
1000
0000
0010
0100
,
0001
0000
0000
0010
0000
0000
0100
0000
0000
0000
0000
0000
1000
0000
0000
0000
0000
0000
0100
0000
0010
0000
0100
0000
,
0010
0000
0100
0000
0010
0000
0100
0000
0000
0000
0000
0000
1000
0000
0000
0100
0000
0000
1000
0000
0000
0000
0000
0000
,
0110
0000
0001
0010
0001
0000
0100
0010
,
1000
0010
0100
0000
0010
0001
0100
0000
,
1010
0001
0010
0100
,
1000
0000
0010
0000
0100
0000
0001
0010
,
0001
0000
0000
1000
0000
0000
0001
0000
0000
0100
0000
0000
0001
0000
0000
1000
0000
0000
0001
0000
0010
0000
0001
0000
,
0010
0100
0100
0100
,
0100
1000
0010
0100
,
0001
1001
1000
0110
,
0010
0000
1001
0000
0001
0000
0100
0010
,
0100
0010
0100
0000
0010
0000
0001
0000
,
1000
0010
0100
0001
,
1000
0000
0000
0001
0000
0000
1000
0000
0000
0001
0000
0010
,
0000
0100
0000
1000
0000
0000
0010
0000
0000
0101
0000
0000
,
0010
0000
0011
0000
0010
0000
0001
0010
,
0001
0000
1100
0000
0100
0000
1000
0100
,
1000
0000
1000
0100
0010
0100
1000
0000
,
0010
0000
0001
0010
0100
0010
0001
0000
,
0100
1001
0100
0010
,
0001
0000
1000
0100
1000
0100
1000
0000
,
0001
0000
0110
0000
0001
0000
1000
0100
,
0010
0100
1000
0100
0010
0100
2000
0000
,
3010
0101
0010
0100
,
1000
0000
0010
0100
0010
0100
0010
0000
,
1000
0000
0001
0000
0010
0000
0100
1000
,
0010
1000
0010
1000
0010
1000
0000
0000
,
0001
0000
1000
0100
0010
0001
1000
0000
,
0000
0000
0001
0010
0100
1000
0001
0000
,
0000
0000
1000
0001
0010
0100
1000
0000
,
0000
0000
0000
0000
0000
0000
0001
0000
0000
1000
0000
0000
0100
0000
0000
0010
0000
0000
0001
0000
1000
0000
0001
0000
,
1000
0001
1000
0001
0000
0000
0000
0000
0000
0010
0000
0000
,
0000
0100
0000
1000
,
0000
0001
0000
0100
,
0000
0010
0000
1000
,
0000
0000
0000
0000
0000
2002
0000
0000
0000
0000
0000
3003
00M0
0000
0000
0000
,
0000
0000
0000
0000
,
0000
0000
0000
M2MM
,
M0MM
M0MM
0000
M0MM
,
M0MM
M0MM
0000
M0MM
,
M0MM
M0MM
0000
M0MM
,
M0MM
M0MM
0000
M0MM
,
M0MM
M0MM
0000
M0MM
,
M0MM
M0MM
0000
M0MM
,
M0MM
M0MM
0000
M0MM
,
M0MM
M0MM
0000
0000
,
0000
0000
0000
0300
;
