#TITLE:Disabled the FLAW;
#SUBTITLE:;
#ARTIST:D-crew;
#TITLETRANSLIT:;
#SUBTITLETRANSLIT:;
#ARTISTTRANSLIT:;
#GENRE:;
#CREDIT:;
#MUSIC:Disabled The FLAW.ogg;
#BANNER:Disabled the FLAW-bn.png;
#BACKGROUND:Disabled the FLAW-bg.png;
#CDTITLE:;
#SAMPLESTART:15.852;
#SAMPLELENGTH:7.255;
#SELECTABLE:YES;
#OFFSET:0.000;
#BPMS:0.000=170.985
,13.500=341.971
,16.000=170.985
,45.000=341.971
,53.000=145.000
,54.000=36.250
,54.625=2735.767
,59.000=341.971
,124.500=683.942
,125.500=341.971
,128.000=683.942
,129.000=341.971
,132.500=683.942
,133.500=341.971
,136.000=683.942
,137.000=341.971
,139.000=170.985
,140.000=341.971
,141.500=683.942
,142.500=341.971
,145.000=683.942
,146.000=341.971
,148.500=683.942
,149.500=341.971
,154.000=683.942
,155.000=341.971
,156.000=170.985
,157.000=341.971
,158.500=683.942
,159.500=341.971
,162.000=683.942
,163.000=341.971
,166.500=683.942
,167.500=341.971
,170.000=683.942
,171.000=341.971
,175.000=170.985
,176.000=341.971
,178.500=683.942
,179.500=341.971
,183.000=683.942
,184.000=341.971
,189.000=683.942
,193.000=170.985
,225.000=683.942
,289.000=170.985
,297.000=85.493
,297.500=42.746
,298.125=5471.535
,324.000=170.985
;
#STOPS:13.500=0.100
,14.000=0.050
,14.250=0.050
,14.500=0.050
,14.750=0.050
,15.000=0.050
,15.250=0.050
,15.500=0.050
,15.750=0.050
,45.000=0.100
,45.500=0.100
,46.000=0.100
,46.750=0.050
,47.000=0.100
,47.500=0.050
,47.750=0.050
,48.000=0.100
,48.500=0.100
,49.000=0.050
,49.250=0.050
,49.500=0.050
,49.750=0.050
,50.000=0.050
,50.250=0.050
,50.500=0.050
,50.750=0.050
,51.000=0.050
,51.250=0.050
,51.500=0.050
,51.750=0.050
,52.000=0.050
,52.250=0.050
,52.500=0.050
,225.000=0.088
,226.000=0.088
,227.000=0.088
,228.000=0.088
,229.000=0.088
,230.000=0.088
,231.000=0.088
,232.000=0.088
,233.000=0.088
,234.000=0.088
,235.000=0.088
,236.000=0.088
,237.000=0.088
,238.000=0.088
,239.000=0.088
,240.000=0.088
,241.000=0.088
,242.000=0.088
,243.000=0.088
,244.000=0.088
,245.000=0.088
,246.000=0.088
,247.000=0.088
,248.000=0.088
,249.000=0.088
,250.000=0.088
,251.000=0.088
,252.000=0.088
,253.000=0.088
,254.000=0.088
,255.000=0.088
,256.000=0.088
,257.000=0.088
,258.000=0.088
,259.000=0.088
,260.000=0.088
,261.000=0.088
,262.000=0.088
,263.000=0.088
,264.000=0.088
,265.000=0.088
,266.000=0.088
,267.000=0.088
,268.000=0.088
,269.000=0.088
,270.000=0.088
,271.000=0.088
,272.000=0.088
,273.000=0.088
,274.000=0.088
,275.000=0.088
,276.000=0.088
,277.000=0.088
,278.000=0.088
,279.000=0.088
,280.000=0.088
,281.000=0.088
,282.000=0.088
,283.000=0.088
,284.000=0.088
,285.000=0.088
,286.000=0.088
,287.000=0.088
,288.000=0.088
;
#DISPLAYBPM:*;
#BGCHANGES:;
#FGCHANGES:;

//--------------- dance-single - ----------------
#NOTES:
     dance-single:
     :
     Beginner:
     4:
     0,0,0,0,0:
0000
0000
0000
0000
,
0000
0000
0000
0000
,
0000
0000
0000
0000
,
0000
0000
0000
0002
2000
0000
0000
3003
,
0000
1001
0000
0000
,
0000
1001
0000
0000
,
0000
1001
0000
1001
,
0000
1001
1001
1001
,
1001
1000
0100
0010
,
0001
1000
0010
0100
,
0001
1000
0001
1000
,
0001
1000
0002
0000
0000
0000
2003
0000
,
0000
3000
2002
0000
0000
0000
0000
0000
,
0000
3003
1002
0000
2003
3000
0000
0000
,
0000
0000
0000
1001
,
0000
1000
0000
0100
,
0000
0010
0000
0001
,
0000
1000
0000
0010
,
0000
0100
0000
0001
,
0000
0010
0000
1000
,
0000
0010
0000
0001
,
0000
0010
0000
1000
,
0000
0001
0000
1000
,
0000
0010
0000
0100
,
0000
0001
0000
1000
,
0000
0100
0000
0010
,
0000
0001
0000
1000
,
0000
0100
0000
0001
,
0000
0100
0000
1000
,
0000
0100
0000
0001
,
0000
0100
0000
1000
,
0000
0000
0000
2000
3000
0000
0000
0000
,
0000
0000
0200
0300
0000
0000
0000
0000
,
0000
0000
0000
0020
0030
0000
0000
0000
,
0000
0000
0002
0003
0000
0000
2000
0000
,
3001
0000
0000
0000
0000
0002
0003
0000
,
0000
0000
0000
0000
0200
0300
0000
0000
,
0000
0000
0000
0020
0030
0000
0000
0000
,
0000
0000
0000
0000
0000
0000
2000
3000
,
0002
0000
1003
0000
0000
0000
0000
2000
,
3000
0000
0000
0000
0000
0000
0020
0030
,
0000
0000
0000
0000
0000
0000
0000
0200
,
0300
0000
0000
0000
0000
0000
0002
0003
,
0000
0000
0000
0000
0000
0000
0000
0000
0000
0000
0000
0000
2002
0000
0000
3003
,
1001
0000
0000
0000
0000
0000
0000
0002
,
0003
0000
0000
0000
,
0020
0030
0000
0000
0000
0000
0000
0000
,
0000
0200
0300
0000
,
0000
1000
0000
0000
,
0000
1000
0000
0000
,
0000
1000
0000
0000
,
0000
1000
0000
0000
,
0000
0001
0000
0000
,
0000
0001
0000
0000
,
0000
0001
0000
0000
,
0000
0001
0000
0000
,
0000
1000
0000
1000
,
0000
1000
0000
1000
,
0000
1000
0000
1000
,
0000
1000
0000
1000
,
0000
0001
0000
0001
,
0000
0001
0000
0001
,
0000
0001
0000
0001
,
0000
0001
0000
0001
,
0000
0100
0000
0100
,
0000
0100
0000
0100
,
0000
0100
0000
0100
,
0000
0100
0000
0100
,
0000
0010
0000
0010
,
0000
0010
0000
0010
,
0000
0010
0000
0010
,
0000
0010
0000
0010
,
0000
2000
0000
3002
,
0003
2002
0000
0000
,
3003
0000
2001
3002
0000
0000
0000
0000
,
0000
0000
0000
0000
,
0000
0000
0000
0000
,
0000
0000
0000
0000
,
0000
0000
0000
0000
,
0000
0000
0000
0000
,
0000
0000
0000
0000
,
1003
0000
0000
0000
;

//--------------- dance-single - ----------------
#NOTES:
     dance-single:
     :
     Easy:
     9:
     0,0,0,0,0:
0000
0000
0000
0000
,
0000
0000
0000
0000
,
0000
0000
0000
0000
,
0000
0000
0000
0002
2003
0000
0000
0000
,
3000
1001
0000
0000
,
0000
0110
0000
0000
,
0000
1100
0000
0011
,
0000
1010
0000
0101
,
0000
1000
1000
0001
,
0001
0000
1000
0100
0010
0001
1000
0000
,
0001
0000
1000
0010
0100
0001
1000
0000
,
0001
0000
1000
1000
1000
0000
0100
0010
,
0010
0001
2000
0000
0000
0001
0002
0000
,
0000
3003
1002
0000
2000
3003
0000
0000
,
0000
0000
0000
1001
,
1000
1000
0000
0001
,
0010
0100
1000
1001
,
0001
0001
0000
1000
,
0100
0010
0001
1001
,
1000
1000
1000
0001
,
0001
0001
0001
0100
,
0100
0100
0100
0010
,
0010
0010
0010
0110
,
0100
0100
0000
1000
,
0010
0100
0001
0110
,
0010
0010
0000
0001
,
0100
0010
1000
0110
,
0010
0010
0010
0100
,
0100
0100
0100
1000
,
1000
1000
1000
0001
,
0001
0001
0001
1000
,
0001
0000
0000
2000
3000
0000
0000
1000
,
0000
0000
0200
0300
0000
0000
0100
0000
,
0100
0000
0000
0020
0030
0000
0000
0010
,
0000
0000
0002
0003
0000
0000
1000
0001
,
1000
0000
1000
0000
0000
0002
0003
0000
,
0000
0001
0000
0000
0200
0300
0000
0000
,
0100
0000
0000
0020
0030
0000
0000
0010
,
0000
0010
0000
0010
0000
0000
2000
3000
,
0002
0003
1001
0000
0001
0000
0000
2000
,
3000
1000
0000
1000
0000
0000
0020
0030
,
0010
0000
0010
0000
0010
0000
0000
0200
,
0300
0100
0000
0100
0000
0000
0002
0003
,
1000
0000
0001
0000
1000
0000
2002
3003
,
0002
0003
0001
0000
0001
0000
0000
0020
,
0030
0010
0000
0010
0000
0010
0000
0000
,
0200
0300
0100
0000
0100
0000
0100
0000
,
0100
2000
0000
0001
,
0000
0000
3000
0000
1000
0000
0000
1000
0000
0000
1000
0000
0000
1000
0000
0000
,
1000
0000
1000
0000
0100
0000
0000
0100
0000
0000
0100
0000
0000
0100
0000
0000
,
0100
0000
0100
0000
0010
0000
0000
0010
0000
0000
0010
0000
0000
0010
0000
0000
,
0010
0000
0010
0000
0001
0000
0000
0001
0000
0000
0001
0000
0000
0001
0000
0000
,
0001
0000
0001
0000
1000
0000
0000
1000
0000
0000
1000
0000
0000
1000
0000
0000
,
1000
0000
1000
0000
0010
0000
0000
0010
0000
0000
0010
0000
0000
0010
0000
0000
,
0010
0000
0010
0000
0100
0000
0000
0100
0000
0000
0100
0000
0000
0100
0000
0000
,
0100
0000
0100
0000
0001
0000
0000
0001
0000
0000
0001
0000
0000
0001
0000
0000
,
0001
0001
1000
0000
0100
0000
1000
0000
,
0001
0100
0001
1000
,
0001
1000
0100
0010
,
0001
1000
0010
0100
,
0001
1000
0010
1000
,
0001
0010
0001
1000
,
0001
1000
0010
0100
,
0001
1000
0100
0010
,
0001
0001
0010
0001
,
1000
0010
1000
0001
,
1000
0001
0010
0100
,
1000
0001
0100
0010
,
1000
0001
0100
0001
,
1000
0100
1000
0001
,
1000
0001
0100
0010
,
1000
0001
0010
0100
,
1000
0000
1000
0100
0010
0000
0001
1000
,
0010
0100
0002
0000
1003
0000
2000
0000
,
3001
0000
2001
0002
3003
0000
0000
0000
,
0000
0000
0000
0000
,
0000
0000
0000
0000
,
0000
0000
0000
0000
,
0000
0000
0000
0000
,
0000
0000
0000
0000
,
0000
0000
0000
0000
,
1001
0000
0000
0000
;

//--------------- dance-single - ----------------
#NOTES:
     dance-single:
     :
     Medium:
     9:
     0,0,0,0,0:
0000
0000
0000
0000
,
0000
0000
0000
0000
,
0000
0000
0000
0000
,
0000
0000
0000
0000
0000
0000
0000
0000
0000
0000
0000
0000
0002
0000
0000
0000
2003
0000
0000
0000
0001
0000
0000
0000
0001
0000
0000
0000
0001
0000
0000
3000
,
0001
1001
0000
1000
,
0000
1001
0000
0001
,
0000
1001
1000
1001
,
0001
0000
1001
1000
1001
0000
1001
0001
,
1001
0000
1000
0000
1001
0000
0100
0000
0010
0000
0001
0000
1000
0001
1000
0001
,
1000
0001
1000
0010
0100
0001
1000
0100
,
0010
0001
1000
0100
0001
0010
1000
0010
,
0001
0000
0100
0000
1000
0000
0100
0000
0010
0000
0000
0001
1000
0000
0010
0100
,
0001
1000
0002
0000
0000
0003
2000
0000
,
0000
3000
2001
0000
0002
3003
0000
0000
,
0000
0000
0000
1001
,
1000
0100
0010
0001
,
0010
0100
1000
1001
,
0001
0010
0100
1000
,
0100
0010
0001
1001
,
0100
1000
0100
0010
,
0001
0010
0001
1000
,
0100
0010
0001
1000
,
0100
0010
0001
1001
,
1000
0010
0100
0001
,
0100
0010
1000
1001
,
0001
0100
0010
1000
,
0010
0100
0001
1001
,
0010
1000
0010
0100
,
0001
0100
0001
1000
,
0010
0100
0001
1000
,
0010
0100
0001
1001
,
1000
0000
0000
2002
3003
0010
0000
0100
,
0000
0000
0220
0330
0100
0000
1000
0000
,
0100
0000
0000
2200
3300
0001
0000
0100
,
0000
0000
0202
0303
0001
0000
1000
0001
,
1000
0000
0010
0000
0000
2020
3030
0001
,
0000
0010
0000
0000
0022
0033
1000
0000
,
0001
0000
0000
2002
3003
0010
0000
0100
,
0000
0010
0000
0100
0000
0000
0220
0330
,
2000
3000
0020
0030
0001
0000
0000
0022
,
0033
0010
0000
1000
0000
0000
2020
3030
,
1000
0000
0100
0000
1000
0000
0000
2200
,
3300
0100
0000
0001
0000
0000
0202
0303
,
1000
0100
0010
0002
,
1003
0000
0100
0000
0010
0000
0000
0202
,
0303
0001
0000
0010
0000
0100
0000
0000
,
2020
3030
1000
0000
0001
0000
1000
0000
,
0001
1000
0001
1000
,
0001
0000
0000
0000
1000
0000
0000
0100
0000
0000
1000
0000
0000
0100
0000
0000
,
1000
0000
0100
0000
0010
0000
0000
0001
0000
0000
0010
0000
0000
0001
0000
0000
,
0010
0000
0100
0000
1000
0000
0000
0010
0000
0000
1000
0000
0000
0010
0000
0000
,
1000
0000
0010
0000
0100
0000
0000
0001
0000
0000
0100
0000
0000
0001
0000
0000
,
0100
0000
0010
0000
1000
0000
0000
0100
0000
0000
0010
0000
0000
0001
0000
0000
,
0100
0000
0010
0000
1000
0000
0000
0010
0000
0000
0100
0000
0000
0001
0000
0000
,
0010
0000
0100
0000
1000
0000
0000
0100
0000
0000
0010
0000
0000
0001
0000
0000
,
1000
0000
0100
0000
0010
0000
0000
0001
0000
0000
1000
0000
0000
0010
0000
0000
,
0100
0001
1000
0000
1000
0000
1000
0000
,
0001
0001
0001
1000
,
1000
0100
0100
0010
,
0010
0001
0001
1000
,
1000
0010
0010
0010
,
0100
0100
0100
0001
,
0001
0010
0010
0100
,
0100
1000
1000
0001
,
0001
1000
1000
1000
,
0100
0100
0100
1000
,
1000
0010
0010
0100
,
0100
0001
0001
0010
,
0010
0001
0001
0001
,
0010
0010
0010
0001
,
0001
0100
0100
0010
,
0010
1000
1000
0100
,
0100
0000
0000
0000
0001
0000
0010
0000
0100
0000
0000
1000
0001
0000
0100
0010
,
1000
0001
2000
0000
0000
3000
0002
0000
,
0000
0003
2001
0002
3003
0000
0000
0000
,
0000
0000
0000
0000
,
0000
0000
0000
0000
,
0000
0000
0000
0000
,
0000
0000
0000
0000
,
0000
0000
0000
0000
,
0000
0000
0000
0000
,
1001
0000
0000
0000
;

//--------------- dance-single - ----------------
#NOTES:
     dance-single:
     :
     Hard:
     12:
     0,0,0,0,0:
0000
0000
0000
0000
,
0000
0000
0000
0000
,
0000
0000
0000
0000
,
0000
0000
0000
0000
0000
0000
0001
0000
1000
0001
1000
0001
1000
0001
1000
0001
,
0100
1001
0000
0100
,
0000
1001
0000
0010
,
0000
1001
0100
1001
,
0010
0000
0000
0000
1100
0000
0100
0000
0101
0000
0000
0001
1000
0000
1000
0100
,
0010
0000
0000
0110
0000
0000
1001
0000
0000
0100
0000
0000
0010
0000
0000
0001
0000
0000
1000
0001
1000
0001
1000
0001
,
1000
0010
0100
0001
1000
0100
1000
0100
0010
0001
0010
0001
1000
0010
1000
0010
,
0100
0001
0100
0001
1001
0000
0100
0010
0100
0000
0011
0000
1010
0000
1001
0000
,
1000
0001
1000
0000
1001
0000
0100
0000
1001
0000
0000
1000
0010
0000
0100
0001
,
0010
0000
0100
0000
1000
0100
0010
0001
1000
0000
0001
0000
1000
0010
0100
0001
,
1000
0000
0000
0000
0001
0000
0000
0000
1002
0000
0000
0000
0000
0000
0000
0000
2000
0000
0000
0000
0000
3003
0000
0000
0000
0000
0000
0000
0000
0000
0000
0000
,
0000
0000
0000
1001
,
1000
0100
1000
0000
0001
0010
0001
1000
,
0010
1000
0001
0000
0001
0000
1001
0000
,
0001
0100
0001
0000
1000
0010
1000
0001
,
0010
0001
1000
0000
1000
0000
1001
0000
,
1000
0001
1000
0000
0100
0010
0100
0000
,
0001
1000
0001
0000
0010
0100
0010
0000
,
1000
0000
1001
0000
1000
0010
1000
0001
,
0010
0001
1000
0100
0010
0000
1001
0000
,
0001
0010
0001
0000
1000
0100
1000
0001
,
0100
0001
1000
0000
1000
0000
1001
0000
,
1000
0010
1000
0000
0001
0100
0001
1000
,
0100
1000
0001
0000
0001
0000
1001
0000
,
0001
1000
0001
0000
0010
0100
0010
0000
,
1000
0001
1000
0000
0100
0010
0100
0000
,
0001
0000
1000
0100
1000
0001
0100
0001
,
1000
0010
0100
0000
0001
0000
1001
0000
,
1000
0001
0000
1001
0000
0000
0000
0100
,
1000
1100
0001
1000
,
0100
0010
0000
0110
0000
0000
0000
0010
,
1000
0000
0000
0000
1010
0000
0000
0000
1000
0000
0000
0000
0001
1000
0001
0000
,
1001
0000
0001
1000
0000
1001
0000
0000
,
0000
0010
0001
0000
0011
0000
0000
0000
,
0010
0100
0000
0110
0000
1000
0000
0001
,
0000
0000
0000
0100
0001
0000
0101
0000
,
1000
0001
1001
0000
1000
0100
0000
1100
,
0000
0000
0000
0001
0100
0000
0101
0000
,
0010
0000
0000
0000
1000
0010
0000
1010
,
0000
0000
0000
0001
0010
0000
0011
0000
,
1000
0000
0000
0000
0000
0000
0000
0000
0100
0000
0000
0000
0000
0000
0000
0000
0010
0000
0000
0000
0000
0000
0000
0000
2002
0000
0000
0000
0000
0000
0000
3003
,
1001
0000
0000
0000
1000
0001
0000
1001
,
0000
0000
0000
2000
3000
0001
1000
0000
,
1001
1000
0100
0010
,
0001
1000
0001
1000
,
0001
0000
0000
0000
1000
0100
0000
1000
0100
0000
1000
0100
0000
1000
0100
0000
,
1000
0100
0010
0001
0100
0010
0000
0100
0010
0000
0100
0010
0000
0100
0010
0000
,
0100
0010
1000
0100
0010
0001
0000
0010
0001
0000
0010
0001
0000
0010
0001
0000
,
0010
0001
0010
0100
1000
0010
0000
1000
0010
0000
1000
0010
0000
1000
0010
0000
,
1000
0010
0100
0001
0010
0100
0000
0010
0100
0000
0010
0100
0000
0010
0100
0000
,
0010
0100
1000
0010
0100
0001
0000
0100
0001
0000
0100
0001
0000
0100
0001
0000
,
0100
0001
0100
0010
1000
0100
0000
1000
0100
0000
0010
0001
0000
0010
0001
0000
,
1000
0100
0010
0001
1000
0010
0000
1000
0010
0000
0100
0001
0000
0100
0001
0000
,
1000
0001
1000
0000
1001
0000
0000
0000
0100
0000
0000
0000
0100
0000
0000
0000
,
1001
0010
0010
1001
,
0110
1000
0100
0010
,
0001
1100
1100
0011
,
0011
1001
0010
0010
,
1001
0100
0100
1001
,
0110
0001
0010
0100
,
1000
0011
0011
1100
,
1100
0110
1000
1000
,
0110
0001
0001
0110
,
1001
1000
0010
0100
,
0001
1010
1010
0101
,
0101
0110
0001
0001
,
0110
1000
1000
0110
,
1001
0001
0100
0010
,
1000
0101
0101
1010
,
1010
0000
0000
0000
1001
0000
0100
0000
1001
0000
0000
0010
0110
0000
1000
0100
,
1100
0000
0011
0000
1000
0100
0010
0001
1000
0000
1001
0000
0001
0100
0010
1000
,
0100
0110
1002
2000
0000
0000
3003
0000
,
0000
0000
0000
0000
,
0000
0000
0000
0000
,
0000
0000
0000
0000
,
0000
0000
0000
0000
,
0000
0000
0000
0000
,
0000
0000
0000
0000
,
2002
3003
0000
0000
0000
0000
0000
0000
0000
0000
0000
0000
0000
0000
0000
0000
;

//--------------- dance-single - ----------------
#NOTES:
     dance-single:
     :
     Challenge:
     13:
     0,0,0,0,0:
0000
0000
0000
0000
,
0000
0000
0000
0000
,
0000
0000
0000
0000
,
0000
0000
0000
0000
0000
0000
0001
0000
1000
0100
0010
0001
0010
0100
1000
0001
,
1000
1100
0000
0011
,
0000
1010
0000
0101
,
0000
1100
1001
0101
,
1001
0000
0000
0000
1010
0000
0110
0000
0011
0000
0000
1000
1100
0000
0001
0010
,
0101
0000
0000
0000
0000
0000
0110
0000
0000
0000
0000
0000
0011
0000
0000
0010
0000
0000
0100
0000
0000
1000
0000
0000
0001
0000
0000
0100
0000
0000
0010
0000
0000
1000
0000
0000
0001
0000
0010
0000
0100
0000
1000
0000
0010
0000
0100
0000
,
0001
0000
0010
0000
0100
0000
1000
0000
0000
0100
0000
0000
0110
0000
0000
0001
0000
0000
0010
0000
0000
0100
0000
0000
1000
0000
0000
0010
0000
0000
0100
0000
0000
0001
0000
0000
1000
0000
0000
0100
0000
0000
0010
0000
0000
0001
0000
0000
,
0100
0010
0100
0001
0010
0100
1000
0001
1001
0000
0110
0100
0010
0000
0011
0000
,
1001
0100
1001
0000
1001
0000
0110
0000
0101
0000
0000
1000
1100
0000
0001
0100
,
0011
0000
1010
0000
1001
0100
0010
0001
0100
0010
0100
0001
0010
0100
1000
0010
,
0100
0000
0010
0000
1000
0000
0000
0000
1002
0000
0000
0000
0000
0000
0000
0000
0200
0000
0000
0000
0000
0303
0000
0000
0000
0000
0000
0000
0000
0000
0000
0000
,
0000
0000
0000
1001
,
1000
0100
0001
0000
0001
0010
1000
0010
,
0001
1100
0110
1001
,
0001
0010
1000
0000
1000
0100
0001
0100
,
1000
0011
0110
1001
,
1000
0100
0010
0000
1000
0100
0001
0000
,
0001
0010
0100
0000
0001
0010
1000
0000
,
0110
0000
1001
0000
1000
0100
0010
0001
,
0100
0010
1000
0100
0010
0001
1001
0000
,
1000
0010
0001
0000
0001
0100
1000
0100
,
0001
1010
0110
1001
,
0001
0100
1000
0000
1000
0010
0001
0010
,
1000
0101
0110
1001
,
1000
0010
0100
0000
1000
0010
0001
0000
,
0001
0100
0010
0000
0001
0100
1000
0000
,
0110
0000
1001
0010
0100
1000
0010
0100
,
0001
0010
0100
1000
0010
0100
1001
0000
,
0100
0010
0000
1001
0000
0001
0010
0100
,
1000
0000
1100
0000
1000
0100
0010
0001
,
0100
0010
0000
1001
0000
1000
0100
0010
,
0001
0000
0000
0000
0011
0000
0000
0000
0001
0000
0100
0000
1000
0010
0001
1000
,
1000
0100
0010
0001
0000
1001
0000
0001
,
0010
0100
1000
0000
1100
0000
0010
1000
,
0100
0010
0000
1001
0000
0010
0100
0001
,
0010
0100
1000
0010
0100
0000
1001
0000
,
1000
0100
0010
0001
0110
0000
0000
0000
1000
0000
0100
0000
0000
0000
0101
0000
,
0000
0001
0010
0100
1000
0000
0101
0000
,
1000
0010
0100
0001
0010
0100
0000
1001
,
0000
1000
0100
0010
0001
0000
1010
0000
,
1000
0000
0100
0000
0001
0000
0100
0000
1000
0000
0000
0000
1000
0100
0010
0001
,
1001
0000
1000
0010
0100
0001
0000
1100
,
0000
0000
0001
0010
1000
0100
0010
0000
,
1001
0000
1000
0100
0010
0001
1000
0100
,
0010
0001
1000
0000
0100
0000
0010
0000
,
0001
0000
0000
0000
1000
0100
0000
1000
0010
0000
1000
0100
0000
1000
0010
0000
,
1000
0100
0010
0001
0100
0010
0000
0001
0100
0000
0001
0010
0000
0001
0100
0000
,
0001
0010
0100
1000
0010
0100
0000
1000
0100
0000
1000
0010
0000
1000
0100
0000
,
1000
0010
0100
0001
0010
0100
1000
0100
0010
0001
0100
0010
1000
0100
0010
0001
,
1000
0010
0100
0001
1000
0100
0000
0100
0001
0000
0001
0010
0000
0010
1000
0000
,
0001
0100
0010
1000
0001
0010
0000
0010
1000
0000
1000
0100
0000
0100
0001
0000
,
1000
0100
0010
0001
1000
0010
0000
0010
0001
0000
0001
0100
0000
0100
1000
0000
,
0001
0010
0100
1000
0001
0100
0000
0100
1000
0000
1000
0010
0000
0010
0001
0000
,
1000
0100
0010
0001
1001
0000
0000
0000
1100
0000
0000
0000
1100
0000
0000
0000
,
1001
0101
0101
1001
,
1001
0110
0110
1001
,
1001
0110
0110
1001
,
1001
0110
1010
1010
,
0110
0011
0011
0110
,
0110
1001
1001
0110
,
0110
1001
1001
0110
,
0110
1001
1100
1100
,
0110
0011
0011
0110
,
1001
1100
0101
0011
,
1010
0110
1001
0110
,
1001
0110
1010
1010
,
1001
0101
0101
1001
,
0110
1010
0011
0101
,
1100
1001
0110
1001
,
0110
0000
0000
0000
1001
0000
1010
0000
0011
0000
0000
1000
1100
0000
0001
0010
,
0101
0000
0110
0000
1001
0100
0001
0100
1000
0010
0001
0010
1000
0100
0001
0100
,
1000
0000
0000
0000
0100
0000
0000
0000
0010
0000
0000
0000
0001
0000
0000
0000
1002
0000
0000
0000
0000
0000
0000
0000
0020
0000
0000
0000
0030
0200
0000
0000
0000
0300
2000
0000
0000
0000
0000
0000
0000
0000
0000
0000
0000
0000
0000
0000
0000
0000
0000
0000
0000
0000
0000
0000
0000
0000
0000
0000
0000
0000
0000
0000
,
0000
0000
0000
0000
,
0000
0000
0000
0000
,
0000
0000
0000
0000
,
0000
0000
0000
0000
,
0000
0000
0000
0000
,
0000
0000
0000
0000
0000
0000
0000
0000
0000
0000
0000
0000
0000
0000
0000
0000
0000
0000
0000
0000
0000
0000
0000
0000
0000
0000
0000
0000
0000
0000
0000
0000
0000
0000
0000
0000
0000
0000
0000
0000
0000
0000
0000
0000
0000
0000
0000
0000
0000
0000
0000
0000
0000
0000
0000
0000
0000
0000
0000
0000
0000
0000
0000
3003
,
0220
0330
0000
0000
0000
0000
0000
0000
0000
0000
0000
0000
0000
0000
0000
0000
0000
0000
0000
0000
0000
0000
0000
0000
0000
0000
0000
0000
0000
0000
0000
0000
;
