#TITLE:Dignity;
#SUBTITLE:;
#ARTIST:Crash;
#TITLETRANSLIT:;
#SUBTITLETRANSLIT:;
#ARTISTTRANSLIT:;
#GENRE:;
#CREDIT:;
#MUSIC:Dignity.ogg;
#BANNER:Dignity-bn.png;
#BACKGROUND:Dignity-bg.png;
#CDTITLE:;
#SAMPLESTART:2.604;
#SAMPLELENGTH:19.692;
#SELECTABLE:YES;
#OFFSET:-0.142;
#BPMS:0.000=195.000;
#STOPS:;
#BGCHANGES:;
#FGCHANGES:;

//--------------- dance-single - ----------------
#NOTES:
     dance-single:
     :
     Beginner:
     13:
     0,0,0,0,0:
0000
0000
0000
0000
,
0000
0000
0000
0000
,
1000
0100
0001
0100
1000
1000
0010
0010
,
0001
0010
1000
0010
0001
0001
0100
0100
,
1000
0010
0001
0010
1000
1000
0100
0100
,
0001
0010
0001
0010
0100
1000
0100
1000
0001
0100
0001
0100
0010
1000
0010
1000
,
0001
0100
1000
0100
0001
0001
0010
0010
,
1000
0010
0001
0010
1000
1000
0100
0100
,
0001
0010
1000
0010
0001
0001
0100
0100
,
1000
0010
1000
0010
0100
0001
0100
0001
1000
0100
1000
0100
0010
0001
0010
0001
,
1000
0100
0010
0001
0100
0100
0010
0010
,
1000
0010
0100
0001
0010
0010
0100
0100
,
1000
0010
0100
0010
1000
0100
0010
0100
,
1000
0010
1000
0010
0100
0010
0100
0010
0100
0001
0100
0001
0010
0001
0010
0001
,
1000
0100
0100
0001
1000
0010
0010
0001
,
0001
0010
0010
1000
0001
0100
0100
1000
,
1000
0000
0010
0000
0010
0000
0001
0000
0100
0000
0100
0000
1000
0010
0100
0001
,
1000
0100
1000
0100
0010
0100
0010
0100
0010
0001
0010
0001
0100
0001
0100
0001
,
1001
0000
0000
0000
0000
0000
0000
0000
0000
0000
0000
0000
0000
0000
0000
0000
0000
0000
0000
0000
0000
0000
0000
0000
2020
0000
0000
0000
0000
0000
0000
3030
,
0011
0000
0000
0000
0000
0000
0000
0000
0000
0000
0000
0000
0000
0000
0000
0000
0000
0000
0000
0000
0000
0000
0000
0000
0202
0000
0000
0000
0000
0000
0000
0303
,
1100
0000
0000
0000
0000
0000
0000
0000
0000
0000
0000
0000
0000
0000
0000
0000
0000
0000
0000
0000
0000
0000
0000
0000
0220
0000
0000
0000
0000
0000
0000
0330
,
1000
0100
1000
0010
0100
0001
0010
0001
0100
0010
1000
0100
1000
0010
0100
0001
,
1001
0000
0000
0000
0000
0000
0000
0000
0000
0000
0000
0000
0000
0000
0000
0000
0000
0000
0000
0000
0000
0000
0000
0000
2200
0000
0000
0000
0000
0000
0000
3300
,
0101
0000
0000
0000
0000
0000
0000
0000
0000
0000
0000
0000
0000
0000
0000
0000
0000
0000
0000
0000
0000
0000
0000
0000
0022
0000
0000
0000
0000
0000
0000
0033
,
1010
0000
0000
0000
0000
0000
0000
0000
0000
0000
0000
0000
0000
0000
0000
0000
0000
0000
0000
0000
0000
0000
0000
0000
0220
0000
0000
0000
0000
0000
0000
0330
,
1000
0010
1000
0100
0010
0001
0100
0001
0010
0100
1000
0010
1000
0100
0010
0001
,
1000
0100
1000
0100
0010
0100
0010
0100
,
0010
0001
0010
0001
0100
0001
0100
0001
,
1000
0010
1000
0010
0100
0010
0100
0010
,
0100
0001
0100
0001
0010
0001
0010
0001
,
1010
0011
0000
0101
1100
0000
0110
1001
,
0000
0000
0000
0000
,
1100
0101
0000
0011
1010
0000
0110
1001
,
0000
0000
0000
0000
,
1000
0010
0001
0010
1000
0100
0001
0100
,
1100
1010
0000
0011
0101
0000
1001
0110
,
1000
0100
1000
0100
0010
0001
0010
0001
,
1000
0010
1000
0010
0100
0001
0100
0001
,
1000
0100
0001
0100
1000
0010
0001
0010
,
1010
1100
0000
0101
0011
0000
1001
0110
,
1000
0010
1000
0010
0100
0001
0100
0001
,
1000
0100
1000
0100
0010
0001
0010
0001
,
1000
0010
0001
0100
1000
0100
0001
0010
,
1010
0011
0000
0101
1100
0000
0110
1001
,
1000
0010
0100
0001
0010
0100
1000
0010
,
1000
0100
0010
0001
0100
0010
1000
0100
,
1100
1100
0000
0101
0101
0000
0011
0011
,
0000
1010
1010
0000
1000
0100
0001
0100
,
1010
1010
0000
0011
0011
0000
0101
0101
,
0000
0000
1100
0000
1100
0000
0000
0000
1000
0100
0010
0001
0100
0010
0100
0010
,
1100
1010
0000
0011
0101
0000
1010
1100
,
0000
0101
0011
0000
1000
0010
0001
0010
,
1010
1100
0000
0101
0011
0000
1100
1010
,
0000
0011
0101
0000
1000
0100
0010
0001
,
1000
0100
0010
0100
1000
0100
0010
0001
0010
0100
0010
0100
,
1000
0010
0100
0010
1000
0010
0100
0001
0100
0010
0100
0010
,
1000
0100
0010
0001
0100
0010
1000
0100
0010
0001
0100
0010
,
1000
0100
0001
0100
1000
0100
0001
0100
,
1000
0010
0001
0010
1000
0010
0001
0010
,
1000
0100
1000
0100
1000
0010
1000
0010
,
0100
0010
0100
0010
0100
0001
0100
0001
0010
0001
0010
0001
0010
0100
0010
0100
,
1000
0010
0100
1000
0100
0001
0010
0100
,
1000
0100
0010
1000
0010
0001
0100
0010
,
1000
0100
0001
0100
1000
0010
0001
0010
,
1000
0100
1000
0100
0010
0100
0010
0100
0010
0001
0010
0001
0100
0001
0100
0001
,
1000
0100
1000
0100
1000
0100
1000
0100
1000
0100
1000
0100
1000
0100
1000
0100
,
1000
0010
1000
0010
1000
0010
1000
0010
1000
0010
1000
0010
1000
0010
1000
0010
,
0100
0001
0100
0001
0100
0001
0100
0001
0100
0001
0100
0001
0100
0001
0100
0001
,
0010
0001
0010
0001
0010
0001
0010
0001
0010
0001
0010
0001
0010
0001
0010
0001
,
1000
0100
0010
0100
1000
0100
0010
0001
0010
0100
0010
0100
1000
0100
0010
0001
,
1000
0100
1000
0100
0010
0001
0010
0100
1000
0100
0010
0100
1000
0100
0010
0001
,
1000
0010
0100
0010
1000
0010
0100
0001
0100
0010
0100
0010
1000
0010
0100
0001
,
1000
0010
1000
0010
0100
0001
0100
0010
1000
0010
0100
0010
1000
0010
0100
0001
,
2002
0000
0000
3003
,
0110
0000
0000
0000
0000
0000
0000
0000
1000
0100
1000
0100
0010
0001
0010
0001
,
1000
0100
0001
0100
1000
0100
0010
0100
,
1000
0010
0001
0010
1000
0010
0100
0010
,
1000
0100
0001
0100
1000
0010
0001
0010
,
1000
0100
1000
0100
0010
0100
0010
0100
0010
0001
0010
0001
0100
0001
0100
0001
,
1000
0010
0100
0010
1000
0010
0001
0010
,
1000
0100
0010
0100
1000
0100
0001
0100
,
1000
0010
0001
0010
1000
0100
0001
0100
,
1000
0010
1000
0010
0100
0010
0100
0010
0100
0001
0100
0001
0010
0001
0010
0001
,
1001
0000
0000
0000
,
1010
0011
0000
0101
1100
0000
0110
1001
;

//--------------- dance-single - ----------------
#NOTES:
     dance-single:
     :
     Easy:
     14:
     0,0,0,0,0:
0000
0000
0000
0000
,
0000
0000
0000
0000
1001
0110
1001
0110
,
1000
0100
0001
0100
1000
0000
0001
0000
1000
0010
0001
0010
1000
0000
0001
0000
,
1100
1000
1010
0010
0011
0001
0101
0100
,
0001
0010
1000
0010
0001
0000
1000
0000
0001
0100
1000
0100
0001
0000
1000
0000
,
0011
0000
0001
0000
0101
0000
0100
0000
1100
0000
1000
0100
0010
0001
0010
0100
,
1000
0000
0010
0000
0001
0000
0010
0000
1000
0100
0001
0000
0100
0010
0001
0000
,
1000
0100
1000
0100
0010
0001
0010
0001
0100
0000
0010
0000
0100
0000
0010
0000
,
1000
0100
0010
0100
1000
0000
0010
0000
0100
0000
0001
0000
0010
0100
0010
0100
,
1000
0010
0100
0010
1000
0001
0010
0100
1000
0010
0100
0010
1000
0100
0010
0001
,
1001
0000
0100
0000
0010
0000
0001
0000
0100
0010
0100
0010
1000
0001
1000
0001
,
1000
0000
0010
0000
0100
0000
0001
0000
0010
0100
0010
0100
1000
0001
1000
0001
,
1000
0010
0100
0010
1000
0000
0100
0000
0010
0000
0001
0000
0100
0000
0010
0000
,
1000
0100
1000
0100
0010
0100
0010
0100
0010
0001
0010
0001
0100
0001
0100
0001
,
1000
0100
0001
0000
1000
0010
0001
0000
0100
0000
0010
0000
0100
0000
0010
0000
,
0001
0010
1000
0000
0001
0100
1000
0000
0010
0000
0100
0000
0010
0000
0100
0000
,
1000
0000
0010
0000
0100
0000
0001
0000
0010
0000
0100
0000
1000
0001
1000
0001
,
1000
0100
1000
0001
0100
0001
1000
0010
1000
0001
0010
0001
1000
0010
0100
0001
,
1001
0000
0010
0100
0010
0000
1010
0000
0100
0000
0010
0000
0011
0000
0100
0000
,
1001
0000
0100
0000
0100
0010
0101
0000
0010
0000
0100
0000
1100
0000
0010
0000
,
1001
0000
0100
0000
0010
0100
0110
0000
1000
0000
0100
0000
0110
0000
0001
0000
,
1000
0010
0100
1000
0100
0001
0010
1000
0010
0001
0100
1000
0100
0010
1000
0100
,
1001
0000
0010
0100
0010
0000
1010
0000
0100
0000
0010
0000
0011
0000
0100
0000
,
1001
0000
0100
0000
0100
0010
0101
0000
0010
0000
0100
0000
1100
0000
0010
0000
,
1001
0000
0100
0000
0010
0100
0110
0000
1000
0000
0100
0000
0110
0000
0001
0000
,
1000
0100
0010
1000
0010
0001
0100
1000
0100
0001
0010
1000
0010
0100
1000
0010
,
1000
0100
1000
0000
0001
0100
0001
0000
1000
0010
1000
0000
0001
0010
0001
0000
,
1000
0100
0010
0000
0100
0010
0001
0000
0001
0100
0010
0000
0100
0010
1000
0000
,
1000
0010
1000
0000
0001
0010
0001
0000
1000
0100
1000
0000
0001
0100
0001
0000
,
1000
0010
0100
0000
0010
0100
0001
0000
0001
0010
0100
0000
0010
0100
1000
0000
,
1100
0101
0000
0101
1100
0000
0110
1001
,
0000
0000
0000
0000
,
0011
1010
0000
1010
0011
0000
0110
1001
,
1000
0010
0001
0100
1000
0100
0001
0010
,
1100
0100
0010
0010
0001
0010
0100
0100
,
1100
0101
0000
0101
1100
0000
0110
1001
,
1000
0100
0001
0100
1000
0100
0001
0100
,
1000
0000
0100
0000
0001
0000
0100
0000
1000
0010
0100
0001
0010
0100
1000
0010
,
1010
0010
0100
0100
0001
0100
0010
0010
,
1010
0011
0000
0011
1010
0000
0110
1001
,
1000
0010
0001
0010
1000
0010
0001
0010
,
1000
0000
0010
0000
0001
0000
0010
0000
1000
0100
0010
0001
0100
0010
1000
0100
,
1010
0010
0100
0100
0001
0010
0100
0100
,
1100
0101
0000
0011
1010
0000
1001
0110
,
1000
0100
0001
0100
1000
0010
0001
0010
,
1000
0100
0001
0100
1000
0010
0001
0010
,
1010
1010
0000
0011
0011
0000
0101
0101
,
0000
1100
1100
0000
0110
0001
0010
0100
,
1010
1010
0000
0011
0011
0000
0101
0101
,
0000
0000
1100
0000
1100
0000
0000
0000
1100
0100
0010
0001
0100
0010
1000
0100
,
1100
1010
0000
0011
0101
0000
1100
1001
,
0000
0011
1001
0000
1010
0010
0001
0010
,
1100
0101
0000
0011
1010
0000
1010
0110
,
0000
0101
0110
0000
1001
0010
0100
0001
,
1000
0100
0010
0100
1000
0010
0100
0001
0010
0100
0010
0100
1000
0010
0100
0001
,
1000
0010
0100
0010
1000
0100
0010
0001
0100
0010
0100
0010
1000
0100
0010
0001
,
1000
0100
0010
0100
1000
0100
0001
0100
1000
0010
0100
0010
1000
0010
0001
0010
,
1100
0100
0110
1000
0011
0001
0101
0010
,
1010
0000
0010
0000
0110
0000
1000
0000
0101
0000
0001
0000
0010
0100
0010
0100
,
1001
0010
0011
0001
1001
0100
0101
0001
,
1000
0010
1000
0010
0100
0010
0100
0010
0100
0001
0100
0001
0010
0001
0010
0001
,
1000
0100
0001
0100
1000
0010
0001
0010
,
1000
0100
0010
0001
0100
0010
1000
0000
0001
0010
0100
1000
0010
0100
0001
0000
,
1000
0100
1000
0100
1000
0000
0110
0000
0001
0100
0001
0100
0001
0000
0110
0000
,
1000
0100
1000
0100
0001
0100
0001
0100
1000
0010
1000
0010
0001
0010
0001
0010
,
1000
0100
0001
0100
1000
0100
0001
0100
1000
0100
0001
0100
1000
0100
0001
0100
,
1000
0100
0001
0100
1000
0100
0001
0100
1000
0100
0001
0100
1000
0100
0001
0100
,
1000
0010
0001
0010
1000
0010
0001
0010
1000
0010
0001
0010
1000
0010
0001
0010
,
1000
0010
0001
0010
1000
0010
0001
0010
1000
0010
0001
0010
1000
0010
0001
0010
,
1000
0100
1000
0010
0100
0001
0010
0001
1000
0100
0010
1000
0010
0001
0100
0010
,
1000
0010
1000
0100
0010
0001
0100
0001
1000
0010
0100
1000
0100
0001
0010
0100
,
1000
0010
1000
0100
0010
0001
0100
0001
1000
0100
0001
0100
0010
0001
0100
0010
,
1000
0100
1000
0010
0100
0001
0010
0001
1000
0010
0001
0010
0100
0001
0010
0100
,
1000
0010
1000
0010
1000
0010
1000
0010
1000
0010
1000
0010
1000
0010
1000
0010
,
1000
0010
0100
1000
0100
0001
0010
1000
0010
0001
0100
1000
0100
0010
1000
0100
,
1000
0010
0001
0000
0010
0100
1000
0000
0010
0100
0010
0000
0001
0010
1000
0000
,
1000
0100
0001
0000
0100
0010
1000
0000
0100
0010
0100
0000
0001
0100
1000
0000
,
1000
0100
1000
0000
0100
0010
0100
0000
0010
0001
0010
0000
0001
0100
0001
0000
,
1000
0100
1000
0100
0010
0100
0010
0100
0010
0001
0010
0001
0100
0001
0100
0001
,
1000
0100
0001
0000
0010
0100
1000
0000
0010
0100
0010
0000
0001
0100
1000
0000
,
1000
0010
0001
0000
0100
0010
1000
0000
0100
0010
0100
0000
0001
0010
1000
0000
,
1000
0010
1000
0000
0010
0100
0010
0000
0100
0001
0100
0000
0001
0010
0001
0000
,
1000
0010
1000
0010
0100
0010
0100
0010
0100
0001
0100
0001
0010
0001
0010
0001
,
0100
0010
0100
0010
0100
0010
0100
0010
0100
0010
0100
0010
0100
0010
0100
0010
,
1100
0101
0000
0011
1010
0000
0110
1001
;

//--------------- dance-single - ----------------
#NOTES:
     dance-single:
     :
     Medium:
     15:
     0,0,0,0,0:
0000
0000
0000
0000
,
0000
0000
0000
0000
,
1000
0100
1000
0100
0010
0001
0010
0001
0100
0010
0100
0010
0100
0001
0100
0001
,
1000
0010
0100
0001
0010
0100
0010
0001
0100
0010
1000
0100
0010
0100
1000
0010
,
0100
0010
0100
0010
1000
0010
1000
0010
0100
0001
0100
0001
0010
0100
0010
0100
,
1000
0010
0100
0001
0010
1000
0010
0001
0100
0010
1000
0100
0010
0001
0010
0100
,
1000
0010
1000
0010
0100
0010
0100
0010
1000
0100
1000
0100
0010
0100
0010
0100
,
1000
0010
0100
0010
1000
0001
0010
0100
1000
0010
0100
0010
1000
0100
0010
0001
,
1000
0010
1000
0010
1000
0100
1000
0100
0010
0001
0010
0001
0100
0010
0100
0010
,
1000
0100
1000
0010
0100
0001
0010
0001
0100
0010
1000
0100
1000
0010
0100
0001
,
1000
0100
1000
0100
0001
0100
0001
0100
0001
0010
0001
0010
1000
0010
1000
0010
,
1000
0100
1000
0010
0100
0001
0010
1000
0010
0001
0100
0010
1000
0100
0010
0001
,
1000
0010
1000
0010
0001
0010
0001
0010
0001
0100
0001
0100
1000
0100
1000
0100
,
1000
0010
1000
0100
0010
0001
0100
1000
0100
0001
0010
0100
1000
0010
0100
0001
,
1000
0100
1000
0100
0001
0010
0001
0010
1000
0010
1000
0010
0001
0100
0001
0100
,
1000
0010
1000
0001
0010
0100
1000
0010
0001
0010
1000
0100
0010
0001
0010
0100
,
1000
0010
1000
0010
0001
0100
0001
0100
1000
0100
1000
0100
0001
0010
0001
0010
,
1000
0100
1000
0001
0100
0010
1000
0100
0001
0100
1000
0010
0100
0001
1000
0100
,
1001
0000
0100
0010
0100
0001
0010
0000
0100
0000
1000
0000
0101
0000
0110
0000
,
1001
0000
0010
0100
0010
1000
0100
0000
0010
0000
0001
0000
1010
0000
0110
0000
,
1001
0000
0010
0100
1000
0010
0001
0000
0100
0000
0010
0000
1100
0000
0101
0000
,
1000
0100
1000
0001
0100
0001
1000
0100
0001
0100
0010
0001
0100
0010
1000
0100
,
0110
0000
1000
0001
1000
0100
0010
0000
0001
0000
0100
0000
1100
0000
1001
0000
,
0110
0000
0001
1000
0001
0010
0100
0000
1000
0000
0010
0000
0011
0000
1001
0000
,
0110
0000
1000
0100
0001
0100
1000
0000
0001
0000
0100
0000
1010
0000
0011
0000
,
1000
0010
1000
0001
0010
0001
1000
0100
0010
1000
0010
0001
0100
0010
1000
0100
,
1000
0010
1000
0001
0010
0100
0001
0100
1000
0010
0100
1000
0100
0001
0010
0100
,
1000
0100
1000
0001
0010
1000
0010
0100
1000
0010
0001
0010
0100
0001
0010
0100
,
1000
0010
1000
0100
0010
1000
0010
0001
0100
0010
0001
0010
1000
0100
0010
0001
,
1000
0100
1000
0100
0001
0100
0010
0001
0100
1000
0100
0010
1000
0100
0010
0001
,
1010
0000
1100
0000
0000
0000
0011
0000
0101
0000
0000
0000
0220
0330
2002
0000
,
3003
0000
0000
0000
,
0101
0000
0011
0000
0000
0000
1100
0000
1010
0000
0000
0000
0220
0330
2002
3003
,
1000
0100
0010
0001
0100
0010
0100
0010
,
1000
0100
0010
0001
0100
0010
0100
0010
,
1100
0101
0010
0101
1100
0001
0110
1001
,
1000
0010
0100
0001
0010
1000
0010
0001
,
1000
0000
0100
0000
0010
0000
0001
0000
0100
0010
1000
0100
1000
0000
0001
0000
,
1000
0010
0100
0001
0010
0100
0010
0100
,
1010
0011
0100
0011
1010
0100
1001
0110
,
1000
0100
0010
0001
0100
1000
0100
0001
,
1000
0000
0010
0000
0100
0000
0001
0000
0010
0100
1000
0010
1000
0000
0001
0000
,
1000
0100
0010
0001
1000
0010
0100
0001
,
1100
0110
0001
0011
0101
1000
1010
1001
,
1000
0100
0010
1000
0010
0001
0100
0010
,
1000
0100
0001
0100
1000
0010
0100
0001
,
1100
0101
0000
0011
1010
0000
0101
1100
,
0000
1010
0011
0000
1000
0100
0001
0100
,
1100
1010
0000
0011
0101
0000
1010
1100
,
0000
0000
0101
0000
0011
0000
0000
0000
1000
0010
0001
0010
1000
0100
0010
0001
,
1010
0011
0000
1100
0101
0000
0011
1010
,
0000
0000
0101
0000
1100
0000
0000
0000
1000
0100
0001
0100
1000
0010
0100
0001
,
1100
1010
0000
0101
0011
0000
1010
1100
,
0000
0000
0011
0000
0101
0000
0000
0000
1000
0010
0001
0010
1000
0100
0001
0100
,
1000
0010
0100
0010
1000
0100
0010
0001
0100
0010
0100
0010
1000
0100
0010
0001
,
1000
0100
0010
0100
1000
0010
0100
0001
0010
0100
0010
0100
1000
0010
0100
0001
,
1000
0010
0100
0010
1000
0100
0010
0001
1000
0100
0010
0100
1000
0010
0100
0001
,
1000
0010
0001
0010
1000
0100
0010
1000
,
0010
0000
0001
0000
0100
0000
1000
0000
0100
0000
0010
0000
1000
0100
0010
0001
,
1000
0100
0001
0100
1000
0010
0001
0010
,
1000
0100
0010
1000
0010
0001
0100
1000
0100
0001
0010
0100
0001
0100
1000
0010
,
1000
0100
0001
0000
0100
0000
1000
0000
0001
0100
1000
0000
0100
0000
0001
0000
,
1000
0010
0001
0000
0010
0000
1000
0000
0001
0010
1000
0000
0010
0000
0001
0000
,
1000
0100
1000
0100
0010
0001
0010
0001
1000
0010
1000
0010
0100
0001
0100
0001
,
0010
0100
0010
0100
1000
0001
1000
0001
0100
0010
0100
0010
1000
0001
1000
0001
,
1000
0100
0001
0100
1000
0100
0001
0100
1000
0100
0001
0100
1000
0100
0001
0100
,
1000
0010
0001
0010
1000
0010
0001
0010
1000
0010
0001
0010
1000
0010
0001
0010
,
1000
0100
0001
0100
1000
0100
0001
0100
1000
0010
0001
0010
1000
0010
0001
0010
,
1000
0100
0001
0100
1000
0010
0001
0010
1000
0100
0001
0100
1000
0010
0001
0010
,
1000
0000
0000
0000
0000
0000
0000
0000
0000
0000
0100
0000
0000
0000
0000
0000
0000
0000
0000
0010
0000
0000
0000
0000
0000
0000
0000
0000
0000
0100
0000
0000
0000
0000
0000
0000
0000
0000
1000
0000
0000
0000
0000
0000
0000
0000
0000
0000
0100
0000
0000
0000
0000
0000
0000
0000
0000
0000
0010
0000
0000
0000
0000
0000
0000
0000
0000
0001
0000
0000
0000
0000
0000
0000
0000
0000
0000
0010
0000
0000
0000
0000
0000
0000
0000
0000
0100
0000
0000
0000
0000
0000
0000
0000
0000
0000
0010
0000
0000
0000
0000
0000
0000
0000
0000
0000
0100
0000
0000
0000
0000
0000
0000
0000
0000
1000
0000
0000
0000
0000
0000
0000
0000
0000
0000
0100
0000
0000
0000
0000
0000
0000
0000
0000
0010
0000
0000
0000
0000
0000
0000
0000
0000
0000
0001
0000
0000
0000
0000
0000
0000
0000
0000
0000
0010
0000
0000
0000
0000
0000
0000
0000
0000
0100
0000
0000
0000
0000
0000
0000
0000
0000
0000
0010
0000
0000
0000
0000
0000
0000
0000
0000
0100
0000
0000
0000
0000
0000
0000
0000
0000
0000
,
1000
0000
0000
0000
0000
0000
0000
0000
0000
0000
0010
0000
0000
0000
0000
0000
0000
0000
0000
0100
0000
0000
0000
0000
0000
0000
0000
0000
0000
0010
0000
0000
0000
0000
0000
0000
0000
0000
1000
0000
0000
0000
0000
0000
0000
0000
0000
0000
0010
0000
0000
0000
0000
0000
0000
0000
0000
0000
0100
0000
0000
0000
0000
0000
0000
0000
0000
0001
0000
0000
0000
0000
0000
0000
0000
0000
0000
0100
0000
0000
0000
0000
0000
0000
0000
0000
0010
0000
0000
0000
0000
0000
0000
0000
0000
0000
0100
0000
0000
0000
0000
0000
0000
0000
0000
0000
0010
0000
0000
0000
0000
0000
0000
0000
0000
1000
0000
0000
0000
0000
0000
0000
0000
0000
0000
0010
0000
0000
0000
0000
0000
0000
0000
0000
0100
0000
0000
0000
0000
0000
0000
0000
0000
0000
0001
0000
0000
0000
0000
0000
0000
0000
0000
0000
0100
0000
0000
0000
0000
0000
0000
0000
0000
0010
0000
0000
0000
0000
0000
0000
0000
0000
0000
0100
0000
0000
0000
0000
0000
0000
0000
0000
0010
0000
0000
0000
0000
0000
0000
0000
0000
0000
,
1000
0000
0000
0000
0000
0000
0000
0000
0000
0000
0100
0000
0000
0000
0000
0000
0000
0000
0000
0010
0000
0000
0000
0000
0000
0000
0000
0000
0000
0100
0000
0000
0000
0000
0000
0000
0000
0000
1000
0000
0000
0000
0000
0000
0000
0000
0000
0000
0010
0000
0000
0000
0000
0000
0000
0000
0000
0000
0100
0000
0000
0000
0000
0000
0000
0000
0000
0001
0000
0000
0000
0000
0000
0000
0000
0000
0000
0010
0000
0000
0000
0000
0000
0000
0000
0000
0100
0000
0000
0000
0000
0000
0000
0000
0000
0000
0010
0000
0000
0000
0000
0000
0000
0000
0000
0000
0100
0000
0000
0000
0000
0000
0000
0000
0000
1000
0000
0000
0000
0000
0000
0000
0000
0000
0000
0010
0000
0000
0000
0000
0000
0000
0000
0000
0100
0000
0000
0000
0000
0000
0000
0000
0000
0000
0001
0000
0000
0000
0000
0000
0000
0000
0000
0000
0010
0000
0000
0000
0000
0000
0000
0000
0000
0100
0000
0000
0000
0000
0000
0000
0000
0000
0000
0010
0000
0000
0000
0000
0000
0000
0000
0000
0100
0000
0000
0000
0000
0000
0000
0000
0000
0000
,
1000
0000
0000
0000
0000
0000
0000
0000
0000
0000
0010
0000
0000
0000
0000
0000
0000
0000
0000
0100
0000
0000
0000
0000
0000
0000
0000
0000
0000
0010
0000
0000
0000
0000
0000
0000
0000
0000
1000
0000
0000
0000
0000
0000
0000
0000
0000
0000
0100
0000
0000
0000
0000
0000
0000
0000
0000
0000
0010
0000
0000
0000
0000
0000
0000
0000
0000
0001
0000
0000
0000
0000
0000
0000
0000
0000
0000
0100
0000
0000
0000
0000
0000
0000
0000
0000
0010
0000
0000
0000
0000
0000
0000
0000
0000
0000
0100
0000
0000
0000
0000
0000
0000
0000
0000
0000
0010
0000
0000
0000
0000
0000
0000
0000
0000
1000
0000
0000
0000
0000
0000
0000
0000
0000
0000
0100
0000
0000
0000
0000
0000
0000
0000
0000
0010
0000
0000
0000
0000
0000
0000
0000
0000
0000
0001
0000
0000
0000
0000
0000
0000
0000
0000
0000
0100
0000
0000
0000
0000
0000
0000
0000
0000
0010
0000
0000
0000
0000
0000
0000
0000
0000
0000
0100
0000
0000
0000
0000
0000
0000
0000
0000
0010
0000
0000
0000
0000
0000
0000
0000
0000
0000
,
1000
0100
1000
0100
1000
0100
1000
0100
1000
0100
1000
0100
1000
0100
1000
0100
,
0010
0001
0010
0001
0010
0001
0010
0001
1000
0100
0010
0001
1000
0010
0100
0001
,
1000
0010
0100
1000
0100
0001
0010
1000
0010
0001
0100
0010
1000
0100
0010
0001
,
1000
0100
0010
1000
0010
0001
0100
1000
0100
0001
0010
0100
1000
0010
0100
0001
,
1000
0100
0001
0100
1000
0100
0001
0100
1000
0100
0010
1000
0010
0001
0100
0010
,
1000
0010
0001
0010
1000
0010
0001
0010
1000
0010
0100
1000
0100
0001
0010
0100
,
1000
0100
0001
0100
0010
0001
0100
1000
0100
0001
0010
0100
1000
0010
0100
0001
,
1000
0010
0001
0010
0100
0001
0010
1000
0010
0001
0100
0010
1000
0100
0010
0001
,
1000
0010
0001
0010
1000
0010
0001
0010
1000
0010
0001
0010
0100
0001
0010
0100
,
1000
0100
0001
0100
1000
0100
0001
0100
1000
0100
0001
0100
0010
0001
0100
0010
,
1000
0100
1000
0100
1000
0100
1000
0100
1000
0100
1000
0100
1000
0100
1000
0100
,
1100
1010
0000
0011
0101
0000
0110
2222
,
3333
0000
0000
0000
;

//--------------- dance-single - ----------------
#NOTES:
     dance-single:
     :
     Hard:
     16:
     0,0,0,0,0:
0000
0000
0000
0000
,
0000
0000
0000
0000
,
1000
0100
1000
0100
0010
0001
0010
0001
0100
0010
0100
0010
0100
0001
0100
0001
,
1000
0010
0100
0001
0010
0100
0010
0001
0100
0010
1000
0100
0010
0100
1000
0010
,
0100
0010
0100
0010
1000
0010
1000
0010
0100
0001
0100
0001
0010
0100
0010
0100
,
1000
0010
0100
0001
0010
1000
0010
0001
0100
0010
1000
0100
0010
0001
0010
0100
,
1000
0010
1000
0010
0100
0010
0100
0010
1000
0100
1000
0100
0010
0100
0010
0100
,
1000
0010
0100
0010
1000
0001
0010
0100
1000
0010
0100
0010
1000
0100
0010
0001
,
1000
0010
1000
0010
1000
0100
1000
0100
0010
0001
0010
0001
0100
0010
0100
0010
,
1000
0100
1000
0010
0100
0001
0010
0001
0100
0010
1000
0100
1000
0010
0100
0001
,
1000
0100
1000
0100
0001
0100
0001
0100
0001
0010
0001
0010
1000
0010
1000
0010
,
1000
0100
1000
0010
0100
0001
0010
1000
0010
0001
0100
0010
1000
0100
0010
0001
,
1000
0010
1000
0010
0001
0010
0001
0010
0001
0100
0001
0100
1000
0100
1000
0100
,
1000
0010
1000
0100
0010
0001
0100
1000
0100
0001
0010
0100
1000
0010
0100
0001
,
1000
0100
1000
0100
0001
0010
0001
0010
1000
0010
1000
0010
0001
0100
0001
0100
,
1000
0010
1000
0001
0010
0100
1000
0010
0001
0010
1000
0100
0010
0001
0010
0100
,
1000
0010
1000
0010
0001
0100
0001
0100
1000
0100
1000
0100
0001
0010
0001
0010
,
1000
0100
1000
0001
0100
0010
1000
0100
0001
0100
1000
0010
0100
0001
1000
0100
,
1001
0000
0100
0010
0100
0001
0010
0000
0100
0000
1000
0000
0101
0000
0110
0000
,
1001
0000
0010
0100
0010
1000
0100
0000
0010
0000
0001
0000
1010
0000
0110
0000
,
1001
0000
0010
0100
1000
0010
0001
0000
0100
0000
0010
0000
1100
0000
0101
0000
,
1000
0100
1000
0001
0100
0001
1000
0100
0001
0100
0010
0001
0100
0010
1000
0100
,
0110
0000
1000
0001
1000
0100
0010
0000
0001
0000
0100
0000
1100
0000
1001
0000
,
0110
0000
0001
1000
0001
0010
0100
0000
1000
0000
0010
0000
0011
0000
1001
0000
,
0110
0000
1000
0100
0001
0100
1000
0000
0001
0000
0100
0000
1010
0000
0011
0000
,
1000
0010
1000
0001
0010
0001
1000
0100
0010
1000
0010
0001
0100
0010
1000
0100
,
1000
0010
1000
0001
0010
0100
0001
0100
1000
0010
0100
1000
0100
0001
0010
0100
,
1000
0100
1000
0001
0010
1000
0010
0100
1000
0010
0001
0010
0100
0001
0010
0100
,
1000
0010
1000
0100
0010
1000
0010
0001
0100
0010
0001
0010
1000
0100
0010
0001
,
1000
0100
1000
0100
0001
0100
0010
0001
0100
1000
0100
0010
1000
0100
0010
0001
,
1010
0000
1100
0000
0000
0000
0011
0000
0101
0000
0000
0000
0220
0330
2202
0000
,
3303
0000
0000
0000
,
0101
0000
0011
0000
0000
0000
1100
0000
1010
0000
0000
0000
0220
0330
2022
3033
,
1000
0100
0010
0001
0100
0010
0100
0010
,
1000
0100
0010
0001
0100
0010
0100
0010
,
1100
0101
0010
0101
1100
0001
0110
1001
,
1000
0010
0100
0001
0010
1000
0010
0001
,
1000
0000
0100
0000
0010
0000
0001
0000
0100
0010
1000
0100
1000
0000
0001
0000
,
1000
0010
0100
0001
0010
0100
0010
0100
,
1010
0011
0100
0011
1010
0100
1001
0110
,
1000
0100
0010
0001
0100
1000
0100
0001
,
1000
0000
0010
0000
0100
0000
0001
0000
0010
0100
1000
0010
1000
0000
0001
0000
,
1000
0100
0010
0001
1000
0010
0100
0001
,
1100
0110
0001
0011
0101
1000
1010
1001
,
1000
0100
0010
1000
0010
0001
0100
0010
,
1000
0100
0001
0100
1000
0010
0100
0001
,
1100
0101
0000
0011
1010
0000
0101
1100
,
0000
1010
0011
0000
1000
0100
0001
0100
,
1100
1010
0000
0011
0101
0000
1010
1100
,
0000
0000
0101
0000
0011
0000
0000
0000
1000
0010
0001
0010
1000
0100
0010
0001
,
1010
0011
0000
1100
0101
0000
0011
1010
,
0000
0000
0101
0000
1100
0000
0000
0000
1000
0100
0001
0100
1000
0010
0100
0001
,
1100
1010
0000
0101
0011
0000
1010
1100
,
0000
0000
0011
0000
0101
0000
0000
0000
1000
0010
0001
0010
1000
0100
0001
0100
,
1000
0000
0000
0000
0000
0000
0000
0000
0000
0000
0010
0000
0000
0000
0000
0000
0000
0000
0000
0100
0000
0000
0000
0000
0000
0000
0000
0000
0000
0010
0000
0000
0000
0000
0000
0000
0000
0000
1000
0000
0000
0000
0000
0000
0000
0000
0000
0000
0100
0000
0000
0000
0000
0000
0000
0000
0000
0000
0010
0000
0000
0000
0000
0000
0000
0000
0000
0001
0000
0000
0000
0000
0000
0000
0000
0000
0000
0100
0000
0000
0000
0000
0000
0000
0000
0000
0010
0000
0000
0000
0000
0000
0000
0000
0000
0000
0100
0000
0000
0000
0000
0000
0000
0000
0000
0000
0010
0000
0000
0000
0000
0000
0000
0000
0000
1000
0000
0000
0000
0000
0000
0000
0000
0000
0000
0100
0000
0000
0000
0000
0000
0000
0000
0000
0010
0000
0000
0000
0000
0000
0000
0000
0000
0000
0001
0000
0000
0000
0000
0000
0000
0000
0000
0000
0100
0000
0000
0000
0000
0000
0000
0000
0000
0010
0000
0000
0000
0000
0000
0000
0000
0000
0000
0100
0000
0000
0000
0000
0000
0000
0000
0000
0010
0000
0000
0000
0000
0000
0000
0000
0000
0000
,
1000
0000
0000
0000
0000
0000
0000
0000
0000
0000
0100
0000
0000
0000
0000
0000
0000
0000
0000
0010
0000
0000
0000
0000
0000
0000
0000
0000
0000
0100
0000
0000
0000
0000
0000
0000
0000
0000
1000
0000
0000
0000
0000
0000
0000
0000
0000
0000
0010
0000
0000
0000
0000
0000
0000
0000
0000
0000
0100
0000
0000
0000
0000
0000
0000
0000
0000
0001
0000
0000
0000
0000
0000
0000
0000
0000
0000
0010
0000
0000
0000
0000
0000
0000
0000
0000
0100
0000
0000
0000
0000
0000
0000
0000
0000
0000
0010
0000
0000
0000
0000
0000
0000
0000
0000
0000
0100
0000
0000
0000
0000
0000
0000
0000
0000
1000
0000
0000
0000
0000
0000
0000
0000
0000
0000
0010
0000
0000
0000
0000
0000
0000
0000
0000
0100
0000
0000
0000
0000
0000
0000
0000
0000
0000
0001
0000
0000
0000
0000
0000
0000
0000
0000
0000
0010
0000
0000
0000
0000
0000
0000
0000
0000
0100
0000
0000
0000
0000
0000
0000
0000
0000
0000
0010
0000
0000
0000
0000
0000
0000
0000
0000
0100
0000
0000
0000
0000
0000
0000
0000
0000
0000
,
1000
0000
0000
0000
0000
0000
0000
0000
0000
0000
0010
0000
0000
0000
0000
0000
0000
0000
0000
0100
0000
0000
0000
0000
0000
0000
0000
0000
0000
0010
0000
0000
0000
0000
0000
0000
0000
0000
1000
0000
0000
0000
0000
0000
0000
0000
0000
0000
0100
0000
0000
0000
0000
0000
0000
0000
0000
0000
0010
0000
0000
0000
0000
0000
0000
0000
0000
0001
0000
0000
0000
0000
0000
0000
0000
0000
0000
0100
0000
0000
0000
0000
0000
0000
0000
0000
0010
0000
0000
0000
0000
0000
0000
0000
0000
0000
1000
0000
0000
0000
0000
0000
0000
0000
0000
0000
0100
0000
0000
0000
0000
0000
0000
0000
0000
0010
0000
0000
0000
0000
0000
0000
0000
0000
0000
0100
0000
0000
0000
0000
0000
0000
0000
0000
1000
0000
0000
0000
0000
0000
0000
0000
0000
0000
0010
0000
0000
0000
0000
0000
0000
0000
0000
0000
0100
0000
0000
0000
0000
0000
0000
0000
0000
0001
0000
0000
0000
0000
0000
0000
0000
0000
0000
0010
0000
0000
0000
0000
0000
0000
0000
0000
0100
0000
0000
0000
0000
0000
0000
0000
0000
0000
,
1000
0010
0001
0010
1000
0100
0010
1000
,
0010
0000
0001
0000
0100
0000
1000
0000
0100
0000
0010
0000
1000
0100
0010
0001
,
1000
0100
0001
0100
1000
0010
0001
0010
,
1000
0100
0010
1000
0010
0001
0100
1000
0100
0001
0010
0100
0001
0100
1000
0010
,
1000
0100
0001
0000
0100
0000
1000
0000
0001
0100
1000
0000
0100
0000
0001
0000
,
1000
0010
0001
0000
0010
0000
1000
0000
0001
0010
1000
0000
0010
0000
0001
0000
,
1000
0100
1000
0100
0010
0001
0010
0001
1000
0010
1000
0010
0100
0001
0100
0001
,
0010
0100
0010
0100
1000
0001
1000
0001
0100
0010
0100
0010
1000
0001
1000
0001
,
1000
0100
0001
0100
1000
0100
0001
0100
1000
0100
0001
0100
1000
0100
0001
0100
,
1000
0010
0001
0010
1000
0010
0001
0010
1000
0010
0001
0010
1000
0010
0001
0010
,
1000
0100
0001
0100
1000
0100
0001
0100
1000
0010
0001
0010
1000
0010
0001
0010
,
1000
0100
0001
0100
1000
0010
0001
0010
1000
0100
0001
0100
1000
0010
0001
0010
,
1000
0000
0000
0000
0000
0000
0000
0000
0000
0000
0100
0000
0000
0000
0000
0000
0000
0000
0000
0010
0000
0000
0000
0000
0000
0000
0000
0000
0000
0100
0000
0000
0000
0000
0000
0000
0000
0000
1000
0000
0000
0000
0000
0000
0000
0000
0000
0000
0100
0000
0000
0000
0000
0000
0000
0000
0000
0000
0010
0000
0000
0000
0000
0000
0000
0000
0000
0001
0000
0000
0000
0000
0000
0000
0000
0000
0000
0010
0000
0000
0000
0000
0000
0000
0000
0000
0100
0000
0000
0000
0000
0000
0000
0000
0000
0000
0010
0000
0000
0000
0000
0000
0000
0000
0000
0000
0100
0000
0000
0000
0000
0000
0000
0000
0000
1000
0000
0000
0000
0000
0000
0000
0000
0000
0000
0100
0000
0000
0000
0000
0000
0000
0000
0000
0010
0000
0000
0000
0000
0000
0000
0000
0000
0000
0001
0000
0000
0000
0000
0000
0000
0000
0000
0000
0010
0000
0000
0000
0000
0000
0000
0000
0000
0100
0000
0000
0000
0000
0000
0000
0000
0000
0000
0010
0000
0000
0000
0000
0000
0000
0000
0000
0100
0000
0000
0000
0000
0000
0000
0000
0000
0000
,
1000
0000
0000
0000
0000
0000
0000
0000
0000
0000
0010
0000
0000
0000
0000
0000
0000
0000
0000
0100
0000
0000
0000
0000
0000
0000
0000
0000
0000
0010
0000
0000
0000
0000
0000
0000
0000
0000
1000
0000
0000
0000
0000
0000
0000
0000
0000
0000
0010
0000
0000
0000
0000
0000
0000
0000
0000
0000
0100
0000
0000
0000
0000
0000
0000
0000
0000
0001
0000
0000
0000
0000
0000
0000
0000
0000
0000
0100
0000
0000
0000
0000
0000
0000
0000
0000
0010
0000
0000
0000
0000
0000
0000
0000
0000
0000
0100
0000
0000
0000
0000
0000
0000
0000
0000
0000
0010
0000
0000
0000
0000
0000
0000
0000
0000
1000
0000
0000
0000
0000
0000
0000
0000
0000
0000
0010
0000
0000
0000
0000
0000
0000
0000
0000
0100
0000
0000
0000
0000
0000
0000
0000
0000
0000
0001
0000
0000
0000
0000
0000
0000
0000
0000
0000
0100
0000
0000
0000
0000
0000
0000
0000
0000
0010
0000
0000
0000
0000
0000
0000
0000
0000
0000
0100
0000
0000
0000
0000
0000
0000
0000
0000
0010
0000
0000
0000
0000
0000
0000
0000
0000
0000
,
1000
0000
0000
0000
0000
0000
0000
0000
0000
0000
0100
0000
0000
0000
0000
0000
0000
0000
0000
0010
0000
0000
0000
0000
0000
0000
0000
0000
0000
0100
0000
0000
0000
0000
0000
0000
0000
0000
1000
0000
0000
0000
0000
0000
0000
0000
0000
0000
0010
0000
0000
0000
0000
0000
0000
0000
0000
0000
0100
0000
0000
0000
0000
0000
0000
0000
0000
0001
0000
0000
0000
0000
0000
0000
0000
0000
0000
0010
0000
0000
0000
0000
0000
0000
0000
0000
0100
0000
0000
0000
0000
0000
0000
0000
0000
0000
0010
0000
0000
0000
0000
0000
0000
0000
0000
0000
0100
0000
0000
0000
0000
0000
0000
0000
0000
1000
0000
0000
0000
0000
0000
0000
0000
0000
0000
0010
0000
0000
0000
0000
0000
0000
0000
0000
0100
0000
0000
0000
0000
0000
0000
0000
0000
0000
0001
0000
0000
0000
0000
0000
0000
0000
0000
0000
0010
0000
0000
0000
0000
0000
0000
0000
0000
0100
0000
0000
0000
0000
0000
0000
0000
0000
0000
0010
0000
0000
0000
0000
0000
0000
0000
0000
0100
0000
0000
0000
0000
0000
0000
0000
0000
0000
,
1000
0000
0000
0000
0000
0000
0000
0000
0000
0000
0010
0000
0000
0000
0000
0000
0000
0000
0000
0100
0000
0000
0000
0000
0000
0000
0000
0000
0000
0010
0000
0000
0000
0000
0000
0000
0000
0000
1000
0000
0000
0000
0000
0000
0000
0000
0000
0000
0100
0000
0000
0000
0000
0000
0000
0000
0000
0000
0010
0000
0000
0000
0000
0000
0000
0000
0000
0001
0000
0000
0000
0000
0000
0000
0000
0000
0000
0100
0000
0000
0000
0000
0000
0000
0000
0000
0010
0000
0000
0000
0000
0000
0000
0000
0000
0000
0100
0000
0000
0000
0000
0000
0000
0000
0000
0000
0010
0000
0000
0000
0000
0000
0000
0000
0000
1000
0000
0000
0000
0000
0000
0000
0000
0000
0000
0100
0000
0000
0000
0000
0000
0000
0000
0000
0010
0000
0000
0000
0000
0000
0000
0000
0000
0000
0001
0000
0000
0000
0000
0000
0000
0000
0000
0000
0100
0000
0000
0000
0000
0000
0000
0000
0000
0010
0000
0000
0000
0000
0000
0000
0000
0000
0000
0100
0000
0000
0000
0000
0000
0000
0000
0000
0010
0000
0000
0000
0000
0000
0000
0000
0000
0000
,
1000
0100
1000
0100
1000
0100
1000
0100
1000
0100
1000
0100
1000
0100
1000
0100
,
0010
0001
0010
0001
0010
0001
0010
0001
1000
0100
0010
0001
1000
0010
0100
0001
,
1000
0010
0100
1000
0100
0001
0010
1000
0010
0001
0100
0010
1000
0100
0010
0001
,
1000
0100
0010
1000
0010
0001
0100
1000
0100
0001
0010
0100
1000
0010
0100
0001
,
1000
0100
0001
0100
1000
0100
0001
0100
1000
0100
0010
1000
0010
0001
0100
0010
,
1000
0010
0001
0010
1000
0010
0001
0010
1000
0010
0100
1000
0100
0001
0010
0100
,
1000
0100
0001
0100
0010
0001
0100
1000
0100
0001
0010
0100
1000
0010
0100
0001
,
1000
0010
0001
0010
0100
0001
0010
1000
0010
0001
0100
0010
1000
0100
0010
0001
,
1000
0010
0001
0010
1000
0010
0001
0010
1000
0010
0001
0010
0100
0001
0010
0100
,
1000
0100
0001
0100
1000
0100
0001
0100
1000
0100
0001
0100
0010
0001
0100
0010
,
1000
0100
1000
0100
1000
0100
1000
0100
1000
0100
1000
0100
1000
0100
1000
0100
,
1100
1110
0000
0011
0111
0000
0110
2222
,
3333
0000
0000
0000
;

//--------------- dance-single - ----------------
#NOTES:
     dance-single:
     :
     Challenge:
     18:
     0,0,0,0,0:
0000
0000
0000
0000
,
0000
0000
0000
0000
,
1000
0100
1000
0100
0010
0001
0010
0001
0100
0010
0100
0010
0100
0001
0100
0001
,
1000
0010
0100
0001
0010
0100
0010
0001
0100
0010
1000
0100
0010
0100
1000
0010
,
0100
0010
0100
0010
1000
0010
1000
0010
0100
0001
0100
0001
0010
0100
0010
0100
,
1000
0010
0100
0001
0010
1000
0010
0001
0100
0010
1000
0100
0010
0001
0010
0100
,
1000
0010
1000
0010
0100
0010
0100
0010
1000
0100
1000
0100
0010
0100
0010
0100
,
1000
0010
0100
0010
1000
0001
0010
0100
1000
0010
0100
0010
1000
0100
0010
0001
,
1000
0010
1000
0010
1000
0100
1000
0100
0010
0001
0010
0001
0100
0010
0100
0010
,
1000
0100
1000
0010
0100
0001
0010
0001
0100
0010
1000
0100
1000
0010
0100
0001
,
1000
0100
1000
0100
0001
0100
0001
0100
0001
0010
0001
0010
1000
0010
1000
0010
,
1000
0100
1000
0010
0100
0001
0010
1000
0010
0001
0100
0010
1000
0100
0010
0001
,
1000
0010
1000
0010
0001
0010
0001
0010
0001
0100
0001
0100
1000
0100
1000
0100
,
1000
0010
1000
0100
0010
0001
0100
1000
0100
0001
0010
0100
1000
0010
0100
0001
,
1000
0100
1000
0100
0001
0010
0001
0010
1000
0010
1000
0010
0001
0100
0001
0100
,
1000
0010
1000
0001
0010
0100
1000
0010
0001
0010
1000
0100
0010
0001
0010
0100
,
1000
0010
1000
0010
0001
0100
0001
0100
1000
0100
1000
0100
0001
0010
0001
0010
,
1000
0100
1000
0001
0100
0010
1000
0100
0001
0100
1000
0010
0100
0001
1000
0100
,
1001
0000
0100
0010
0100
0001
0010
0000
0100
0000
1000
0000
0101
0000
0110
0000
,
1001
0000
0010
0100
0010
1000
0100
0000
0010
0000
0001
0000
1010
0000
0110
0000
,
1001
0000
0010
0100
1000
0010
0001
0000
0100
0000
0010
0000
1100
0000
0101
0000
,
1000
0100
1000
0001
0100
0001
1000
0100
0001
0100
0010
0001
0100
0010
1000
0100
,
0110
0000
1000
0001
1000
0100
0010
0000
0001
0000
0100
0000
1100
0000
1001
0000
,
0110
0000
0001
1000
0001
0010
0100
0000
1000
0000
0010
0000
0011
0000
1001
0000
,
0110
0000
1000
0100
0001
0100
1000
0000
0001
0000
0100
0000
1010
0000
0011
0000
,
1000
0010
1000
0001
0010
0001
1000
0100
0010
1000
0010
0001
0100
0010
1000
0100
,
1000
0010
1000
0001
0010
0100
0001
0100
1000
0010
0100
1000
0100
0001
0010
0100
,
1000
0100
1000
0001
0010
1000
0010
0100
1000
0010
0001
0010
0100
0001
0010
0100
,
1000
0010
1000
0100
0010
1000
0010
0001
0100
0010
0001
0010
1000
0100
0010
0001
,
1000
0100
1000
0100
0001
0100
0010
0001
0100
1000
0100
0010
1000
0100
0010
0001
,
1010
0000
1101
0000
0000
0000
0011
0000
1101
0000
0000
0000
2220
3330
2202
0000
,
3303
0000
0000
0000
,
0101
0000
1011
0000
0000
0000
1100
0000
1011
0000
0000
0000
0222
0333
2022
3033
,
1000
0100
0010
0001
0100
0010
0100
0010
,
1000
0100
0010
0001
0100
0010
0100
0010
,
1100
0101
0010
0101
1100
0001
0110
1001
,
1000
0010
0100
0001
0010
1000
0010
0001
,
1000
0000
0100
0000
0010
0000
0001
0000
0100
0010
1000
0100
1000
0000
0001
0000
,
1000
0010
0100
0001
0010
0100
0010
0100
,
1010
0011
0100
0011
1010
0100
1001
0110
,
1000
0100
0010
0001
0100
1000
0100
0001
,
1000
0000
0010
0000
0100
0000
0001
0000
0010
0100
1000
0010
1000
0000
0001
0000
,
1000
0100
0010
0001
1000
0010
0100
0001
,
1100
1110
0001
0011
0111
1000
1011
1101
,
1000
0100
0010
1000
0010
0001
0100
0010
,
1000
0100
0001
0100
1000
0010
0100
0001
,
1100
0101
0000
0011
1010
0000
0101
1100
,
0000
1010
0011
0000
1000
0100
0001
0100
,
1100
1010
0000
0011
0101
0000
1010
1100
,
0000
0000
0101
0000
0011
0000
0000
0000
1000
0010
0001
0010
1000
0100
0010
0001
,
1010
0011
0000
1100
0101
0000
0011
1010
,
0000
0000
0101
0000
1100
0000
0000
0000
1000
0100
0001
0100
1000
0010
0100
0001
,
1100
1010
0000
0101
0011
0000
1010
1100
,
0000
0000
0011
0000
0101
0000
0000
0000
1000
0010
0001
0010
1000
0100
0001
0100
,
1000
0010
1000
0100
0010
0001
0100
0010
0100
0001
0010
0100
1000
0010
0100
0010
1000
0100
0010
0001
0100
0010
0100
0010
,
1000
0100
1000
0010
0100
0001
0010
0100
0010
0001
0100
0010
1000
0100
0010
0100
1000
0010
0100
0001
0010
0100
0010
0100
,
1000
0010
0100
0010
1000
0100
0010
0001
0100
0010
0100
0010
1000
0100
0010
0100
1000
0010
0100
0001
0010
0100
0010
0100
,
1000
0010
0001
0010
1000
0100
0010
1000
,
0010
0000
0001
0000
0100
0000
1000
0000
0100
0000
0010
0000
1000
0100
0010
0001
,
1000
0100
0001
0100
1000
0010
0001
0010
,
1000
0100
0010
1000
0010
0001
0100
1000
0100
0001
0010
0100
0001
0100
1000
0010
,
1000
0100
0001
0000
0100
0000
1000
0000
0001
0100
1000
0000
0100
0000
0001
0000
,
1000
0010
0001
0000
0010
0000
1000
0000
0001
0010
1000
0000
0010
0000
0001
0000
,
1000
0100
1000
0100
0010
0001
0010
0001
1000
0010
1000
0010
0100
0001
0100
0001
,
0010
0100
0010
0100
1000
0001
1000
0001
0100
0010
0100
0010
1000
0001
1000
0001
,
1000
0100
0001
0100
1000
0100
0001
0100
1000
0100
0001
0100
1000
0100
0001
0100
,
1000
0010
0001
0010
1000
0010
0001
0010
1000
0010
0001
0010
1000
0010
0001
0010
,
1000
0100
0001
0100
1000
0100
0001
0100
1000
0010
0001
0010
1000
0010
0001
0010
,
1000
0100
0001
0100
1000
0010
0001
0010
1000
0100
0001
0100
1000
0010
0001
0010
,
1000
0000
0000
0000
0000
0000
0000
0000
0000
0000
0100
0000
0000
0000
0000
0000
0000
0000
0000
0010
0000
0000
0000
0000
0000
0000
0000
0000
0000
0100
0000
0000
0000
0000
0000
0000
0000
0000
1000
0000
0000
0000
0000
0000
0000
0000
0000
0000
0100
0000
0000
0000
0000
0000
0000
0000
0000
0000
0010
0000
0000
0000
0000
0000
0000
0000
0000
0001
0000
0000
0000
0000
0000
0000
0000
0000
0000
0010
0000
0000
0000
0000
0000
0000
0000
0000
0100
0000
0000
0000
0000
0000
0000
0000
0000
0000
0010
0000
0000
0000
0000
0000
0000
0000
0000
0000
0100
0000
0000
0000
0000
0000
0000
0000
0000
1000
0000
0000
0000
0000
0000
0000
0000
0000
0000
0100
0000
0000
0000
0000
0000
0000
0000
0000
0010
0000
0000
0000
0000
0000
0000
0000
0000
0000
0001
0000
0000
0000
0000
0000
0000
0000
0000
0000
0010
0000
0000
0000
0000
0000
0000
0000
0000
0100
0000
0000
0000
0000
0000
0000
0000
0000
0000
0010
0000
0000
0000
0000
0000
0000
0000
0000
0100
0000
0000
0000
0000
0000
0000
0000
0000
0000
,
1000
0000
0000
0000
0000
0000
0000
0000
0000
0000
0010
0000
0000
0000
0000
0000
0000
0000
0000
0100
0000
0000
0000
0000
0000
0000
0000
0000
0000
0010
0000
0000
0000
0000
0000
0000
0000
0000
1000
0000
0000
0000
0000
0000
0000
0000
0000
0000
0010
0000
0000
0000
0000
0000
0000
0000
0000
0000
0100
0000
0000
0000
0000
0000
0000
0000
0000
0001
0000
0000
0000
0000
0000
0000
0000
0000
0000
0100
0000
0000
0000
0000
0000
0000
0000
0000
0010
0000
0000
0000
0000
0000
0000
0000
0000
0000
0100
0000
0000
0000
0000
0000
0000
0000
0000
0000
0010
0000
0000
0000
0000
0000
0000
0000
0000
1000
0000
0000
0000
0000
0000
0000
0000
0000
0000
0010
0000
0000
0000
0000
0000
0000
0000
0000
0100
0000
0000
0000
0000
0000
0000
0000
0000
0000
0001
0000
0000
0000
0000
0000
0000
0000
0000
0000
0100
0000
0000
0000
0000
0000
0000
0000
0000
0010
0000
0000
0000
0000
0000
0000
0000
0000
0000
0100
0000
0000
0000
0000
0000
0000
0000
0000
0010
0000
0000
0000
0000
0000
0000
0000
0000
0000
,
1000
0000
0000
0000
0000
0000
0000
0000
0000
0000
0100
0000
0000
0000
0000
0000
0000
0000
0000
0010
0000
0000
0000
0000
0000
0000
0000
0000
0000
0100
0000
0000
0000
0000
0000
0000
0000
0000
1000
0000
0000
0000
0000
0000
0000
0000
0000
0000
0010
0000
0000
0000
0000
0000
0000
0000
0000
0000
0100
0000
0000
0000
0000
0000
0000
0000
0000
0001
0000
0000
0000
0000
0000
0000
0000
0000
0000
0010
0000
0000
0000
0000
0000
0000
0000
0000
0100
0000
0000
0000
0000
0000
0000
0000
0000
0000
0010
0000
0000
0000
0000
0000
0000
0000
0000
0000
0100
0000
0000
0000
0000
0000
0000
0000
0000
1000
0000
0000
0000
0000
0000
0000
0000
0000
0000
0010
0000
0000
0000
0000
0000
0000
0000
0000
0100
0000
0000
0000
0000
0000
0000
0000
0000
0000
0001
0000
0000
0000
0000
0000
0000
0000
0000
0000
0010
0000
0000
0000
0000
0000
0000
0000
0000
0100
0000
0000
0000
0000
0000
0000
0000
0000
0000
0010
0000
0000
0000
0000
0000
0000
0000
0000
0100
0000
0000
0000
0000
0000
0000
0000
0000
0000
,
1000
0000
0000
0000
0000
0000
0000
0000
0000
0000
0010
0000
0000
0000
0000
0000
0000
0000
0000
0100
0000
0000
0000
0000
0000
0000
0000
0000
0000
0010
0000
0000
0000
0000
0000
0000
0000
0000
1000
0000
0000
0000
0000
0000
0000
0000
0000
0000
0100
0000
0000
0000
0000
0000
0000
0000
0000
0000
0010
0000
0000
0000
0000
0000
0000
0000
0000
0001
0000
0000
0000
0000
0000
0000
0000
0000
0000
0100
0000
0000
0000
0000
0000
0000
0000
0000
0010
0000
0000
0000
0000
0000
0000
0000
0000
0000
0100
0000
0000
0000
0000
0000
0000
0000
0000
0000
0010
0000
0000
0000
0000
0000
0000
0000
0000
1000
0000
0000
0000
0000
0000
0000
0000
0000
0000
0100
0000
0000
0000
0000
0000
0000
0000
0000
0010
0000
0000
0000
0000
0000
0000
0000
0000
0000
0001
0000
0000
0000
0000
0000
0000
0000
0000
0000
0100
0000
0000
0000
0000
0000
0000
0000
0000
0010
0000
0000
0000
0000
0000
0000
0000
0000
0000
0100
0000
0000
0000
0000
0000
0000
0000
0000
0010
0000
0000
0000
0000
0000
0000
0000
0000
0000
,
1000
0100
1000
0100
1000
0100
1000
0100
1000
0100
1000
0100
1000
0100
1000
0100
,
0010
0001
0010
0001
0010
0001
0010
0001
1000
0100
0010
0001
1000
0010
0100
0001
,
1000
0010
0100
1000
0100
0001
0010
1000
0010
0001
0100
0010
1000
0100
0010
0001
,
1000
0100
0010
1000
0010
0001
0100
1000
0100
0001
0010
0100
1000
0010
0100
0001
,
1000
0100
0001
0100
1000
0100
0001
0100
1000
0100
0010
1000
0010
0001
0100
0010
,
1000
0010
0001
0010
1000
0010
0001
0010
1000
0010
0100
1000
0100
0001
0010
0100
,
1000
0100
0001
0100
0010
0001
0100
1000
0100
0001
0010
0100
1000
0010
0100
0001
,
1000
0010
0001
0010
0100
0001
0010
1000
0010
0001
0100
0010
1000
0100
0010
0001
,
1000
0010
0001
0010
1000
0010
0001
0010
1000
0010
0001
0010
0100
0001
0010
0100
,
1000
0100
0001
0100
1000
0100
0001
0100
1000
0100
0001
0100
0010
0001
0100
0010
,
1000
0100
1000
0100
1000
0100
1000
0100
1000
0100
1000
0100
1000
0100
1000
0100
,
1100
1110
0000
0011
0111
0000
0110
2222
,
3333
0000
0000
0000
;
