#TITLE:DiSCoNNeCTeD HaZaRD;
#SUBTITLE:;
#ARTIST:DM Ashura VS Inspector K;
#TITLETRANSLIT:;
#SUBTITLETRANSLIT:;
#ARTISTTRANSLIT:;
#GENRE:;
#CREDIT:;
#BANNER:DiSCoNNeCTeD HaZaRD-bn.png;
#BACKGROUND:DiSCoNNeCTeD HaZaRD-bg.png;
#LYRICSPATH:;
#CDTITLE:;
#MUSIC:DiSCoNNeCTeD HaZaRD.ogg;
#OFFSET:-0.016000;
#SAMPLESTART:20.016001;
#SAMPLELENGTH:9.143000;
#SELECTABLE:YES;
#DISPLAYBPM:*;
#BPMS:0.000000=105.000000
,35.000000=210.000000
,99.000000=52.500000
,107.000000=105.000000
,123.000000=420.000000
,251.000000=210.000000
,315.000000=52.500000
,316.000000=840.000000
,332.000000=210.000000
,396.000000=52.500000
,404.000000=1680.000000
;
#STOPS:
;
#BGCHANGES:;
#KEYSOUNDS:;
#ATTACKS:;

//---------------dance-single - ----------------
#NOTES:
     dance-single:
     :
     Beginner:
     6:
     0.289782,0.499435,0.061469,0.015367,0.000000,264.000000,256.000000,8.000000,2.000000,0.000000,0.000000,0.289782,0.499435,0.061469,0.015367,0.000000,264.000000,256.000000,8.000000,2.000000,0.000000,0.000000:
0000
0000
0000
0000
,
0000
0000
0000
0000
,
0000
0000
0000
0000
,
0000
0000
0000
0000
,
0000
0000
0000
1000
,
0000
1000
0000
0001
,
0000
0001
0000
1000
,
0000
0100
0000
0010
,
0000
0001
0000
1000
,
0000
0010
0000
0100
,
0000
0001
0000
0010
,
0000
0100
0000
1000
,
1000
0001
0001
1000
,
0000
0100
0000
0010
,
0000
0001
0000
0100
,
0000
0010
0000
1000
,
1000
0001
0001
1000
,
0100
1000
0000
0001
,
0010
0001
0000
1000
,
0010
1000
0000
0001
,
0100
0001
0000
1000
,
0100
0010
0000
0001
,
0010
0100
0000
1000
,
0010
0100
0000
0001
,
0100
0010
0000
1000
,
0000
0001
0000
1000
,
0000
0001
0000
1000
,
1000
0001
0001
1000
,
1000
0001
0001
1000
,
1000
0001
0001
1000
,
1000
1000
1000
1000
,
0000
0100
0000
1000
,
0000
0100
0000
0010
,
0000
0001
0000
0010
,
0000
0001
0000
1000
,
0000
0010
0000
1000
,
0000
0010
0000
0100
,
0000
0001
0000
0100
,
0000
0001
0000
1000
,
0000
0100
0000
0010
,
0000
0001
0000
1000
,
0000
0010
0000
0100
,
0000
0001
0000
0100
,
0000
0010
0000
1000
,
0000
0001
0000
1000
,
0000
1000
0000
1000
,
0000
0000
0000
1000
,
0100
1000
0000
0100
,
0000
0010
0000
0001
,
0010
0001
0000
0010
,
0000
0100
0000
1000
,
0010
1000
0000
0010
,
0000
0100
0000
0001
,
0100
0001
0000
0100
,
0000
0010
0000
1000
,
0100
0010
0000
0001
,
0000
0001
0000
0001
,
0010
0100
0000
1000
,
0000
1000
0000
1000
,
0010
0100
0000
0001
,
0000
0001
0000
0001
,
0100
0010
0000
1000
,
0000
1000
0000
1001
,
0000
0000
0000
0001
,
0000
0000
0000
1000
,
0000
0000
0000
0001
,
0000
0000
0000
1001
,
0000
0000
0000
0100
,
0000
0000
0000
0010
,
0000
0000
0000
0100
,
0000
0000
0000
0110
,
0000
1000
0000
0100
,
0000
0010
0000
0110
,
0000
0001
0000
0010
,
0000
0100
0000
0110
,
1000
0100
0010
0001
,
0000
1001
0000
0001
,
0010
0100
1000
0001
,
0000
1001
0000
0000
,
1000
0000
0001
0000
,
1000
0000
0001
0000
,
1000
0000
0001
0000
,
1000
0000
0001
0000
,
1000
0100
0010
0001
,
0100
0000
0010
0000
1000
0001
1000
0000
,
0001
0010
0100
1000
,
0010
0000
0100
0000
0001
1000
0001
0000
,
1000
0010
0100
0001
,
0010
0000
0100
0000
1000
0001
1000
0000
,
0001
0100
0010
1000
,
0100
0000
0010
0000
0001
1000
0001
0000
,
1000
0100
0001
0100
,
1000
0000
0100
0000
0010
0001
0010
0000
,
0001
0100
1000
0100
,
0001
0000
0100
0000
0010
1000
0010
0000
,
1000
0010
0001
0010
,
1000
0000
0010
0000
0100
0001
0100
0000
,
0001
0010
1000
0010
,
0001
0000
0010
0000
0100
1000
0100
0000
,
1000
0000
0001
0000
,
1000
0000
0001
0000
,
2002
0000
0000
0000
,
0000
0000
0000
0000
,
0000
0000
0000
0000
,
0000
0000
0000
0000
,
0000
0000
0000
0000
,
0000
0000
0000
0000
,
0000
0000
0000
0000
,
0000
0000
0000
0000
,
0000
0000
0000
0000
,
0000
0000
0000
0000
,
0000
0000
0000
0000
,
0000
0000
0000
0000
,
0000
0000
0000
0000
,
0000
0000
0000
0000
,
0000
0000
0000
0000
,
0000
0000
0000
0000
,
0000
0000
0000
0000
,
0000
0000
0000
0000
,
0000
0000
0000
0000
,
0000
0000
0000
0000
,
0000
0000
0000
0000
,
0000
0000
0000
0000
,
0000
0000
0000
0000
,
0000
0000
0000
0000
,
0000
0000
0000
0000
,
0000
0000
0000
0000
,
0000
0000
0000
0000
,
0000
0000
0000
0000
,
0000
0000
0000
0000
,
3003
0000
0000
0000
;

//---------------dance-single - ----------------
#NOTES:
     dance-single:
     :
     Easy:
     9:
     0.504924,0.849040,0.007684,0.015367,0.053785,460.000000,459.000000,1.000000,2.000000,0.000000,0.000000,0.504924,0.849040,0.007684,0.015367,0.053785,460.000000,459.000000,1.000000,2.000000,0.000000,0.000000:
0000
0000
0000
0000
,
0000
0000
0000
0000
,
0000
0000
0000
0000
,
0000
0000
0000
0000
,
0000
0000
0000
0000
0000
0000
0000
0000
0000
0000
0000
1000
0100
0010
0001
0010
,
0001
0000
0000
0000
1000
0000
1000
0000
1000
0000
0000
0001
0010
0000
0100
1000
,
0100
1000
0000
0000
0001
0000
0000
0000
0000
0000
0000
1000
0010
0100
0001
0100
,
0001
0000
0000
0000
0001
0000
0001
0000
0001
0000
0000
1000
0010
0000
0100
0001
,
0100
0001
0000
0000
0000
0000
0000
0000
1000
0000
0000
0000
0001
0000
0000
0000
,
0000
1000
0000
0100
0000
0000
0010
0000
,
0001
1000
0100
0001
,
0100
0010
1000
0010
,
0100
0000
0001
1000
0001
0000
0001
0000
,
0000
1000
0000
0010
0000
0000
0100
0000
,
0001
1000
0010
0001
,
0010
0100
1000
0100
,
0010
0000
0001
1000
0001
0000
1000
0000
,
0000
0100
0000
0010
0000
0001
0001
0000
,
1000
0100
0010
0001
,
0010
0000
0100
0000
1000
0000
1000
0001
,
1000
0001
0100
0010
0100
0000
0001
0000
,
0000
0100
0000
0010
0000
1000
1000
0000
,
0001
0100
0010
1000
,
0010
0000
0100
0000
0001
0000
1000
0001
,
1000
0001
0010
0100
0010
0000
1000
0000
,
0100
0010
0001
1000
,
0001
0000
0000
0000
1000
0000
0000
0000
0001
0001
1000
1000
0001
0000
0000
0000
,
1000
0100
0010
0001
,
1000
0000
0001
0001
1000
1000
0001
0000
,
0100
0010
1000
0010
,
0100
0000
0001
0001
1000
1000
1000
0000
,
0100
1000
0100
1000
,
0100
1000
0100
0010
,
0001
0010
0001
0010
,
0001
0010
0001
1000
,
0010
1000
0010
1000
,
0010
1000
0010
0100
,
0001
0100
0001
0100
,
0001
0100
0001
1000
,
0100
1000
0100
0010
,
0001
0010
0001
1000
,
0010
1000
0010
0100
,
0001
0100
0001
0100
,
0010
0100
0010
1000
,
0001
1000
0001
1000
,
0100
0010
0001
1000
,
0100
0010
0001
1000
,
0100
0010
0100
1000
,
0001
0100
0010
0100
,
0001
1000
0100
0001
,
0100
1000
0010
0100
,
0010
1000
0001
0010
,
0100
0010
0001
1000
,
0010
0001
0010
1000
,
0010
0100
0001
1000
,
0100
0001
0100
1000
,
0001
0100
1000
0100
,
0001
1000
0010
0001
,
0010
1000
0001
0010
,
1000
0010
0001
1000
,
0100
0010
0001
0100
,
0010
1000
0001
1000
,
0001
1000
0001
1000
,
0100
0100
0000
0001
0000
0010
1000
0010
,
1000
0100
0100
0000
,
0001
0001
0010
0010
0000
0100
1000
0100
,
1000
0000
0010
0000
0000
0000
1000
0100
,
1000
0100
0000
0010
0000
0010
0000
0001
,
0001
0000
0100
0000
0100
0000
0000
0001
,
0001
0010
0010
0000
0100
0000
1000
1000
,
1000
0000
0001
1000
0001
1000
0001
0000
,
1000
0100
0000
0100
0000
0100
0010
0001
,
0010
0001
0001
0000
,
0001
0010
0100
1000
0000
0001
0100
0010
,
1000
0000
0001
0000
0000
0000
1000
0010
,
0000
0100
0000
0100
0000
0100
0001
0100
,
0001
0000
1000
0000
1000
0000
0000
0001
,
0100
0010
1000
0000
0001
0000
1000
0100
,
0010
0001
0010
0100
1000
0000
0001
0000
,
1000
0000
0001
0000
,
1000
0000
0001
0000
,
1000
0001
1000
0001
,
1000
0001
1000
0001
,
1000
0000
0100
0100
0000
0100
0000
0010
,
0001
0000
0001
0010
0100
1000
0001
0000
,
1000
0000
0010
0010
0100
0100
0001
0000
,
0001
0100
0010
1000
0001
0000
0000
0000
,
1000
0000
1000
0100
0000
0100
0000
0010
,
0001
0000
0001
0100
0010
1000
0100
0000
,
0001
0000
1000
0100
0001
0100
1000
0001
,
0100
1000
0100
0001
1000
0001
1000
0000
,
0001
0000
0010
0010
0000
0100
0000
0100
,
1000
0000
1000
0100
0010
0001
1000
0000
,
0001
0000
0100
0100
0010
0010
1000
0000
,
1000
0010
0100
0001
1000
0000
0000
0000
,
0001
0000
0001
0010
0000
0010
0000
0100
,
1000
0000
1000
0010
0100
0001
0010
0000
,
1000
0000
0001
0010
1000
0010
0001
1000
,
0010
0001
0010
1000
0001
1000
0001
0000
,
1000
0100
0010
0001
,
0100
0010
1000
0001
,
2002
0000
0000
0000
,
0000
0000
0000
0000
,
0000
0000
0000
0000
,
0000
0000
0000
0000
,
0000
0000
0000
0000
,
0000
0000
0000
0000
,
0000
0000
0000
0000
,
0000
0000
0000
0000
,
0000
0000
0000
0000
,
0000
0000
0000
0000
,
0000
0000
0000
0000
,
0000
0000
0000
0000
,
0000
0000
0000
0000
,
0000
0000
0000
0000
,
0000
0000
0000
0000
,
0000
0000
0000
0000
,
0000
0000
0000
0000
,
0000
0000
0000
0000
,
0000
0000
0000
0000
,
0000
0000
0000
0000
,
0000
0000
0000
0000
,
0000
0000
0000
0000
,
0000
0000
0000
0000
,
0000
0000
0000
0000
,
0000
0000
0000
0000
,
0000
0000
0000
0000
,
0000
0000
0000
0000
,
0000
0000
0000
0000
,
0000
0000
0000
0000
,
3003
0000
0000
0000
;

//---------------dance-single - ----------------
#NOTES:
     dance-single:
     :
     Medium:
     11:
     0.709088,1.548249,0.338079,0.015367,0.303503,646.000000,602.000000,44.000000,2.000000,0.000000,0.000000,0.709088,1.548249,0.338079,0.015367,0.303503,646.000000,602.000000,44.000000,2.000000,0.000000,0.000000:
0000
0000
0000
0000
,
0000
0000
0000
0000
,
0000
0000
0000
0000
,
0000
0000
0000
0000
,
0000
0000
0000
0000
0000
0000
0000
0000
0000
0000
0000
1000
0100
1000
0100
1000
,
0100
0000
0000
0000
1001
0000
1001
0000
1001
0000
0000
0010
0001
0000
0001
0010
,
0001
0010
0000
0000
0101
0000
0000
0000
0000
0000
0000
1000
0010
1000
0010
1000
,
0010
0000
0000
0000
0110
0000
0110
0000
0110
0000
0000
0100
0001
0000
0001
0100
,
0001
0100
0000
0000
0000
0000
0000
0000
0011
0000
0000
0000
1001
0000
0000
0000
,
1000
0100
0000
0010
0000
0001
1001
0000
,
0001
1000
0001
1000
0001
0000
1001
0000
,
1000
0100
0010
0001
0100
0010
1000
1000
,
0001
0000
0001
0000
1000
0001
1000
0000
0001
0000
0000
0000
1001
0000
0000
0000
,
0001
0100
0000
0010
0000
1000
1001
0000
,
1000
0001
1000
0001
1000
0000
1001
0000
,
0001
0100
0010
1000
0100
0010
0001
0001
,
1000
0000
1000
0001
1000
0000
0001
0000
1000
0000
0000
0000
1001
0000
0000
0000
,
1000
0010
0000
0100
0000
0001
1001
0000
,
1000
0001
1000
0001
1000
0000
1001
0000
,
1000
0010
0100
0001
0010
0100
1000
1000
,
0001
0000
0001
0000
1000
0001
1000
0000
0001
0000
0000
0000
1001
0000
0000
0000
,
0001
0010
0000
0100
0000
1000
1001
0000
,
0001
1000
0001
1000
0001
0000
1001
0000
,
0001
0010
0100
1000
0010
0100
0001
0001
,
1000
0000
0000
0000
1000
0000
0000
0000
0001
0000
1000
0000
0001
0000
1000
0000
0001
0000
0000
0000
0000
0000
0000
0000
1001
0000
0000
0000
0000
0000
0000
1000
,
0010
1000
0010
1000
0010
0000
0000
0000
0000
0000
0000
0000
0000
0000
0000
0010
0001
0000
0001
0100
0001
0100
0000
0000
0000
0000
0000
0000
0000
0000
0000
1000
,
0100
0000
1000
0000
0100
0000
1000
0000
0100
0000
0000
0000
0000
0000
0000
0000
0000
0000
0000
0000
0000
0000
0000
0000
0000
0000
0001
1000
0001
0000
0100
0000
0001
0000
0000
0000
0001
0000
0010
0000
0001
0000
0010
0000
0000
0000
0000
0000
1001
0000
0000
0000
0000
0000
0000
0000
0000
0000
0000
0000
0000
0000
0000
0000
,
0000
0000
0000
1000
0100
0010
0100
1000
0100
0000
0000
0000
0000
0000
0010
0010
,
0010
0010
0010
0100
0001
0000
0001
0100
0001
0100
0000
0000
1001
0000
0000
0000
,
0000
0000
0000
0001
0010
0100
0010
0001
0010
0000
0000
0000
0000
0100
0100
0100
,
0100
0100
0100
0010
1000
0000
1000
0010
1000
0010
0000
0000
1000
0000
0000
0000
,
0100
1000
0100
1000
,
0100
1000
0100
0010
,
0001
0010
0001
0010
,
0001
0010
0001
1000
,
0010
1000
0010
1000
,
0010
1000
0010
0100
,
0001
0100
0001
0100
,
0001
0000
0100
0000
0001
0000
1000
0100
,
1000
0000
0100
0000
1000
0000
0010
0001
,
0010
0000
0001
0000
0010
0000
1000
0010
,
1000
0000
0010
0000
1000
0000
0100
0001
,
0100
0000
0001
0000
0100
0000
0100
0010
,
0100
0000
0010
0000
0100
0000
1000
0001
,
1000
0001
1000
0001
,
0000
0001
0000
0001
,
1000
0000
0001
0000
0000
0000
1000
0100
,
1000
0000
0100
1000
0100
0000
0010
0001
,
0010
0000
0001
0010
0001
0000
1000
0010
,
1000
0000
0010
1000
0010
0000
0100
0001
,
0100
0000
0001
0100
0001
0000
0100
0010
,
0100
0000
0010
0100
0010
0000
1000
0001
,
1000
0000
0001
1000
0001
0000
1000
0100
,
1000
0000
0100
0010
0100
0000
0010
0001
,
0010
0000
0001
1000
0001
0000
1000
0100
,
1000
0100
1000
0000
0100
0000
0010
0001
,
0010
0001
0010
0000
0001
0000
1000
0010
,
1000
0010
1000
0000
0010
0000
0100
0001
,
0100
0001
0100
0000
0001
0000
0100
0010
,
0100
0010
0100
0000
0010
0000
1000
0001
,
1000
0001
1000
0000
0001
0000
1000
0001
,
1000
0000
0001
1000
0001
0000
1000
0001
,
1000
0001
1000
0001
1000
0001
1000
0000
,
0100
0100
0000
0010
0000
0001
0001
0001
,
0001
0100
0100
0010
,
1000
0010
0100
0001
0000
0010
0010
0010
,
0010
0000
1001
0000
0000
0000
0010
0010
,
0010
1000
0000
0100
0000
0100
0000
0001
,
0001
0000
1001
0000
1001
0000
0000
0100
,
1000
0100
1000
0000
0010
0000
0001
1000
,
0001
0000
1000
0000
0001
1000
0001
0000
1000
0001
1000
0000
1001
0000
0000
0000
,
1000
1000
0000
0100
0000
0010
0010
0010
,
0010
0001
0001
0110
,
0001
0001
0100
0100
0000
0010
0010
0010
,
0010
0000
1000
0000
0000
0000
1000
0100
,
1000
0010
0000
0100
0000
0100
0000
0001
,
0001
0000
1001
0000
1001
0000
0000
0001
,
0100
0001
0010
0000
0100
0000
1000
1000
,
0001
0001
1000
0100
0010
0001
1000
0000
,
1001
0000
1001
0000
,
1001
0000
1001
0000
,
1000
0001
1000
0001
,
1000
0001
1000
0001
,
1001
0000
1000
0100
0000
0100
0000
0010
,
0001
0000
0001
0010
0100
1000
0001
0000
,
1001
0000
0001
0010
0100
1000
0100
0010
,
0001
0000
0001
0000
1000
0000
1000
0000
0001
1000
0001
0000
1000
0000
0000
0000
,
1001
0000
1000
0010
0000
0010
0000
0100
,
0001
0000
1000
0010
0100
0001
1000
0000
,
1001
0000
1000
0010
0100
0001
0100
0010
,
1000
0000
1000
0000
0001
0000
0001
1000
0001
0000
1000
0000
0001
0000
0000
0000
,
1001
0000
1000
0100
0000
0010
0000
0100
,
0001
0000
0001
0100
0010
1000
0001
0000
,
1001
0000
1000
0100
0010
0001
0100
0010
,
1000
0001
1000
0001
1000
0000
1000
0000
0001
1000
0001
0000
1000
0000
0000
0000
,
1001
0000
1000
0010
0000
0100
0000
0010
,
0001
0000
0001
0010
0100
1000
0001
0000
,
1001
0000
1000
0010
0100
0001
0010
0100
,
1000
0001
1000
0001
1000
0000
1000
0000
0001
1000
0001
0000
1000
0000
0000
0000
,
1001
0000
0000
0000
0000
0000
0000
1000
0100
1000
0100
1000
0100
0000
0000
0000
0000
0000
0000
0000
0000
0000
0000
0010
0001
0000
0001
0010
0001
0010
0000
0000
,
0000
0000
0000
0000
0000
0000
0000
1000
0010
1000
0010
1000
0010
0000
0000
0000
0000
0000
0000
0000
0000
0000
0000
0100
0001
0000
0001
0100
0001
0100
0000
0000
,
2002
0000
0000
0000
,
0000
0000
0000
0000
,
0000
0000
0000
0000
,
0000
0000
0000
0000
,
0000
0000
0000
0000
,
0000
0000
0000
0000
,
0000
0000
0000
0000
,
0000
0000
0000
0000
,
0000
0000
0000
0000
,
0000
0000
0000
0000
,
0000
0000
0000
0000
,
0000
0000
0000
0000
,
0000
0000
0000
0000
,
0000
0000
0000
0000
,
0000
0000
0000
0000
,
0000
0000
0000
0000
,
0000
0000
0000
0000
,
0000
0000
0000
0000
,
0000
0000
0000
0000
,
0000
0000
0000
0000
,
0000
0000
0000
0000
,
0000
0000
0000
0000
,
0000
0000
0000
0000
,
0000
0000
0000
0000
,
0000
0000
0000
0000
,
0000
0000
0000
0000
,
0000
0000
0000
0000
,
0000
0000
0000
0000
,
0000
0000
0000
0000
,
3003
0000
0000
0000
;

//---------------dance-single - ----------------
#NOTES:
     dance-single:
     :
     Hard:
     14:
     1.037289,2.597063,1.029605,0.015367,0.672317,945.000000,811.000000,134.000000,2.000000,0.000000,0.000000,1.037289,2.597063,1.029605,0.015367,0.672317,945.000000,811.000000,134.000000,2.000000,0.000000,0.000000:
0000
0000
0000
0000
,
0000
0000
0000
0000
,
0000
0000
0000
0000
,
0000
0000
0000
0000
,
0000
0000
0000
0000
0000
0000
0000
0000
0000
0000
0000
1000
1000
0100
0010
0001
,
0001
0000
0000
0000
1001
0000
0110
0000
1001
0000
0000
0001
0010
0000
0001
0010
,
0100
1000
0000
1000
0100
0000
1000
0100
0010
0001
0000
1000
1000
0010
0100
0001
,
0001
0000
0000
0000
1001
0000
0110
0000
1001
0000
0000
1000
0010
0000
1000
0010
,
0100
0001
0000
0001
0100
0000
0001
0100
0010
1000
0000
0000
1001
0000
0000
0000
,
0010
0000
0100
0000
0000
0000
0100
0000
0000
0000
0010
0001
1000
0000
0000
0000
,
1000
0100
0010
0001
1000
0000
1001
0000
,
0001
0100
0010
1000
0100
0010
0001
0010
,
0001
0000
0100
0000
0001
1000
0001
1000
0001
0000
0000
0000
1001
0000
0000
0000
,
1000
0000
0100
0000
0000
0000
0100
0000
0000
0000
0010
0001
0100
0000
0000
0000
,
0001
0010
0100
1000
0001
0000
1001
0000
,
0100
0000
0010
0001
0100
0000
1000
0000
0010
0000
0100
1000
0010
0000
0001
0000
,
1000
0000
0001
0010
0100
0000
1000
0000
0001
0000
0000
0000
1001
0000
0000
0000
,
1000
0000
0010
0000
0000
0000
0010
0000
0000
0000
0100
0001
0010
0000
0000
0000
,
1000
0010
0100
0001
1000
0000
1001
0000
,
0001
0000
0010
0000
0100
0000
1000
0000
0001
0000
1000
0000
0001
1000
0001
1000
,
0001
0000
1000
0000
0010
0100
0010
0100
0010
0000
0000
0000
1001
0000
0000
0000
,
0001
0000
0010
0000
0000
0000
0010
0000
0000
0000
0100
1000
0010
0000
0000
0000
,
0001
0010
0100
1000
0001
0000
1001
0000
,
1000
0000
0100
0010
0001
0000
0001
0000
0100
0010
0100
0010
1000
0100
1000
0100
,
1000
0000
0010
0000
1000
0000
0010
0000
1000
0000
0001
0000
1000
0000
0001
0000
1000
0000
0001
0000
1000
0000
0000
0000
1001
0000
0000
0000
0000
0000
0000
1000
,
0100
0000
1000
0000
0100
0000
0010
0000
0001
0000
0000
0000
0000
0000
0010
0001
0010
0000
0000
0000
0000
0000
0000
0000
0000
0000
0000
0000
0000
0000
0100
0000
0010
0000
0000
0000
1000
0000
1000
0000
1000
0000
1000
0000
0000
0000
0100
1000
0100
0000
0000
0000
0000
0000
0000
0000
0000
0000
0000
0000
0000
0000
0001
0000
,
0100
0000
0001
0000
0100
0000
0010
0000
1000
0000
0000
0000
0000
0000
0001
0100
0001
0000
0000
0000
0000
0000
0000
0000
0000
0000
0100
0010
0100
0010
0100
0010
1000
0100
1000
0100
0010
0001
0010
0001
1000
0010
1000
0010
0100
0001
0100
0001
1000
0000
0000
0000
0000
0000
0000
0000
1000
0000
0000
0000
0000
0000
0000
0000
,
1000
0000
1000
0100
0100
0100
0010
0010
0010
0000
0001
0000
0001
0000
0001
0001
,
0001
1000
0001
1000
0001
0000
0010
0000
0010
0000
0000
0000
0100
0000
0100
0000
0100
0000
0100
0000
0000
0000
0000
0000
1000
0000
0000
0000
1000
0000
0000
0000
,
1000
0000
0000
0000
1000
0000
0010
0000
0010
0000
0010
0000
0100
0000
0100
0000
0100
0000
0000
0000
0001
0000
0000
0000
0001
0000
0001
1000
0001
0000
1000
0001
,
1000
0000
0010
0100
0010
0000
1000
0000
1000
0001
1000
0001
1000
0001
1000
0001
1000
0001
1000
0001
1000
0001
1000
0001
1000
0000
0000
0000
0100
0000
0000
0000
,
1000
0100
1000
0100
1000
0100
1000
0100
,
1000
0100
1000
0100
1000
0100
0010
0001
,
0010
0001
0010
0001
0010
0001
0010
0001
,
0010
0001
0010
0001
0010
0001
1000
0010
,
1000
0010
1000
0010
1000
0010
1000
0010
,
1000
0010
1000
0010
1000
0010
0100
0001
,
0100
0001
0100
0001
0100
0001
0100
0001
,
0100
0001
0100
0001
0100
0001
1000
0010
,
1000
0010
1000
0010
1000
0010
0100
0001
,
0100
0001
0100
0001
0100
0001
1000
0100
,
1000
0100
1000
0100
1000
0100
0010
0001
,
0010
0001
0010
0001
0010
0001
1000
0001
,
1000
0001
1000
0001
1000
0001
0100
0010
,
0100
0010
0100
0010
0100
0010
1000
0100
,
1000
0100
1000
0010
1000
0010
1000
0001
,
1000
0001
0100
0010
0100
0010
1000
0100
,
1000
0100
0010
0001
0010
0001
1000
0010
,
1000
0010
0100
0001
0100
0001
1000
0001
,
1000
0001
0100
0010
0100
0010
1000
0010
,
1000
0010
0100
0001
0100
0001
1000
0100
,
1000
0100
0010
0001
0010
0001
0100
0010
,
0100
0010
1000
0001
1000
0001
1000
0100
,
0010
0001
1000
0100
0010
0001
1000
0010
,
0100
0001
1000
0010
0100
0001
1000
0100
,
0010
0100
1000
0001
0100
0010
0100
0001
,
1000
0010
0100
0010
1000
0001
0010
0100
,
0010
0001
1000
0100
0010
0100
0010
0001
,
0100
0010
0100
0010
1000
0010
1000
0001
,
0010
0001
1000
0100
1000
0001
0100
0001
,
1000
0010
1000
0001
0100
0001
0010
0001
,
1000
0100
1000
0001
0010
0001
0100
0010
,
0100
0010
0100
0010
0100
0010
0110
0000
,
1100
1100
0000
1010
0000
0101
0101
0011
,
0011
1001
1001
0110
,
1010
1010
1100
1100
0000
0011
0011
0101
,
0101
0000
0110
0000
0000
0000
1001
1010
,
1100
0110
0000
0011
0000
0101
0000
0110
,
1010
0000
1001
0000
1001
0000
0000
1100
,
1010
0000
1000
0100
0010
0000
0000
0000
0011
0000
0000
0000
0001
0010
0100
1000
,
0001
0000
0000
0000
1000
0001
1000
0001
0100
0010
0100
0010
0110
0000
0000
0000
,
1100
0000
0101
0000
0000
0000
1001
0000
0000
0000
0001
0010
0100
0000
1010
0000
,
0011
0110
0110
1001
,
1100
0000
0110
0000
0101
0000
1001
0000
0000
0000
1000
0010
0100
0000
0011
0000
,
1010
0000
1001
0000
0000
0000
1010
0110
,
0011
0101
0000
1100
0000
1001
0000
0110
,
0110
0000
1001
0000
1100
0000
0000
1001
,
0110
0000
0010
0001
0100
0000
0000
0000
0101
0000
0000
0000
1000
0010
0100
0001
,
0010
0000
0000
0000
0001
0010
0100
1000
0010
0100
0001
1000
0100
0000
0000
0000
,
1001
0000
0110
0000
,
1001
0000
0110
0000
,
1000
0001
1000
0001
,
1000
0010
0100
0001
,
0010
0000
0000
0000
0001
0000
0011
0000
0000
0000
0110
0000
0000
0000
0010
1000
,
0100
0000
1000
0100
0010
0001
1001
0000
,
0110
0000
0001
0011
0100
1100
0001
0101
,
0010
0000
1010
0000
0100
0000
0110
0000
0001
0010
0100
1000
0010
0000
0000
0000
,
1001
0000
0000
0000
1000
0000
1100
0000
0000
0000
0110
0000
0000
0000
0100
0010
,
0001
0000
0001
0100
0010
1000
1001
0000
,
0110
0000
0000
0000
1100
0000
1000
0010
0100
0000
0011
0000
0011
0000
0001
0010
,
0100
0000
1010
0000
1010
0000
0100
0001
1000
0000
0110
0000
0110
0000
0000
0000
,
1001
0000
0000
0000
0011
0000
0011
0000
0000
0000
1010
0000
0000
0000
1000
0001
,
1001
0000
1100
1100
0101
0101
0110
0000
,
1001
0000
0001
0011
0100
1100
0001
0101
,
1000
0010
0100
0001
0010
0000
0110
0000
1000
0100
0010
0000
1001
0000
0000
0000
,
0110
0000
0000
0000
0101
0000
1001
0000
0000
0000
1100
0000
0000
0000
1000
0010
,
0100
0000
1100
0101
0011
1010
0110
0000
,
1001
0000
0000
0000
0110
0000
1000
0100
0010
0000
0101
0000
0101
0000
0001
1000
,
0001
0010
0100
1000
0010
0100
0001
0010
0100
1000
0010
0100
0001
0010
0100
1000
,
1001
0000
0000
0000
0000
0000
0000
0000
0000
0000
0000
0000
0000
0000
1000
0000
1000
0000
1000
0000
0100
0000
0100
0000
0010
0000
0000
0000
0000
0000
0001
0010
0001
0000
0000
0000
0000
0000
0000
0000
0000
0000
0000
0000
0000
0000
0010
0000
0010
0000
0000
0000
0100
0000
0100
0000
0100
0000
0100
0000
0000
0000
0000
0000
,
1001
0000
0000
0000
0000
0000
0000
0000
0000
0000
0000
0000
0000
0000
0001
0000
0001
0000
0001
0000
0100
0000
0100
0000
0010
0000
0000
0000
0000
0000
0000
0000
1000
0000
1000
0100
1000
0000
0001
0100
0001
0000
1000
0010
1000
0000
0100
0000
0100
0000
0000
0000
0010
0000
0010
0000
0010
0000
0010
0000
0000
0000
0000
0000
,
2002
0000
0000
0000
,
0000
0000
0000
0000
,
0000
0000
0000
0000
,
0000
0000
0000
0000
,
0000
0000
0000
0000
,
0000
0000
0000
0000
,
0000
0000
0000
0000
,
0000
0000
0000
0000
,
0000
0000
0000
0000
,
0000
0000
0000
0000
,
0000
0000
0000
0000
,
0000
0000
0000
0000
,
0000
0000
0000
0000
,
0000
0000
0000
0000
,
0000
0000
0000
0000
,
0000
0000
0000
0000
,
0000
0000
0000
0000
,
0000
0000
0000
0000
,
0000
0000
0000
0000
,
0000
0000
0000
0000
,
0000
0000
0000
0000
,
0000
0000
0000
0000
,
0000
0000
0000
0000
,
0000
0000
0000
0000
,
0000
0000
0000
0000
,
0000
0000
0000
0000
,
0000
0000
0000
0000
,
0000
0000
0000
0000
,
0000
0000
0000
0000
,
3003
0000
0000
0000
;

//---------------dance-single - ----------------
#NOTES:
     dance-single:
     :
     Challenge:
     16:
     1.227184,4.045425,1.498306,0.015367,0.941243,1118.000000,923.000000,195.000000,2.000000,0.000000,0.000000,1.227184,4.045425,1.498306,0.015367,0.941243,1118.000000,923.000000,195.000000,2.000000,0.000000,0.000000:
// measure 0
0000
0000
0000
0000
,  // measure 1
0000
0000
0000
0000
,  // measure 2
0000
0000
0000
0000
,  // measure 3
0000
0000
0000
0000
,  // measure 4
0000
0000
0000
0000
0000
0000
0000
0000
0000
0000
0000
1000
1000
0100
0001
0100
,  // measure 5
1000
0000
0000
0000
0000
0000
0000
0000
1001
0000
0000
0000
0110
0000
0000
0000
1001
0000
0000
0000
0000
0000
0010
0001
0010
0000
0000
0000
0100
0000
1000
0000
,  // measure 6
0100
1100
0000
0100
0100
0000
0010
0001
0010
0011
0000
0001
0001
0010
1000
0010
,  // measure 7
0001
0000
0000
0000
0000
0000
0000
0000
1001
0000
0000
0000
0110
0000
0000
0000
1001
0000
0000
0000
0000
0000
0100
1000
0100
0000
0000
0000
0010
0000
0001
0000
,  // measure 8
0010
0000
0100
0000
1000
0000
0100
0000
0010
0100
0010
0100
0010
0100
0010
0100
0010
0000
0000
0000
0110
0000
0000
0000
1001
0000
0000
0000
0000
0000
0000
0000
,  // measure 9
1000
0000
0100
0000
0000
0000
0100
0000
0000
0000
0010
0001
0100
0000
0000
0000
,  // measure 10
0001
0010
0100
1000
1001
0000
1100
0000
,  // measure 11
0010
0010
0001
0010
0001
1000
0010
1000
,  // measure 12
0001
0000
0010
0000
0100
1000
0100
0010
0100
0000
0000
0000
1001
0000
0000
0000
,  // measure 13
0001
0000
0010
0000
0000
0000
0010
0000
0000
0000
0100
1000
0010
0000
0000
0000
,  // measure 14
1000
0100
0010
0001
1001
0000
0011
0000
,  // measure 15
0100
0000
1000
0100
0001
0000
0010
0000
0001
0000
0001
0100
1000
0000
0100
0000
,  // measure 16
0010
0000
0001
0010
1000
0000
1000
0000
0100
0000
0000
0000
1001
0000
0000
0000
,  // measure 17
0100
0000
0010
0000
0000
0000
0010
0000
0000
0000
0001
1000
0100
0000
0000
0000
,  // measure 18
0010
0001
0100
0010
1001
0000
0101
0000
,  // measure 19
0010
0000
0001
0000
1000
0000
0001
0000
1000
0000
0001
0000
1000
0001
1000
0001
,  // measure 20
1000
0000
0100
0010
0001
0000
0100
0000
0110
0000
0000
0000
1001
0000
0000
0000
,  // measure 21
0100
0000
0001
0000
0000
0000
0001
0000
0000
0000
0010
1000
0100
0000
0000
0000
,  // measure 22
0010
0001
0100
1000
0110
0000
1010
0000
,  // measure 23
0001
0000
0010
0100
1000
0000
0100
0000
0010
0000
0001
0000
1000
0100
0010
0001
,  // measure 24
1000
0000
0100
0000
0010
0000
0001
0000
1000
0000
0010
0000
0100
0000
0001
0000
1000
0000
0010
0000
0100
0000
0001
0000
1001
0000
0000
0000
0110
0000
0000
0001
,  // measure 25
0001
0000
0100
0000
1000
0000
0100
0000
0001
0000
0000
0000
0000
0000
0010
0001
1000
0000
0000
0000
0010
0000
0100
0000
0000
0000
0000
0000
0100
0000
0100
0000
1000
0000
0000
0000
0010
0000
0100
0000
0001
0000
0010
0000
0000
0000
0010
0100
1000
0000
0000
0000
0100
0000
0010
0000
0000
0000
0000
0000
0011
0000
0001
0000
,  // measure 26
1000
0000
0000
0000
0000
0000
0010
0000
0000
0000
0000
0000
0001
0000
0000
0000
0000
0000
0010
0000
0000
0000
0000
0000
1000
0000
0000
0000
0000
0000
0000
0000
0000
0000
0000
0000
0001
0000
0000
0000
0000
0000
0001
0000
0000
0010
0000
0000
1000
0000
0000
0000
0000
0000
0000
0000
0000
0000
0000
0000
0010
0000
0000
0000
0000
0000
0100
0000
0000
0000
0000
0000
0000
0000
0000
0000
0000
0000
0010
0000
0100
0000
0010
0000
0100
0000
0010
0000
0100
0000
0010
0000
0100
0000
0010
0000
0100
0000
0000
0010
0000
0000
0100
0000
0000
0010
0000
0000
1000
0000
0000
0001
0000
0000
1000
0000
0000
0001
0000
0000
1000
0000
0000
0100
0000
0000
0010
0000
0000
0001
0000
0000
1000
0000
0000
0010
0000
0000
0100
0000
0000
0001
0000
0000
1001
0000
0000
0000
0000
0000
0000
0000
0000
0000
0000
0000
0000
0000
0000
0000
0000
0000
0000
0000
0000
0000
0000
0000
1010
0000
0000
0000
0000
0000
0000
0000
0000
0000
0000
0000
0000
0000
0000
0000
0000
0000
0000
0000
0000
0000
0000
0000
,  // measure 27
1100
0000
0000
0000
1001
0000
1000
0000
0100
0000
0001
0000
0100
0000
1000
0000
0100
0000
0010
0000
0000
0000
0001
0010
1000
0000
0000
0000
0010
0000
0100
0000
,  // measure 28
0010
0100
0010
0100
0010
0000
0010
0000
0110
0000
0000
0000
1100
0000
0110
0000
0011
0000
1001
0000
0000
0000
1000
0100
0010
0000
0000
0000
0011
0000
0000
0000
,  // measure 29
0110
0000
0000
0000
1010
0000
0010
0000
0001
0000
0010
0000
1000
0000
0010
0000
0001
0000
0000
0000
0001
0000
0010
0001
0100
0000
0010
1000
0100
0000
0001
0010
,  // measure 30
1000
0000
0100
0010
0001
0000
0001
0000
1000
0000
0000
0000
0010
0000
0001
0000
0010
0000
0100
0000
0000
0000
1000
0000
0001
0000
0000
0000
0010
0000
0000
0000
,  // measure 31
0001
0010
0001
0010
0001
0010
0100
1000
,  // measure 32
0100
1000
0100
1000
0100
1000
0001
0100
,  // measure 33
0001
0100
0001
0100
0001
0100
0010
1000
,  // measure 34
0010
1000
0010
1000
0010
1000
0001
1000
,  // measure 35
0001
1000
0001
1000
0001
1000
0010
0100
,  // measure 36
0010
0100
0010
0100
0010
0100
0001
0010
,  // measure 37
0001
0010
0001
0100
0001
0100
0001
1000
,  // measure 38
0001
1000
0001
0010
0100
1000
0001
0010
,  // measure 39
0100
0010
0001
1000
0010
0100
0010
1000
,  // measure 40
0001
0100
1000
0100
0001
1000
0100
0010
,  // measure 41
0100
1000
0001
0100
0010
0100
0001
0010
,  // measure 42
1000
0010
0001
0100
0010
0100
1000
0100
,  // measure 43
0010
0100
0001
0010
0100
0010
1000
0010
,  // measure 44
0100
0010
0001
0010
0100
1000
0001
1000
,  // measure 45
0001
1000
0001
1000
0001
1000
0010
0100
,  // measure 46
0010
0100
0010
0100
0010
0100
0001
0010
,  // measure 47
1000
0010
0001
0100
0010
0100
0010
1000
,  // measure 48
0100
0010
0100
0010
0001
0010
0001
1000
,  // measure 49
0010
1000
0001
0100
0001
1000
0100
1000
,  // measure 50
0001
0010
0100
0010
0001
1000
0100
0010
,  // measure 51
0100
1000
0001
0010
0001
0100
0010
1000
,  // measure 52
0100
1000
0010
0100
0001
0010
0001
0010
,  // measure 53
1000
0010
0001
0100
1000
0100
0001
0010
,  // measure 54
1000
0010
0001
0100
1000
0100
0001
0100
,  // measure 55
0010
0100
0001
1000
0010
0100
0010
1000
,  // measure 56
0001
0100
0001
1000
0010
0100
0100
1000
,  // measure 57
0001
0010
1000
0100
1000
0010
0100
0001
,  // measure 58
0010
0001
0100
0010
1000
0100
1000
0100
,  // measure 59
0001
0100
1000
0100
0001
0100
1000
0010
,  // measure 60
0001
0010
1000
0010
0001
0010
1000
0100
,  // measure 61
0001
0100
1000
0010
0001
0010
1000
0100
,  // measure 62
0001
0100
1000
0010
0001
0010
1001
0000
,  // measure 63
1100
0000
0011
0000
0000
0000
0110
0000
0000
0000
0001
0100
0101
0000
1001
0000
,  // measure 64
1010
0110
1001
0110
,  // measure 65
1100
0000
0110
0000
0011
0000
1001
0000
0000
0000
0010
1000
1010
0000
1001
0000
,  // measure 66
0101
0000
0110
0000
0000
0000
1010
0011
,  // measure 67
0101
1100
0000
0011
0000
0110
0000
1100
,  // measure 68
1001
0000
0110
0000
0110
0000
0000
1100
,  // measure 69
0011
0000
1000
0100
0101
0000
0000
0000
0110
0000
0000
0000
0001
0010
1000
0100
,  // measure 70
1001
0000
0000
0000
1001
0100
0001
0100
1000
0010
0001
0010
1001
0000
0100
0000
,  // measure 71
0011
0000
1010
0000
0110
0000
0001
0000
1000
0000
0010
0001
1100
0000
1001
0000
,  // measure 72
0101
0010
1001
0100
1001
0010
0110
0001
,  // measure 73
1010
0000
0110
0000
0011
0000
1001
0000
0100
0000
0010
1000
0101
0000
1001
0000
,  // measure 74
1010
0000
0100
0000
0011
0000
1100
0000
0001
1000
0001
1000
1001
0000
1010
0000
,  // measure 75
0011
0110
1000
0101
0010
1100
0001
0110
,  // measure 76
1001
0000
0100
0000
0101
0000
0010
0000
1010
0000
0001
0000
0110
0000
1000
0001
,  // measure 77
0010
0100
1000
0100
0101
0000
0010
0000
1100
0000
0001
0000
1001
1000
0100
0010
,  // measure 78
0001
0000
0110
0000
0001
0010
0100
1000
0001
0100
0010
1000
1001
0000
0000
0000
,  // measure 79
1001
0000
0110
0000
,  // measure 80
1001
0000
0110
0000
,  // measure 81
0001
0100
1000
0100
,  // measure 82
0001
0010
1000
0010
,  // measure 83
1001
0000
0000
0000
0000
0000
0011
0000
0000
0011
0000
0000
0000
0000
0000
0101
0000
0000
0000
0000
0000
1000
0100
0010
,  // measure 84
0001
0000
1100
1100
1010
1010
0110
0000
,  // measure 85
1001
0000
0000
0110
0000
0000
0011
0000
0000
0001
0010
0100
1000
0000
0000
0110
0000
0000
1100
0000
0000
1000
0100
0010
,  // measure 86
0001
0000
0000
0110
0000
0000
1001
0000
0000
0110
0000
0000
0001
0100
0010
1000
0100
0010
0001
0000
0000
0000
0000
0000
,  // measure 87
1001
0000
0000
0000
0000
0000
1010
0000
0000
1100
0000
0000
0000
0000
0000
0110
0000
0000
0000
0000
0000
0001
0010
1000
,  // measure 88
0010
0000
0101
0011
0110
1100
1001
0010
,  // measure 89
0101
0000
0000
1100
0000
0000
0011
0000
0000
1000
0100
0010
0100
0000
0000
1010
0000
0000
0101
0000
0000
0001
0010
0100
,  // measure 90
0010
0000
0000
0110
0000
0000
1001
0000
0000
0110
0000
0000
1000
0010
0100
0001
0010
0100
1000
0000
0000
0000
0000
0000
,  // measure 91
1001
0000
0000
0100
0000
0000
0011
0000
0000
0110
0000
0000
0001
0000
0000
1100
0000
0000
0010
0000
0000
1000
0100
0001
,  // measure 92
0010
1000
0011
1100
0110
1001
1010
0001
,  // measure 93
0101
0010
1100
0011
1100
0101
1010
0101
,  // measure 94
1000
0100
1000
0100
0010
0001
0010
0001
1000
0010
1000
0010
0100
0001
0100
0001
1000
0100
0010
0000
0000
0001
0000
0000
,  // measure 95
1010
0000
0000
0100
0000
0000
0011
0000
0000
0101
0000
0000
0010
0000
0000
1100
0000
0000
0001
0000
0000
1000
0010
0001
,  // measure 96
0010
0100
0110
1001
0011
1100
1001
0010
,  // measure 97
0101
0000
0000
1010
0000
0000
1001
0000
0000
1000
0001
1000
0001
0000
0000
0011
0000
0000
1100
0000
0000
0110
0000
0000
,  // measure 98
1000
0100
0010
0001
1000
0100
0010
0001
1000
0010
0100
0001
1000
0010
0100
0001
1000
0100
0001
0100
1000
0010
0001
0010
,  // measure 99
1000
0000
0000
0000
1010
0000
0000
0000
0101
0000
0000
0000
0110
0000
0001
0000
0001
0000
0010
0000
0100
0000
0100
0000
1000
0000
0010
0000
0100
0000
0001
0010
0011
0000
0001
0000
0011
0000
1010
0000
0001
0010
1000
0010
0001
0000
0100
0000
1100
0000
0000
0000
0110
0000
0011
0000
0110
0000
1100
0000
0000
0000
0010
0000
,  // measure 100
0011
0000
0000
0000
0101
0000
0000
0000
1010
0000
0000
0000
1001
0000
1000
0000
1000
0000
0100
0000
0010
0000
0010
0000
0001
0000
0010
0000
0100
0000
1000
0100
0010
0000
0001
0010
1000
0000
1000
0100
0001
0000
0001
0100
1000
0000
0100
0000
0010
0000
0000
0000
1001
0000
0110
0000
1001
0000
0110
0000
0000
0000
0000
0000
,  // measure 101
2002
0000
0000
0000
,  // measure 102
0000
0000
0000
0000
,  // measure 103
0000
0000
0000
0000
,  // measure 104
0000
0000
0000
0000
,  // measure 105
0000
0000
0000
0000
,  // measure 106
0000
0000
0000
0000
,  // measure 107
0000
0000
0000
0000
,  // measure 108
0000
0000
0000
0000
,  // measure 109
0000
0000
0000
0000
,  // measure 110
0000
0000
0000
0000
,  // measure 111
0000
0000
0000
0000
,  // measure 112
0000
0000
0000
0000
,  // measure 113
0000
0000
0000
0000
,  // measure 114
0000
0000
0000
0000
,  // measure 115
0000
0000
0000
0000
,  // measure 116
0000
0000
0000
0000
,  // measure 117
0000
0000
0000
0000
,  // measure 118
0000
0000
0000
0000
,  // measure 119
0000
0000
0000
0000
,  // measure 120
0000
0000
0000
0000
,  // measure 121
0000
0000
0000
0000
,  // measure 122
0000
0000
0000
0000
,  // measure 123
0000
0000
0000
0000
,  // measure 124
0000
0000
0000
0000
,  // measure 125
0000
0000
0000
0000
,  // measure 126
0000
0000
0000
0000
,  // measure 127
0000
0000
0000
0000
,  // measure 128
0000
0000
0000
0000
,  // measure 129
0000
0000
0000
0000
,  // measure 130
3003
0000
0000
0000
;
