#TITLE:Determinator;
#SUBTITLE:;
#ARTIST:Dust Devil;
#TITLETRANSLIT:;
#SUBTITLETRANSLIT:;
#ARTISTTRANSLIT:;
#GENRE:;
#CREDIT:;
#MUSIC:Determinator.ogg;
#BANNER:Determinator-bn.png;
#BACKGROUND:Determinator-bg.png;
#CDTITLE:;
#SAMPLESTART:-0.007;
#SAMPLELENGTH:26.122;
#SELECTABLE:YES;
#OFFSET:0.007;
#BPMS:0.000=147.000;
#STOPS:;
#BGCHANGES:;
#FGCHANGES:;

//--------------- dance-single - ----------------
#NOTES:
     dance-single:
     :
     Beginner:
     5:
     0,0,0,0,0:
0000
0000
0000
0000
,
0000
0000
0000
0000
,
0000
0000
0000
0000
,
0000
0000
0000
0000
,
0000
0000
0000
0000
,
0000
0000
0000
0000
,
0000
0000
0000
0000
,
0000
0000
0000
0000
0000
0000
0000
1000
,
0000
0000
0000
0000
,
0000
0000
0000
0000
0000
0000
0000
0001
,
0000
0000
0000
0000
,
0000
0000
0000
0000
0000
0000
0000
1000
,
0000
0000
0000
0000
,
0000
0000
0000
0000
0000
0000
0000
0001
,
0000
0000
0000
0000
,
0000
0000
0000
0000
,
1000
0000
0000
0000
,
0100
0000
0000
0000
,
0010
0000
0000
0000
,
0001
0000
0000
0000
,
0100
0000
0000
0000
,
0010
0000
0000
0000
,
1000
0000
0000
0000
,
0001
0000
0000
0000
,
0000
1000
0000
0000
,
1000
0000
0000
1000
0000
0000
1000
0000
,
0000
0100
0000
0000
,
0100
0000
0000
0100
0000
0000
0100
0000
,
0000
0010
0000
0000
,
0010
0000
0000
0010
0000
0000
0010
0000
,
0001
0000
0000
0000
,
0000
0000
0000
0000
0000
0000
0000
1000
,
0000
0000
0000
0000
,
0000
0000
0000
0000
0000
0000
0000
0100
,
0000
0000
0000
0000
,
0000
0000
0000
0000
0000
0000
0000
0010
,
0000
0000
0000
0000
,
0000
0000
0000
0000
0000
0000
0000
0001
,
0000
0000
0000
0000
,
2002
0000
0000
0000
,
0000
0000
0000
0000
,
0000
0000
0000
0000
0000
0000
0000
3003
,
1000
0000
0000
0000
,
0000
0000
0000
0000
0000
0000
0000
0100
,
0000
0000
0000
0000
,
0000
0000
0000
0000
0000
0000
0000
0010
,
0000
0000
0000
0000
0000
0000
0000
0001
,
0000
0000
0000
0000
,
0001
0010
0001
0010
0001
0100
0001
0100
,
0001
1000
0001
1000
0010
1000
0010
1000
,
0010
0002
0003
0000
,
0002
0000
0003
0002
0000
0003
0002
0000
,
0003
0200
0300
0000
,
0200
0000
0300
0200
0000
0300
0200
0000
,
0300
0020
0030
0000
,
0020
0000
0030
0020
0000
0030
0020
0000
,
1030
0000
0000
0000
,
0000
0000
0000
0000
0000
0000
0000
0100
,
0000
0000
0000
0000
,
0000
0000
0000
0000
0000
0000
0000
0010
,
0000
0000
0000
0000
,
0000
0000
0000
0000
0000
0000
0000
0001
,
0000
0000
0000
0000
,
0000
0000
1000
0000
0001
0000
0000
2002
,
0000
0000
0000
0000
0000
0000
0000
3003
;

//--------------- dance-single - ----------------
#NOTES:
     dance-single:
     :
     Easy:
     7:
     0.229045,0.409048,0,0.513421,0,178,178,0,57,0,0,0.229045,0.409048,0,0.513421,0,178,178,0,57,0,0:
0000
0000
0000
0000
,
0000
0000
0000
0000
,
0000
0000
0000
0000
,
0000
0000
0000
0000
0000
1000
0000
0002
,
0000
0000
0000
0000
,
0000
0000
0000
0013
0000
0100
0000
0020
,
0000
0000
0000
0000
0000
0000
0000
0030
,
0100
0000
0000
0010
0000
0002
0000
2003
,
0000
3000
0000
0000
0000
0000
0000
0000
,
0000
0000
0020
0000
0030
2000
0000
3020
,
0000
0030
0000
0000
0000
0000
0000
0000
,
0000
0000
2000
0000
3000
0020
0000
0032
,
0000
0003
0000
0000
0000
0000
0000
0000
,
0000
0000
0002
0003
0200
0000
0300
2000
,
0000
3000
0000
0000
0000
0000
0000
0000
,
0002
0000
0003
0000
,
2000
0000
0000
0000
,
3200
0000
0000
0000
,
0320
0000
0000
0000
,
0032
0000
0000
0000
,
0203
0000
0000
0000
,
0320
0000
0000
0000
,
2030
0000
0000
0000
,
3002
0000
0000
0000
,
1003
2000
3000
0000
,
0200
0000
0300
0020
0000
0030
0002
0000
,
0003
0020
0030
0000
,
0200
0000
0300
2000
0000
3000
0200
0000
,
0300
0020
0030
0000
,
0002
0000
0003
0020
0000
0030
0200
0000
,
1300
0000
0000
0001
0000
0000
0000
0000
,
1000
0000
0000
0020
0030
0002
0000
0023
,
0000
0030
0000
1000
0000
0100
0000
0002
,
0000
0003
0200
0000
0300
0200
0000
2300
,
0000
3000
0000
1000
0000
1000
0000
0100
,
0000
0000
0020
0000
0030
0020
0000
0032
,
0000
0003
0000
0001
0000
0010
0000
0100
,
0000
0000
0200
0300
0020
0000
0030
0002
,
0000
0000
0000
0000
0000
0003
0000
0000
,
2000
0000
0002
0000
,
0000
0000
0000
0000
,
0000
0000
0000
0000
0000
0000
0000
0000
0000
0000
0000
0000
0000
0000
0000
0003
,
3001
0000
0000
0010
0000
0000
0000
0000
,
0000
1000
0000
0100
0000
0010
0000
0002
,
0000
0000
0020
0003
0000
0000
0000
0230
,
0000
0000
0000
2300
3000
1000
0000
0002
,
0000
0003
0010
0000
0000
0010
0000
0010
,
0000
1000
0000
1000
0000
0001
0000
1000
,
0001
0010
0001
0000
0001
0010
0001
0000
0001
0100
0001
0000
0001
0100
0001
0000
,
0001
1000
0001
0000
0001
1000
0001
0000
1000
0001
1000
0000
0010
0100
0010
0000
,
1000
0200
0300
0000
,
0002
0000
0003
0020
0000
0030
2000
0000
,
3000
0020
0030
0000
,
2000
0000
3000
0200
0000
0300
0002
0000
,
0003
0020
0030
0000
,
0200
0000
0300
2000
0000
3000
0002
0000
,
0013
0000
0000
0010
0000
0000
0000
0000
,
1000
0000
0000
1000
0000
0000
0000
0002
,
0000
0003
0000
1000
0000
0100
0000
0020
,
0000
0030
0002
0000
0003
0020
0000
0230
,
0000
0300
0000
1000
0000
0100
0000
0010
,
0000
0000
0020
0000
0030
0200
0000
2300
,
0000
3000
0000
1000
0000
0100
0000
0020
,
0000
0030
0002
0003
0020
0000
0030
2000
,
0000
0000
0000
0000
0000
0000
0000
3001
;

//--------------- dance-single - ----------------
#NOTES:
     dance-single:
     :
     Medium:
     8:
     0.29081,0.525919,0.063052,0.540443,0.018015,226,219,7,60,0,0,0.29081,0.525919,0.063052,0.540443,0.018015,226,219,7,60,0,0:
2002
0000
0000
0000
,
0000
0000
3003
0200
0300
0020
0030
2000
,
0000
0000
0000
0000
,
0000
0000
0000
0000
3000
0020
0030
0002
,
0000
0000
0000
0000
,
0000
0000
0000
0023
0030
0200
0300
2000
,
0000
0000
0000
0000
0000
0000
0000
3000
,
1000
0001
1000
0001
1000
0002
0000
2003
,
0000
3000
0010
0000
0000
0100
0000
0000
,
0010
0000
0010
0100
0010
0200
0000
0320
,
0000
0030
1000
0000
0000
0100
0000
0000
,
0001
0000
2000
0000
3010
0002
0000
0023
,
0000
0030
1000
0000
0000
0010
0000
0000
,
0001
0000
2000
0000
3002
0000
1003
0002
,
0000
0003
0000
0000
0000
0000
0000
0000
,
1000
0001
1000
0002
0000
0000
0003
0000
0000
0000
0000
0000
,
1000
0100
0010
0001
,
1000
0100
0010
0001
,
1000
0100
0010
0001
,
1000
0100
0010
0001
,
1000
0100
0010
0001
,
1000
0100
0010
0001
,
1000
0100
0010
0001
,
1000
0100
0010
0001
,
1001
0002
0003
0000
,
2000
0000
3000
0200
0000
0300
0020
0000
,
0030
0002
0003
0000
,
0020
0000
0030
2000
0000
3000
0020
0000
,
0030
0002
0003
0000
,
0200
0000
0300
2000
0000
3000
0200
0000
,
0301
0000
0000
0001
0000
0000
0000
0000
,
1000
0000
0000
1000
0000
1000
0000
0002
,
0000
0003
0000
0010
0000
0100
0000
2000
,
0000
3000
0200
0000
0300
0002
0000
0023
,
0000
0030
0000
1000
0000
0100
0000
0020
,
0000
0000
0030
0000
0020
0000
0000
0000
0030
0000
0200
0000
0000
0300
0200
0000
,
0000
0300
0000
1000
0000
0100
0000
0002
,
0000
0003
0200
0000
2300
0000
3000
0002
,
0000
0000
0000
0000
0000
0000
0000
0003
,
1001
0000
0020
0000
,
0000
0000
0000
0000
,
0000
0000
0000
0030
,
1001
0000
0000
0001
0000
0000
0000
0000
,
0000
1000
0000
0100
0000
0010
0000
0002
,
0000
0000
0023
0000
0000
0000
0000
0230
,
0000
0000
0000
1300
0000
1000
0000
0002
,
0000
0003
0010
0000
0000
0010
0000
0100
,
0000
1000
0000
0100
0000
0020
0030
0000
,
0001
0010
0001
0010
0001
0010
0001
0010
0001
0100
0001
0100
0001
0100
0001
0100
,
0001
1000
0001
1000
0001
1000
0001
1000
0001
0010
0001
0010
0100
1000
0100
1000
,
0001
0200
0300
0000
,
0002
0000
0003
0020
0000
0030
2000
0000
,
3000
0020
0030
0000
,
2000
0000
3000
0200
0000
0300
0002
0000
,
0003
2000
3000
0000
,
0002
0000
0003
0020
0000
0030
0200
0000
,
0300
0000
0000
0000
,
0000
0000
0000
2000
3000
0200
0300
0002
,
0000
0003
0000
0020
0030
0200
0300
2000
,
0000
3000
0200
0300
0010
0002
0000
0013
,
0000
0000
0000
2000
3000
0200
0300
0020
,
0000
0030
0002
0003
0010
0200
0000
1300
,
0000
0000
0000
2000
3000
0200
0300
0002
,
0000
0003
0020
0030
0200
0300
1000
2002
,
0000
0000
0000
0000
0000
0000
3003
1001
;

//--------------- dance-single - ----------------
#NOTES:
     dance-single:
     :
     Hard:
     9:
     0.384744,0.993402,0.225185,0.630517,0.081066,299,274,25,70,0,0,0.384744,0.993402,0.225185,0.630517,0.081066,299,274,25,70,0,0:
0000
0000
0000
0000
,
0000
0000
0000
0000
,
0000
0000
0000
0000
,
0000
0000
0000
0000
0000
1001
0000
0220
,
0000
0000
0000
0000
,
0000
0000
0330
1010
0000
0101
0000
2002
,
0000
0000
0000
0000
,
3003
0000
0000
1000
0100
0020
0000
0032
,
0000
0003
0010
0000
0000
0010
0000
0000
,
0010
0000
0100
1000
0001
0200
0000
0320
,
0000
0030
0100
0000
0000
0100
0000
0000
,
0100
0000
0010
0001
0010
0002
0000
0203
,
0000
0300
1000
0000
0000
1000
0000
0000
,
1000
0000
0001
0010
0100
1000
0001
2000
,
0000
3000
0000
0000
0000
0000
0000
0000
,
0001
1000
0001
2000
0000
0000
3000
0000
0000
0000
0000
0000
,
1001
0100
0010
0001
,
0100
0010
1000
0010
,
0100
0001
0010
0100
,
1000
0100
0001
0100
,
1000
0010
0001
0010
,
1000
0100
0001
1000
,
0010
0001
1000
0100
,
0001
0010
1000
0001
,
1001
0000
0000
0000
0020
0000
0000
0030
0010
0000
0000
0000
0000
0000
0000
0000
,
2000
0000
0000
3000
1000
0000
2000
0000
0000
3000
1000
0000
2000
0000
0000
3000
,
1000
0000
0000
0000
0200
0000
0000
0300
0100
0000
0000
0000
0000
0000
0000
0000
,
0002
0000
0000
0003
0001
0000
0002
0000
0000
0003
0001
0000
0002
0000
0000
0003
,
0001
0000
0000
0000
2000
0000
0000
3000
1000
0000
0000
0000
0000
0000
0000
0000
,
0200
0000
0000
0300
0100
0000
0020
0000
0000
0030
0010
0000
0002
0000
0000
0003
,
0001
0000
0000
1001
0000
0000
0000
0000
,
1001
0000
0000
1000
0100
0020
0000
0032
,
0000
0003
0000
0100
0001
0100
1000
0200
,
0000
0300
0010
0001
0010
2000
0000
3020
,
0000
0030
0000
1000
0100
0001
0100
2000
,
0000
3000
0001
0010
1000
0020
0000
0032
,
0000
0023
0030
0010
0001
0100
1000
0200
,
0000
0300
1000
0100
0010
0001
1000
0002
,
0000
0000
0000
0000
0000
0000
0000
0003
,
1001
0000
0020
0000
,
0000
0000
0000
0000
,
0000
0000
0000
0000
0000
0000
0000
0030
,
2001
0000
0000
3000
1010
0000
0020
0000
0000
0000
0030
0000
0000
0000
0000
0000
,
0000
1000
0100
1000
0010
1000
0001
2000
,
0000
3100
0020
0000
0000
0000
0000
2030
,
3200
0000
0000
0320
0030
0001
0010
0002
,
0000
0103
0002
0000
0003
1000
0100
0020
,
0000
0032
0000
2003
0000
3002
0000
0103
,
0001
0010
0001
1000
0010
0100
0010
0001
0100
1000
0100
0001
1000
0010
1000
0100
,
0010
0001
0010
1000
0001
0100
0001
1000
0100
0010
0100
0010
0001
1000
0001
1000
,
1001
0000
0000
0000
0200
0000
0000
0300
0100
0000
0000
0000
0000
0000
0000
0000
,
0020
0000
0000
0030
0010
0000
0002
0000
0000
0003
0001
0000
2000
0000
0000
3000
,
1000
0000
0000
0000
2000
0000
0000
3000
1100
0000
0000
0000
0000
0000
0000
0000
,
0002
0000
0000
0003
0011
0000
0020
0000
0000
0030
0110
0000
0200
0000
0000
0300
,
1100
0000
0000
0000
0200
0000
0000
0300
0110
0000
0000
0000
0000
0000
0000
0000
,
2000
0000
0000
3000
1010
0000
0020
0000
0000
0030
0110
0000
0200
0000
0000
0300
,
0101
0000
0000
1001
0000
0000
0000
0000
,
1001
0000
0000
1000
0100
0020
0000
0032
,
0000
0003
0000
0001
0010
0100
1000
0020
,
0000
0130
0001
0100
0010
0002
0000
0203
,
0000
0300
0000
1000
0100
0010
0100
0020
,
0000
0031
0010
0100
0010
0200
0000
2300
,
0000
3000
0000
1000
0100
0010
0001
2000
,
0000
3001
0001
1000
1000
0010
0100
2002
,
0000
0000
0000
0000
0000
0000
3003
1001
;

//--------------- dance-single - ----------------
#NOTES:
     dance-single:
     :
     Challenge:
     16:
     0.62151,1.200234,0.306251,0.405332,0.490903,483,449,34,45,0,0,0.62151,1.200234,0.306251,0.405332,0.490903,483,449,34,45,0,0:
0002
0000
0000
0000
,
0000
0000
0000
0023
0000
0230
0000
2000
,
0300
0000
0000
0000
,
0000
0000
0000
0000
0000
3020
0000
0032
,
0000
0000
0000
0000
,
0000
0000
0000
0203
0000
2300
0000
3002
,
0000
0000
0000
0000
0000
0000
0000
0003
,
0000
0000
0000
0001
0100
1000
0000
0002
,
0003
0000
0110
0000
0000
0110
0000
0000
,
0110
0000
1000
0100
0010
0002
0000
2003
,
0000
3000
0110
0000
0000
0101
0000
0000
,
0110
0000
0010
0001
0100
2000
0000
3002
,
0000
0003
0110
0000
0000
1010
0000
0000
,
0110
0000
1000
0100
0001
0010
1000
0002
,
0000
0003
1001
0000
0000
1001
0000
0000
,
0001
0010
0100
2000
0000
0000
3000
0000
0000
0000
0000
0000
,
1001
1000
0010
0001
,
0010
1000
0100
0010
,
0001
0100
0010
1000
,
0100
0010
0001
1000
,
0010
0100
0001
0010
,
0100
0100
1000
0000
0100
0100
0010
0000
,
0010
0100
1000
0100
0010
0001
1000
0000
,
1000
0010
0100
0001
0010
0100
1000
0001
,
1001
0000
0000
0000
0000
0000
0010
0100
0010
0001
0010
0100
1000
0000
0000
0000
0000
0000
0000
0000
0000
0000
0000
0000
,
0100
0010
0001
0010
0100
0010
0001
0000
0000
0001
0100
0010
0001
0010
0100
0010
0000
0000
0010
0001
0010
0100
1000
0010
,
0100
0000
0000
0000
0000
0000
1000
0100
0010
0100
1000
0100
1000
0000
0000
0000
0000
0000
0000
0000
0000
0000
0000
0000
,
0001
0100
0001
0010
0100
0010
0001
0000
0000
0010
0001
0010
0100
1000
0100
0010
0000
0000
0010
0001
0010
1000
0100
1000
,
0010
0000
0000
0000
0000
0000
1000
0010
0100
1000
0100
0010
1000
0000
0000
0000
0000
0000
0000
0000
0000
0000
0000
0000
,
0001
0100
0010
0001
0010
0100
0001
0000
0000
0001
0010
0100
0001
0100
0010
0001
0000
0000
0001
1000
0100
0001
0100
1000
,
0001
0000
0200
0000
,
0000
0000
0300
0100
1000
0010
0000
0200
,
0000
0300
0000
1000
0100
0010
0001
2000
,
0000
3000
0001
0010
0100
2000
0000
3002
,
0000
0003
0000
0010
0100
1000
0001
0020
,
0000
0030
0010
0100
1000
0200
0000
0320
,
0000
0230
0320
0031
0010
0100
1000
0020
,
0000
0030
0010
0100
1000
0100
0010
0002
,
0000
0000
0000
0000
0000
0000
0000
0000
0000
0000
0000
0000
0000
0000
0000
0003
,
2002
0000
0000
0000
0000
0000
3003
0000
0000
0000
0000
0000
1000
0100
0010
0100
0010
0001
0100
0010
1000
0100
0010
0100
,
1000
0010
0100
0001
0010
0100
0010
0001
0010
0100
1000
0010
0100
0001
0100
0010
0001
0100
0010
0001
0100
1000
0100
0001
,
0010
0001
0100
0010
0001
1000
0100
1000
0010
0100
1000
0010
1000
0100
0010
0100
0010
0001
0100
0010
0100
0001
0010
0100
1000
0100
0010
0001
0100
0010
0100
0010
,
0002
0000
0023
0230
0000
0300
0000
0000
,
0000
1000
0100
0010
0001
0010
0100
2000
,
0000
0000
3200
0000
0320
0000
0000
0000
0000
0000
0000
0000
0000
0000
0031
0010
,
0002
0000
0000
1003
0000
0100
0010
2000
,
0000
3010
0001
0000
0000
1000
0100
0001
,
0000
0010
0000
0100
0000
1000
0000
0000
,
1000
0100
0010
0001
1000
0010
0100
0001
1000
0100
0010
0100
0001
0010
0100
0010
,
1000
0100
1000
0100
0010
0100
0010
0100
0001
0100
0001
0100
1000
0010
0001
0010
,
1000
0000
0000
0000
0000
0000
1000
0100
0010
0001
0100
0010
1000
0000
0000
0000
0000
0000
0000
0000
0000
0000
0000
0000
,
0001
0100
0010
1000
0100
0010
0001
0000
0000
0001
0010
1000
0010
0001
0010
0100
0000
0000
1000
0010
0001
0010
1000
0010
,
0100
0000
0000
0000
0000
0000
1000
0001
1000
0001
0010
0100
1000
0000
0000
0000
0000
0000
0000
0000
0000
0000
0000
0000
,
0001
0010
0100
1000
0100
0001
1000
0000
0000
1000
0010
0100
0010
0100
0001
0010
0000
0000
0100
0001
1000
0100
0010
0001
,
0100
0000
0000
0000
0000
0000
1000
0100
0010
0001
0010
0100
1000
0000
0000
0000
0000
0000
0000
0000
0000
0000
0000
0000
,
0001
0100
0010
1000
0100
0010
0001
0000
0000
1000
0010
0100
1000
0100
0010
1000
0000
0000
0001
0010
0100
0001
0100
1000
,
0010
0000
0000
0000
0000
0000
0000
0000
0100
0001
0010
1000
0010
0001
0100
1000
,
0100
0001
0010
1000
0010
0001
0100
1000
0100
0001
0010
1000
0010
0001
0200
0000
,
0000
0300
0000
1000
0100
0010
0001
0200
,
0000
0300
0001
0100
0010
2000
0000
3200
,
0000
0300
0000
1000
0100
0010
1000
0200
,
0000
0300
0001
1000
0100
0002
0000
0023
,
0000
0030
0000
0100
1000
0001
0100
2000
,
0000
0000
0000
3000
0000
0000
0001
0000
0000
0010
0000
0000
0100
0000
0000
1000
0000
0000
0010
0000
0000
1000
0100
0010
,
0001
0100
0010
1000
0001
0010
0100
1000
0010
0100
0001
1000
0100
0001
0100
1000
0010
0001
0010
1000
0100
0002
0000
0000
,
0003
0000
0000
0000
;
