#TITLE:Detail Disabled;
#SUBTITLE:;
#ARTIST:Raxxo;
#TITLETRANSLIT:;
#SUBTITLETRANSLIT:;
#ARTISTTRANSLIT:;
#GENRE:;
#CREDIT:;
#MUSIC:Detail Disabled.ogg;
#BANNER:Detail Disabled-bn.png;
#BACKGROUND:Detail Disabled-bg.png;
#CDTITLE:;
#SAMPLESTART:9.947;
#SAMPLELENGTH:19.794;
#SELECTABLE:YES;
#OFFSET:-0.050;
#BPMS:0.000=97.000
,288.000=48.500
;
#STOPS:;
#BGCHANGES:;
#FGCHANGES:;

//--------------- dance-single - ----------------
#NOTES:
     dance-single:
     :
     Beginner:
     2:
     0,0,0,0,0:
0000
0000
0000
0000
,
0000
0000
0000
0000
,
0000
0000
0000
0000
,
0000
0000
0000
0000
,
1000
1000
1000
1000
,
1000
1000
1000
1000
,
1000
1000
1000
1000
,
1000
1000
1000
1000
,
0100
0100
0100
0100
,
0100
0100
0100
0100
,
0100
0100
0100
0100
,
0100
0100
0100
0100
,
0010
0010
0010
0010
,
0010
0010
0010
0010
,
0010
0010
0010
0010
,
0010
0010
0010
0010
,
0001
0001
0001
0001
,
0001
0001
0001
0001
,
0001
0001
0001
0001
,
0001
0001
0001
0001
,
0100
0100
0100
0100
,
0100
0100
0100
0100
,
0100
0100
0100
0100
,
0100
0100
0100
0100
,
0010
0010
0010
0010
,
0010
0010
0010
0010
,
0010
0010
0010
0010
,
0010
0010
0010
0010
,
1000
1000
1000
1000
,
1000
1000
1000
1000
,
1000
1000
1000
1000
,
1000
1000
1000
1000
,
1000
0000
0000
0000
,
0100
0000
0000
0000
,
0010
0000
0000
0000
,
0001
0000
0000
0000
,
0100
0000
0000
0000
,
0010
0000
0000
0000
,
1000
0000
0000
0000
,
0001
0000
0000
0000
,
1000
1000
1000
1000
,
1000
1000
1000
1000
,
1000
1000
1000
1000
,
1000
1000
1000
1000
,
0010
0010
0010
0010
,
0010
0010
0010
0010
,
0010
0010
0010
0010
,
0010
0010
0010
0010
,
0100
0100
0100
0100
,
0100
0100
0100
0100
,
0100
0100
0100
0100
,
0100
0100
0100
0100
,
0001
0001
0001
0001
,
0001
0001
0001
0001
,
0001
0001
0001
0001
,
0001
0001
0001
0001
,
0010
0010
0010
0010
,
0010
0010
0010
0010
,
0010
0010
0010
0010
,
0010
0010
0010
0010
,
0100
0100
0100
0100
,
0100
0100
0100
0100
,
0100
0100
0100
0100
,
0100
0100
0100
0100
,
1000
0000
0000
0000
,
0010
0000
0000
0000
,
0100
0000
0000
0000
,
0001
0000
0000
0000
,
0010
0000
0000
0000
,
0100
0000
0000
0000
,
1000
0000
0000
0000
,
0001
0000
0000
0000
;

//--------------- dance-single - ----------------
#NOTES:
     dance-single:
     :
     Easy:
     5:
     0,0,0,0,0:
0000
0000
0000
0000
,
0000
0000
0000
0000
,
0000
0000
0000
0000
,
0000
0000
0000
0000
,
1000
0100
1000
0100
1000
0100
1000
0100
,
1000
0100
1000
0100
1000
0100
1000
0100
,
1000
0100
1000
0100
1000
0100
1000
0100
,
1000
0100
1000
0100
1000
0100
1000
0100
,
0001
0010
0001
0010
0001
0010
0001
0010
,
0001
0010
0001
0010
0001
0010
0001
0010
,
0001
0010
0001
0010
0001
0010
0001
0010
,
0001
0010
0001
0010
0001
0010
0001
0010
,
1000
0010
1000
0010
1000
0010
1000
0010
,
1000
0010
1000
0010
1000
0010
1000
0010
,
1000
0010
1000
0010
1000
0010
1000
0010
,
1000
0010
1000
0010
1000
0010
1000
0010
,
0001
0100
0001
0100
0001
0100
0001
0100
,
0001
0100
0001
0100
0001
0100
0001
0100
,
0001
0100
0001
0100
0001
0100
0001
0100
,
0001
0100
0001
0100
0001
0100
0001
0100
,
1000
0001
1000
0001
1000
0001
1000
0001
,
1000
0001
1000
0001
1000
0001
1000
0001
,
1000
0001
1000
0001
1000
0001
1000
0001
,
1000
0001
1000
0001
1000
0001
1000
0001
,
0001
1000
0001
1000
0001
1000
0001
1000
,
0001
1000
0001
1000
0001
1000
0001
1000
,
0001
1000
0001
1000
0001
1000
0001
1000
,
0001
1000
0001
1000
0001
1000
0001
1000
,
1000
0100
0010
0100
1000
0100
0010
0100
,
1000
0100
0010
0100
1000
0100
0010
0100
,
1000
0010
0100
0010
1000
0010
0100
0010
,
1000
0010
0100
0010
1000
0010
0100
0010
,
1000
0100
0010
0001
1000
0100
0010
0001
,
1000
0100
0010
0001
1000
0100
0010
0001
,
1000
0100
0010
0001
1000
0100
0010
0001
,
1000
0100
0010
0001
1000
0100
0010
0001
,
1000
0010
0100
0001
1000
0010
0100
0001
,
1000
0010
0100
0001
1000
0010
0100
0001
,
1000
0010
0100
0001
1000
0010
0100
0001
,
1000
0010
0100
0001
1000
0010
0100
0001
,
1000
0100
1000
0100
1000
0010
1000
0010
,
1000
0100
1000
0100
1000
0010
1000
0010
,
1000
0100
1000
0100
1000
0010
1000
0010
,
1000
0100
1000
0100
1000
0010
1000
0010
,
0001
0010
0001
0010
0001
0100
0001
0100
,
0001
0010
0001
0010
0001
0100
0001
0100
,
0001
0010
0001
0010
0001
0100
0001
0100
,
0001
0010
0001
0010
0001
0100
0001
0100
,
1000
0010
1000
0010
1000
0100
1000
0100
,
1000
0010
1000
0010
1000
0100
1000
0100
,
1000
0010
1000
0010
1000
0100
1000
0100
,
1000
0010
1000
0010
1000
0100
1000
0100
,
0001
0100
0001
0100
0001
0010
0001
0010
,
0001
0100
0001
0100
0001
0010
0001
0010
,
0001
0100
0001
0100
0001
0010
0001
0010
,
0001
0100
0001
0100
0001
0010
0001
0010
,
1000
0100
0010
0100
1000
0100
0010
0100
,
1000
0010
0100
0010
1000
0010
0100
0010
,
1000
0010
0100
0010
1000
0010
0100
0010
,
1000
0100
0010
0100
1000
0100
0010
0100
,
1000
0100
0010
0100
1000
0010
0100
0010
,
1000
0100
0010
0100
1000
0010
0100
0010
,
1000
0010
0100
0010
1000
0100
0010
0100
,
1000
0010
0100
0010
1000
0100
0010
0100
,
1000
0010
0100
0001
1000
0010
0100
0001
,
1000
0010
0100
0001
1000
0010
0100
0001
,
1000
0010
0100
0001
1000
0010
0100
0001
,
1000
0010
0100
0001
1000
0010
0100
0001
,
1000
0100
0010
0001
1000
0100
0010
0001
,
1000
0100
0010
0001
1000
0100
0010
0001
,
1000
0100
0010
0001
1000
0100
0010
0001
,
1000
0100
0010
0001
1000
0100
0010
0001
,
1000
0000
0000
0000
;

//--------------- dance-single - ----------------
#NOTES:
     dance-single:
     :
     Medium:
     7:
     0,0,0,0,0:
0000
0000
0000
0000
,
0000
0000
0000
0000
,
0000
0000
0000
0000
,
0000
0000
0000
0000
,
1000
0100
0010
0000
1000
0000
0010
0000
1000
0100
0010
0000
1000
0000
0010
0000
,
1000
0100
0010
0000
1000
0000
0010
0000
1000
0100
0010
0000
1000
0000
0010
0000
,
1000
0100
0010
0000
1000
0000
0010
0000
1000
0100
0010
0000
1000
0000
0010
0000
,
1000
0100
0010
0000
1000
0000
0010
0000
1000
0100
0010
0000
1000
0000
0010
0000
,
0001
0010
0100
0000
0001
0000
0100
0000
0001
0010
0100
0000
0001
0000
0100
0000
,
0001
0010
0100
0000
0001
0000
0100
0000
0001
0010
0100
0000
0001
0000
0100
0000
,
0001
0010
0100
0000
0001
0000
0100
0000
0001
0010
0100
0000
0001
0000
0100
0000
,
0001
0010
0100
0000
0001
0000
0100
0000
0001
0010
0100
0000
0001
0000
0100
0000
,
1000
0010
0100
0000
1000
0000
0100
0000
1000
0010
0100
0000
1000
0000
0100
0000
,
1000
0010
0100
0000
1000
0000
0100
0000
1000
0010
0100
0000
1000
0000
0100
0000
,
1000
0010
0100
0000
1000
0000
0100
0000
1000
0010
0100
0000
1000
0000
0100
0000
,
1000
0010
0100
0000
1000
0000
0100
0000
1000
0010
0100
0000
1000
0000
0100
0000
,
0001
0100
0010
0000
0001
0000
0010
0000
0001
0100
0010
0000
0001
0000
0010
0000
,
0001
0100
0010
0000
0001
0000
0010
0000
0001
0100
0010
0000
0001
0000
0010
0000
,
0001
0100
0010
0000
0001
0000
0010
0000
0001
0100
0010
0000
0001
0000
0010
0000
,
0001
0100
0010
0000
0001
0000
0010
0000
0001
0100
0010
0000
0001
0000
0010
0000
,
1000
0100
0010
0000
1000
0000
0010
0000
0100
0010
0001
0000
0100
0000
0001
0000
,
1000
0100
0010
0000
1000
0000
0010
0000
0100
0010
0001
0000
0100
0000
0001
0000
,
1000
0100
0010
0000
1000
0000
0010
0000
0100
0010
0001
0000
0100
0000
0001
0000
,
1000
0100
0010
0000
1000
0000
0010
0000
0100
0010
0001
0000
0100
0000
0001
0000
,
1000
0010
0100
0000
1000
0000
0100
0000
0010
0100
0001
0000
0010
0000
0001
0000
,
1000
0010
0100
0000
1000
0000
0100
0000
0010
0100
0001
0000
0010
0000
0001
0000
,
1000
0010
0100
0000
1000
0000
0100
0000
0010
0100
0001
0000
0010
0000
0001
0000
,
1000
0010
0100
0000
1000
0000
0100
0000
0010
0100
0001
0000
0010
0000
0001
0000
,
1000
0100
0010
0000
1000
0000
0010
0000
0001
0010
0100
0000
0001
0000
0100
0000
,
1000
0100
0010
0000
1000
0000
0010
0000
0001
0010
0100
0000
0001
0000
0100
0000
,
1000
0100
0010
0000
1000
0000
0010
0000
0001
0010
0100
0000
0001
0000
0100
0000
,
1000
0100
0010
0000
1000
0000
0010
0000
0001
0010
0100
0000
0001
0000
0100
0000
,
1000
0100
0001
0000
1000
0000
0001
0000
1000
0100
0001
0000
1000
0000
0001
0000
,
1000
0100
0001
0000
1000
0000
0001
0000
1000
0100
0001
0000
1000
0000
0001
0000
,
1000
0100
0001
0000
1000
0000
0001
0000
1000
0100
0001
0000
1000
0000
0001
0000
,
1000
0100
0001
0000
1000
0000
0001
0000
1000
0100
0001
0000
1000
0000
0001
0000
,
1000
0010
0001
0000
1000
0000
0001
0000
1000
0010
0001
0000
1000
0000
0001
0000
,
1000
0010
0001
0000
1000
0000
0001
0000
1000
0010
0001
0000
1000
0000
0001
0000
,
1000
0010
0001
0000
1000
0000
0001
0000
1000
0010
0001
0000
1000
0000
0001
0000
,
1000
0010
0001
0000
1000
0000
0001
0000
1000
0010
0001
0000
1000
0000
0001
0000
,
1000
0010
0100
0000
1000
0000
0100
0000
0001
0100
0010
0000
0001
0000
0010
0000
,
1000
0010
0100
0000
1000
0000
0100
0000
0001
0100
0010
0000
0001
0000
0010
0000
,
1000
0010
0100
0000
1000
0000
0100
0000
0001
0100
0010
0000
0001
0000
0010
0000
,
1000
0010
0100
0000
1000
0000
0100
0000
0001
0100
0010
0000
0001
0000
0010
0000
,
1000
0100
0010
0000
1000
0000
0010
0000
1000
0010
0100
0000
1000
0000
0100
0000
,
1000
0100
0010
0000
1000
0000
0010
0000
1000
0010
0100
0000
1000
0000
0100
0000
,
1000
0100
0010
0000
1000
0000
0010
0000
1000
0010
0100
0000
1000
0000
0100
0000
,
1000
0100
0010
0000
1000
0000
0010
0000
1000
0010
0100
0000
1000
0000
0100
0000
,
0001
0010
0100
0000
0001
0000
0100
0000
0001
0100
0010
0000
0001
0000
0010
0000
,
0001
0010
0100
0000
0001
0000
0100
0000
0001
0100
0010
0000
0001
0000
0010
0000
,
0001
0010
0100
0000
0001
0000
0100
0000
0001
0100
0010
0000
0001
0000
0010
0000
,
0001
0010
0100
0000
0001
0000
0100
0000
0001
0100
0010
0000
0001
0000
0010
0000
,
1000
0100
0010
0000
1000
0000
0010
0000
0100
0010
0001
0000
0100
0000
0001
0000
,
1000
0010
0100
0000
1000
0000
0100
0000
0010
0100
0001
0000
0010
0000
0001
0000
,
1000
0100
0010
0000
1000
0000
0010
0000
0100
0010
0001
0000
0100
0000
0001
0000
,
1000
0010
0100
0000
1000
0000
0100
0000
0010
0100
0001
0000
0010
0000
0001
0000
,
1000
0010
0100
0000
1000
0000
0100
0000
0010
0100
0001
0000
0010
0000
0001
0000
,
1000
0100
0010
0000
1000
0000
0010
0000
0100
0010
0001
0000
0100
0000
0001
0000
,
1000
0010
0100
0000
1000
0000
0100
0000
0010
0100
0001
0000
0010
0000
0001
0000
,
1000
0100
0010
0000
1000
0000
0010
0000
0100
0010
0001
0000
0100
0000
0001
0000
,
1000
0010
0100
0000
1000
0000
0100
0000
0100
0010
0001
0000
0100
0000
0001
0000
,
1000
0100
0010
0000
1000
0000
0010
0000
0010
0100
0001
0000
0010
0000
0001
0000
,
1000
0010
0100
0000
1000
0000
0100
0000
0100
0010
0001
0000
0100
0000
0001
0000
,
1000
0100
0010
0000
1000
0000
0010
0000
0010
0100
0001
0000
0010
0000
0001
0000
,
0001
0010
1000
0000
0001
0000
1000
0000
0001
0010
1000
0000
0001
0000
1000
0000
,
0001
0010
1000
0000
0001
0000
1000
0000
0001
0010
1000
0000
0001
0000
1000
0000
,
0001
0010
1000
0000
0001
0000
1000
0000
0001
0010
1000
0000
0001
0000
1000
0000
,
0001
0010
1000
0000
0001
0000
1000
0000
0001
0010
1000
0000
0001
0000
1000
0000
,
0001
0100
1000
0000
0001
0000
1000
0000
0001
0100
1000
0000
0001
0000
1000
0000
,
0001
0100
1000
0000
0001
0000
1000
0000
0001
0100
1000
0000
0001
0000
1000
0000
,
0001
0100
1000
0000
0001
0000
1000
0000
0001
0100
1000
0000
0001
0000
1000
0000
,
0001
0100
1000
0000
0001
0000
1000
0000
0001
0100
1000
0000
0001
0000
1000
0000
,
0001
0000
0000
0000
;

//--------------- dance-single - ----------------
#NOTES:
     dance-single:
     :
     Hard:
     8:
     0,0,0,0,0:
0000
0000
0000
0000
,
0000
0000
0000
0000
,
0000
0000
0000
0000
,
0000
0000
0000
0000
,
1000
0100
0010
0000
1000
0100
0010
0000
1000
0100
0010
0000
1000
0100
0010
0000
,
1000
0100
0010
0000
1000
0100
0010
0000
1000
0100
0010
0000
1000
0100
0010
0000
,
1000
0100
0010
0000
1000
0100
0010
0000
1000
0100
0010
0000
1000
0100
0010
0000
,
1000
0100
0010
0000
1000
0100
0010
0000
1000
0100
0010
0000
1000
0100
0010
0000
,
0001
0010
0100
0000
0001
0010
0100
0000
0001
0010
0100
0000
0001
0010
0100
0000
,
0001
0010
0100
0000
0001
0010
0100
0000
0001
0010
0100
0000
0001
0010
0100
0000
,
0001
0010
0100
0000
0001
0010
0100
0000
0001
0010
0100
0000
0001
0010
0100
0000
,
0001
0010
0100
0000
0001
0010
0100
0000
0001
0010
0100
0000
0001
0010
0100
0000
,
1000
0010
0100
0000
1000
0010
0100
0000
1000
0010
0100
0000
1000
0010
0100
0000
,
1000
0010
0100
0000
1000
0010
0100
0000
1000
0010
0100
0000
1000
0010
0100
0000
,
1000
0010
0100
0000
1000
0010
0100
0000
1000
0010
0100
0000
1000
0010
0100
0000
,
1000
0010
0100
0000
1000
0010
0100
0000
1000
0010
0100
0000
1000
0010
0100
0000
,
0001
0100
0010
0000
0001
0100
0010
0000
0001
0100
0010
0000
0001
0100
0010
0000
,
0001
0100
0010
0000
0001
0100
0010
0000
0001
0100
0010
0000
0001
0100
0010
0000
,
0001
0100
0010
0000
0001
0100
0010
0000
0001
0100
0010
0000
0001
0100
0010
0000
,
0001
0100
0010
0000
0001
0100
0010
0000
0001
0100
0010
0000
0001
0100
0010
0000
,
1000
0100
0001
0000
1000
0100
0001
0000
1000
0100
0001
0000
1000
0100
0001
0000
,
1000
0100
0001
0000
1000
0100
0001
0000
1000
0100
0001
0000
1000
0100
0001
0000
,
1000
0100
0001
0000
1000
0100
0001
0000
1000
0100
0001
0000
1000
0100
0001
0000
,
1000
0100
0001
0000
1000
0100
0001
0000
1000
0100
0001
0000
1000
0100
0001
0000
,
1000
0010
0001
0000
1000
0010
0001
0000
1000
0010
0001
0000
1000
0010
0001
0000
,
1000
0010
0001
0000
1000
0010
0001
0000
1000
0010
0001
0000
1000
0010
0001
0000
,
1000
0010
0001
0000
1000
0010
0001
0000
1000
0010
0001
0000
1000
0010
0001
0000
,
1000
0010
0001
0000
1000
0010
0001
0000
1000
0010
0001
0000
1000
0010
0001
0000
,
1000
0100
0010
0000
0100
0010
0001
0000
1000
0100
0010
0000
0100
0010
0001
0000
,
1000
0100
0010
0000
0100
0010
0001
0000
1000
0100
0010
0000
0100
0010
0001
0000
,
1000
0100
0010
0000
0100
0010
0001
0000
1000
0100
0010
0000
0100
0010
0001
0000
,
1000
0100
0010
0000
0100
0010
0001
0000
1000
0100
0010
0000
0100
0010
0001
0000
,
1000
0010
0100
0000
0010
0100
0001
0000
1000
0010
0100
0000
0010
0100
0001
0000
,
1000
0010
0100
0000
0010
0100
0001
0000
1000
0010
0100
0000
0010
0100
0001
0000
,
1000
0010
0100
0000
0010
0100
0001
0000
1000
0010
0100
0000
0010
0100
0001
0000
,
1000
0010
0100
0000
0010
0100
0001
0000
1000
0010
0100
0000
0010
0100
0001
0000
,
1000
0100
0010
0000
0001
0010
0100
0000
1000
0100
0010
0000
0001
0010
0100
0000
,
1000
0100
0010
0000
0001
0010
0100
0000
1000
0100
0010
0000
0001
0010
0100
0000
,
1000
0100
0010
0000
0001
0010
0100
0000
1000
0100
0010
0000
0001
0010
0100
0000
,
1000
0100
0010
0000
0001
0010
0100
0000
1000
0100
0010
0000
0001
0010
0100
0000
,
1000
0100
0010
0000
1000
0100
0010
0000
1000
0010
0100
0000
1000
0010
0100
0000
,
1000
0100
0010
0000
1000
0100
0010
0000
1000
0010
0100
0000
1000
0010
0100
0000
,
1000
0100
0010
0000
1000
0100
0010
0000
1000
0010
0100
0000
1000
0010
0100
0000
,
1000
0100
0010
0000
1000
0100
0010
0000
1000
0010
0100
0000
1000
0010
0100
0000
,
0001
0010
0100
0000
0001
0010
0100
0000
0001
0100
0010
0000
0001
0100
0010
0000
,
0001
0010
0100
0000
0001
0010
0100
0000
0001
0100
0010
0000
0001
0100
0010
0000
,
0001
0010
0100
0000
0001
0010
0100
0000
0001
0100
0010
0000
0001
0100
0010
0000
,
0001
0010
0100
0000
0001
0010
0100
0000
0001
0100
0010
0000
0001
0100
0010
0000
,
1000
0010
0100
0000
1000
0010
0100
0000
1000
0100
0010
0000
1000
0100
0010
0000
,
1000
0010
0100
0000
1000
0010
0100
0000
1000
0100
0010
0000
1000
0100
0010
0000
,
1000
0010
0100
0000
1000
0010
0100
0000
1000
0100
0010
0000
1000
0100
0010
0000
,
1000
0010
0100
0000
1000
0010
0100
0000
1000
0100
0010
0000
1000
0100
0010
0000
,
0001
0100
0010
0000
0001
0100
0010
0000
0001
0010
0100
0000
0001
0010
0100
0000
,
0001
0100
0010
0000
0001
0100
0010
0000
0001
0010
0100
0000
0001
0010
0100
0000
,
0001
0100
0010
0000
0001
0100
0010
0000
0001
0010
0100
0000
0001
0010
0100
0000
,
0001
0100
0010
0000
0001
0100
0010
0000
0001
0010
0100
0000
0001
0010
0100
0000
,
1000
0100
0010
0000
0100
0010
0001
0000
1000
0010
0100
0000
0010
0100
0001
0000
,
1000
0100
0010
0000
0100
0010
0001
0000
1000
0010
0100
0000
0010
0100
0001
0000
,
1000
0100
0010
0000
0100
0010
0001
0000
1000
0010
0100
0000
0010
0100
0001
0000
,
1000
0100
0010
0000
0100
0010
0001
0000
1000
0010
0100
0000
0010
0100
0001
0000
,
1000
0010
0100
0000
0010
0100
0001
0000
1000
0100
0010
0000
0100
0010
0001
0000
,
1000
0010
0100
0000
0010
0100
0001
0000
1000
0100
0010
0000
0100
0010
0001
0000
,
1000
0010
0100
0000
0010
0100
0001
0000
1000
0100
0010
0000
0100
0010
0001
0000
,
1000
0010
0100
0000
0010
0100
0001
0000
1000
0100
0010
0000
0100
0010
0001
0000
,
0001
0010
1000
0000
0001
0010
1000
0000
0001
0010
1000
0000
0001
0010
1000
0000
,
0001
0010
1000
0000
0001
0010
1000
0000
0001
0010
1000
0000
0001
0010
1000
0000
,
0001
0010
1000
0000
0001
0010
1000
0000
0001
0010
1000
0000
0001
0010
1000
0000
,
0001
0010
1000
0000
0001
0010
1000
0000
0001
0010
1000
0000
0001
0010
1000
0000
,
0001
0100
1000
0000
0001
0100
1000
0000
0001
0100
1000
0000
0001
0100
1000
0000
,
0001
0100
1000
0000
0001
0100
1000
0000
0001
0100
1000
0000
0001
0100
1000
0000
,
0001
0100
1000
0000
0001
0100
1000
0000
0001
0100
1000
0000
0001
0100
1000
0000
,
0001
0100
1000
0000
0001
0100
1000
0000
0001
0100
1000
0000
0001
0100
1000
0000
,
0001
0000
0000
0000
;

//--------------- dance-single - ----------------
#NOTES:
     dance-single:
     :
     Challenge:
     9:
     0,0,0,0,0:
0000
0000
0000
0000
,
0000
0000
0000
0000
,
0000
0000
0000
0000
,
0000
0000
0000
0000
,
1000
0100
0010
0000
1000
0100
0010
0000
1000
0100
0010
0000
1000
0100
0010
0000
,
0001
0010
0100
0000
0001
0010
0100
0000
0001
0010
0100
0000
0001
0010
0100
0000
,
1000
0010
0100
0000
1000
0010
0100
0000
1000
0010
0100
0000
1000
0010
0100
0000
,
0001
0100
0010
0000
0001
0100
0010
0000
0001
0100
0010
0000
0001
0100
0010
0000
,
1000
0100
0010
0000
1000
0010
0100
0000
1000
0100
0010
0000
1000
0010
0100
0000
,
0001
0010
0100
0000
0001
0100
0010
0000
0001
0010
0100
0000
0001
0100
0010
0000
,
1000
0010
0100
0000
1000
0100
0010
0000
1000
0010
0100
0000
1000
0100
0010
0000
,
0001
0100
0010
0000
0001
0010
0100
0000
0001
0100
0010
0000
0001
0010
0100
0000
,
1000
0100
0010
0000
0100
0010
0001
0000
1000
0100
0010
0000
0100
0010
0001
0000
,
1000
0010
0100
0000
0100
0001
0010
0000
1000
0010
0100
0000
0100
0001
0010
0000
,
0001
0010
0100
0000
0010
0100
1000
0000
0001
0010
0100
0000
0010
0100
1000
0000
,
0001
0100
0010
0000
0010
1000
0100
0000
0001
0100
0010
0000
0010
1000
0100
0000
,
1000
0100
0010
0000
0100
0010
0001
0000
1000
0010
0100
0000
0010
0100
0001
0000
,
0001
0010
0100
0000
0010
0100
1000
0000
0001
0100
0010
0000
0100
0010
1000
0000
,
1000
0010
0100
0000
0010
0100
0001
0000
1000
0100
0010
0000
0100
0010
0001
0000
,
0001
0100
0010
0000
0100
0010
1000
0000
0001
0010
0100
0000
0010
0100
1000
0000
,
1000
0100
0010
0000
0100
0001
0010
0000
0001
0010
0100
0000
0010
1000
0100
0000
,
1000
0010
0100
0000
0100
0010
0001
0000
0001
0100
0010
0000
0010
0100
1000
0000
,
1000
0100
0010
0000
0001
0100
0010
0000
1000
0100
0010
0000
0001
0100
0010
0000
,
1000
0010
0100
0000
0001
0010
0100
0000
1000
0010
0100
0000
0001
0010
0100
0000
,
1000
0100
0010
0001
1000
0100
0010
0001
1000
0100
0010
0001
1000
0100
0010
0001
,
1000
0010
0100
0001
1000
0010
0100
0001
1000
0010
0100
0001
1000
0010
0100
0001
,
0001
0010
0100
1000
0001
0010
0100
1000
0001
0010
0100
1000
0001
0010
0100
1000
,
0001
0100
0010
1000
0001
0100
0010
1000
0001
0100
0010
1000
0001
0100
0010
1000
,
1000
0100
0010
0100
1000
0100
0010
0100
1000
0100
0010
0100
1000
0100
0010
0100
,
1000
0010
0100
0010
1000
0010
0100
0010
1000
0010
0100
0010
1000
0010
0100
0010
,
0001
0010
0100
0010
0001
0010
0100
0010
0001
0010
0100
0010
0001
0010
0100
0010
,
0001
0100
0010
0100
0001
0100
0010
0100
0001
0100
0010
0100
0001
0100
0010
0100
,
2000
0000
0000
0000
0000
0000
0000
0000
0000
0000
0000
0000
0000
0000
0000
0000
0000
0000
0000
0000
0000
0000
0000
0000
0000
0000
0000
0000
0000
0000
0000
0000
0000
0000
0000
0000
3002
0000
0000
0000
0000
0000
0000
0000
0000
0000
0100
0013
,
0200
0000
0000
0000
0000
0000
0000
0000
0000
0000
0000
0000
0000
0000
0000
0000
0000
0000
0000
0000
0000
0000
0000
0000
0000
0000
0000
0000
0000
0000
0000
0000
0000
0000
0000
0000
2300
0000
0000
0000
0000
0000
0000
0000
0000
0000
0010
3100
,
0020
0000
0000
0000
0000
0000
0000
0000
0000
0000
0000
0000
0000
0000
0000
0000
0000
0000
0000
0000
0000
0000
0000
0000
0000
0000
0000
0000
0000
0000
0000
0000
0000
0000
0000
0000
0000
0000
0000
0000
0000
0000
0000
0000
0000
0000
0001
1030
,
0002
0000
0000
0000
0000
0000
0000
0000
0000
0000
0000
0003
0002
0000
0000
0000
,
2003
0000
0000
3200
0320
0000
0000
0000
0000
0000
0000
0000
0032
0000
0023
0000
,
0230
0000
0000
0000
2300
3200
0000
0000
0000
0000
0000
0000
0320
0000
0000
0000
,
0032
0000
0023
0230
0320
0000
2030
3002
,
2003
0000
0000
0000
3020
0000
0000
0000
0032
0000
0000
0000
0203
0320
0000
0030
,
1000
0100
0010
0000
1000
0100
0010
0000
1000
0100
0010
0000
1000
0100
0010
0000
,
1000
0100
0010
0000
1000
0100
0010
0000
1000
0100
0010
0000
1000
0100
0010
0000
,
0001
0010
0100
0000
0001
0010
0100
0000
0001
0010
0100
0000
0001
0010
0100
0000
,
0001
0010
0100
0000
0001
0010
0100
0000
0001
0010
0100
0000
0001
0010
0100
0000
,
1000
0010
0100
0000
1000
0010
0100
0000
1000
0010
0100
0000
1000
0010
0100
0000
,
1000
0010
0100
0000
1000
0010
0100
0000
1000
0010
0100
0000
1000
0010
0100
0000
,
0001
0100
0010
0000
0001
0100
0010
0000
0001
0100
0010
0000
0001
0100
0010
0000
,
0001
0100
0010
0000
0001
0100
0010
0000
0001
0100
0010
0000
0001
0100
0010
0000
,
1000
0100
0010
0000
0100
0010
0001
0000
1000
0100
0010
0000
0100
0010
0001
0000
,
1000
0100
0010
0000
0100
0010
0001
0000
1000
0100
0010
0000
0100
0010
0001
0000
,
0001
0010
0100
0000
0010
0100
1000
0000
0001
0010
0100
0000
0010
0100
1000
0000
,
0001
0010
0100
0000
0010
0100
1000
0000
0001
0010
0100
0000
0010
0100
1000
0000
,
1000
0010
0100
0000
0010
0100
0001
0000
1000
0010
0100
0000
0010
0100
0001
0000
,
1000
0010
0100
0000
0010
0100
0001
0000
1000
0010
0100
0000
0010
0100
0001
0000
,
0001
0100
0010
0000
0100
0010
1000
0000
0001
0100
0010
0000
0100
0010
1000
0000
,
0001
0100
0010
0000
0100
0010
1000
0000
0001
0100
0010
0000
0100
0010
1000
0000
,
1000
0100
0010
0001
1000
0100
0010
0001
1000
0100
0010
0001
1000
0100
0010
0001
,
1000
0100
0010
0001
1000
0100
0010
0001
1000
0100
0010
0001
1000
0100
0010
0001
,
1000
0010
0100
0001
1000
0010
0100
0001
1000
0010
0100
0001
1000
0010
0100
0001
,
1000
0010
0100
0001
1000
0010
0100
0001
1000
0010
0100
0001
1000
0010
0100
0001
,
0001
0010
0100
1000
0001
0010
0100
1000
0001
0010
0100
1000
0001
0010
0100
1000
,
0001
0010
0100
1000
0001
0010
0100
1000
0001
0010
0100
1000
0001
0010
0100
1000
,
0001
0100
0010
1000
0001
0100
0010
1000
0001
0100
0010
1000
0001
0100
0010
1000
,
0001
0100
0010
1000
0001
0100
0010
1000
0001
0100
0010
1000
0001
0100
0010
1000
,
2000
0000
0000
0000
0000
0000
0000
0000
0000
0000
0000
0000
0000
0000
0000
0000
0000
0000
0000
0000
0000
0000
0000
0000
0000
0000
0000
0000
0000
0000
0000
0000
0000
0000
0000
0000
3200
0000
0000
0000
0000
0000
0000
0000
0000
0300
0100
0001
,
0020
0000
0000
0000
0000
0000
0000
0000
0000
0000
0000
0000
0000
0000
0000
0000
0000
0000
0000
0000
0000
0000
0000
0000
0000
0000
0000
0000
0000
0000
0000
0000
0000
0000
0000
0030
0020
0000
0000
0000
0000
0000
0000
0000
0000
0030
0010
1000
,
0200
0000
0000
0000
0000
0000
0000
0000
0000
0000
0000
0000
0000
0000
0000
0000
0000
0000
0000
0000
0000
0000
0000
0000
0000
0000
0000
0000
0000
0000
0000
0000
0000
0000
0000
0000
0000
0000
0000
0000
0000
0000
0000
0000
0000
0300
0100
0010
,
0002
0000
0000
0023
,
2030
0000
0000
3020
0230
0000
0000
0000
0000
0000
0000
0000
0302
0000
0023
0000
,
0230
0000
0000
0000
2300
3020
0000
0000
0000
0000
0000
0000
0230
0000
0000
0000
,
0320
0032
2003
3200
0320
0032
2003
3020
,
0230
0000
0302
0000
2003
3200
0320
0000
0032
0023
0230
0000
2300
3002
0000
0000
,
1003
0100
0010
0000
0000
0001
0000
0000
0010
0000
0000
0100
1000
0000
0100
0000
0010
0001
0010
0000
0000
0100
0000
0000
1000
0000
0000
0100
0010
0000
0001
0000
,
2000
0000
0000
0000
0000
0000
0000
0000
0000
0000
0000
0000
0000
0000
0000
0000
0000
0000
0000
0000
0000
0000
0000
3000
1000
0000
0000
0000
0000
0000
0000
0000
0002
0000
0000
0000
0000
0000
0000
0000
0000
0000
0000
2000
0000
0000
3003
0000
0000
0000
0000
0000
0000
0000
0000
0000
0000
0000
0000
0000
0000
0000
0000
0000
;
