#TITLE:Destroyer;
#SUBTITLE:;
#ARTIST:Tlahuizcalpantecuhtli;
#TITLETRANSLIT:;
#SUBTITLETRANSLIT:;
#ARTISTTRANSLIT:;
#GENRE:;
#CREDIT:;
#BANNER:;
#BACKGROUND:;
#LYRICSPATH:;
#CDTITLE:;
#MUSIC:Destroyer.ogg;
#OFFSET:-0.168000;
#SAMPLESTART:62.493000;
#SAMPLELENGTH:9.749000;
#SELECTABLE:YES;
#DISPLAYBPM:*;
#BPMS:0.000000=100.014999
,8.000000=200.029999
,36.000000=100.014999
,38.000000=200.029999
,70.000000=50.007999
,78.000000=100.014999
,86.000000=200.029999
,98.000000=50.007999
,98.500000=96.916000
,99.000000=219.897995
,99.500000=338.371002
,100.000000=400.059998
,220.000000=100.014999
,222.000000=400.059998
,350.000000=200.029999
,382.000000=100.014999
;
#STOPS:
;
#BGCHANGES:0.000=Destroyer.avi=1.000=0=0=0=StretchNoLoop====,
99999=-nosongbg-=1.000=0=0=0 // don't automatically add -songbackground-
;
#KEYSOUNDS:;
#ATTACKS:;

//---------------dance-single - ----------------
#NOTES:
     dance-single:
     :
     Beginner:
     5:
     0.162996,0.432368,0.160136,0.010009,0.000000,114.000000,98.000000,16.000000,1.000000,0.000000,0.000000,0.162996,0.432368,0.160136,0.010009,0.000000,114.000000,98.000000,16.000000,1.000000,0.000000,0.000000:
0000
0000
0000
0000
,
0000
0000
0000
0000
,
1001
0000
0000
0000
,
1000
0000
0000
0000
,
0001
0000
0000
0000
,
1000
0000
0000
0000
,
0110
0000
0000
0000
,
0100
0000
0000
0000
,
0010
0000
0000
0000
,
0100
0000
1001
0000
,
0000
0000
1000
0000
,
0000
0000
1010
0000
,
0000
0000
0010
0000
,
0000
0000
0110
0000
,
0000
0000
0101
0000
,
0000
0000
1001
0000
,
0000
0000
0110
0000
,
0000
0000
0011
0000
,
0000
0000
0000
0000
,
0000
0000
1000
0000
,
0000
0000
0000
0000
,
0000
0000
0001
0000
,
0000
0000
0000
0000
,
0000
0000
0000
0000
,
0000
0000
1000
0000
,
1000
0000
0000
0000
,
0100
0000
0000
0000
,
0010
0000
0000
0000
,
0001
0000
0000
0000
,
1000
0000
0000
0000
,
0010
0000
0000
0000
,
0100
0000
0000
0000
,
0001
0000
0000
0000
,
1000
0000
0000
0000
,
0100
0000
0000
0000
,
0010
0000
0000
0000
,
0001
0000
0000
0000
,
1000
0000
0000
0000
,
0010
0000
0000
0000
,
0100
0000
0000
0000
,
0001
0000
0000
0000
,
1000
0000
0000
0000
,
0100
0000
0000
0000
,
0010
0000
0000
0000
,
0001
0000
0000
0000
,
1000
0000
0000
0000
,
0010
0000
0000
0000
,
0100
0000
0000
0000
,
0001
0000
0000
0000
,
1000
0000
0000
0000
,
0100
0000
0000
0000
,
0010
0000
0000
0000
,
0001
0000
0000
0000
,
1000
0000
0000
0000
,
0000
0001
0000
0000
,
1000
0000
0001
0000
,
0000
0000
0000
0000
,
0000
0000
1000
0000
,
0000
0000
0000
0000
,
0000
0000
0010
0000
,
0000
0000
0000
0000
,
0000
0000
0100
0000
,
0000
0000
0000
0000
,
0000
0000
0001
0000
,
0000
0000
0000
0000
,
0000
0000
1000
0000
,
0000
0000
0000
0000
,
0000
0000
0100
0000
,
0000
0000
0000
0000
,
0000
0000
0010
0000
,
0000
0000
0000
0000
,
0000
0000
1001
0000
,
1000
0100
1000
0000
,
0000
0000
0110
0000
,
0001
0010
0001
0000
,
0000
0000
0110
0000
,
0100
1000
0100
0000
,
0000
0000
1001
0000
,
0010
0001
0010
0000
,
0000
0000
0110
0000
,
1000
0001
1000
0000
,
0000
0000
1000
0000
,
1000
0000
1000
0000
,
1000
0000
1000
0001
,
1000
0001
1000
0001
,
1000
0001
1000
0000
,
0001
0000
0001
0000
,
0001
0000
1001
0000
,
0000
0000
0000
0000
,
0000
0000
0000
0000
,
0000
0000
0000
0000
,
0000
0000
1001
0000
,
0000
0000
0000
0000
,
0000
0000
0000
0000
,
0000
0000
0000
0000
,
0000
0000
0002
0000
,
0003
0000
0000
0000
;

//---------------dance-single - ----------------
#NOTES:
     dance-single:
     :
     Easy:
     8:
     0.453242,0.770655,0.010009,0.060051,0.000000,317.000000,316.000000,1.000000,6.000000,0.000000,0.000000,0.453242,0.770655,0.010009,0.060051,0.000000,317.000000,316.000000,1.000000,6.000000,0.000000,0.000000:
0000
0000
0000
0000
,
0000
0000
0000
0000
,
1000
0100
1000
0100
,
0010
0001
0010
0001
,
1000
0010
1000
0010
,
0100
0000
0001
0000
0100
0000
0002
0003
,
1000
0100
0010
0001
,
1000
0010
0100
0001
,
1000
0100
0010
0001
,
1000
0001
0000
0000
1000
0100
0010
0000
,
0001
0000
0001
0000
1000
0010
0100
0000
,
0001
0000
0001
0000
0001
0010
0100
0000
,
1000
0000
1000
0000
0001
0100
0010
0000
,
1000
0000
1000
0000
0100
0010
0001
0000
,
1000
0000
1000
0000
0010
0100
0001
0000
,
1000
0000
1000
0000
0010
0100
1000
0000
,
0001
0001
1000
0001
,
1000
0001
1000
0001
1000
0000
0000
0000
,
0001
0000
1000
0000
0001
0010
0100
1000
,
0010
0100
0001
0000
1000
0000
1000
0000
,
0100
0100
0010
0010
,
0001
0001
1000
1000
,
0100
0100
0010
0010
,
0001
0000
0001
0000
1000
0100
1000
0010
,
0100
0001
0010
0001
0200
0000
0300
0000
,
1000
0000
0100
0000
,
0010
0000
0001
0000
,
0010
0000
0010
0000
,
0010
0000
0010
0000
,
1000
0000
0010
0000
,
0100
0000
0001
0000
,
0100
0000
0100
0000
,
0100
0000
0100
0000
,
1000
0000
0100
0000
,
0010
0000
0001
0000
,
0010
0000
0010
0000
,
0010
0000
0010
0000
,
1000
0000
0010
0000
,
0100
0000
0001
0000
,
0100
0000
0100
0000
,
0200
0300
0000
0000
,
1000
0000
0100
0000
,
0010
0000
0001
0000
,
1000
0001
1000
0000
,
0001
1000
0001
0000
,
0001
0000
0010
0000
,
0100
0000
1000
0000
,
0001
1000
0001
0000
,
1000
0001
2000
3000
,
1000
0100
0010
0000
,
0001
0010
0100
0000
,
1000
0010
0100
0000
,
0001
0100
0010
0000
,
1000
0100
0010
0001
,
0010
0100
1000
0000
,
0001
0000
1000
0000
,
1000
0000
0100
0000
0100
0000
0000
0010
,
0000
0001
0001
0000
,
0001
0000
0010
0000
0010
0000
0000
0100
,
0000
1000
1000
0000
,
1000
0000
0010
0000
0010
0000
0000
0100
,
0000
0001
0001
0000
,
0001
0000
0100
0000
0100
0000
0000
0010
,
0000
1000
1000
0000
,
1000
0000
0100
0000
0100
0000
0000
0100
,
0000
0001
0001
0000
,
0001
0000
0010
0000
0010
0000
0000
0010
,
0000
1000
1000
0000
,
1000
0000
0100
0000
0010
0000
0000
0001
,
0000
0000
0010
0000
0100
0000
0000
1000
,
0000
0001
2000
0000
,
0000
3000
1001
0000
,
0001
0000
0010
0000
1000
0000
0000
0010
,
0000
0001
0001
0000
,
1000
0000
0010
0000
0001
0000
0000
0010
,
0000
1000
1000
0000
,
0001
0000
0100
0000
1000
0000
0000
0100
,
0000
0001
0001
0000
,
1000
0000
0100
0000
0001
0000
0000
0100
,
0000
1000
1000
0000
,
1000
0000
0010
0000
0001
0000
0000
0100
,
0000
1000
0001
0001
,
0001
0001
1000
1000
,
1000
1000
0001
0010
,
0100
1000
0001
0100
,
0010
1000
0001
0000
,
1000
0000
1000
0001
,
1000
0001
1000
0000
0001
0000
0001
0000
,
1000
1000
0010
0010
,
0100
0100
0001
0001
,
0010
0010
0100
0100
,
1000
1000
1000
0100
,
0010
0001
1000
0010
,
0100
0000
0001
0000
1000
0100
0010
0001
,
0100
0010
1000
0000
0001
0010
0100
1000
,
0100
0010
0001
1000
0200
0000
0000
0000
,
0000
0300
0000
0000
;

//---------------dance-single - ----------------
#NOTES:
     dance-single:
     :
     Medium:
     10:
     0.672000,1.062403,0.180153,0.260221,0.110094,470.000000,452.000000,18.000000,26.000000,0.000000,0.000000,0.672000,1.062403,0.180153,0.260221,0.110094,470.000000,452.000000,18.000000,26.000000,0.000000,0.000000:
0000
0000
0000
0000
,
0000
0000
0000
0000
,
1000
0100
0010
0001
,
1000
0100
0010
0001
,
1000
0010
0100
0001
,
1000
0000
0000
0000
0010
0000
0000
0000
0100
0000
0000
0000
0001
0010
0100
1000
,
0001
0010
0100
1000
,
0001
0010
0100
1000
,
0001
0100
0010
1000
,
0001
1000
0000
0000
1000
0100
1000
0100
,
0010
0001
0010
0001
1000
0010
1000
0010
,
0100
0000
0001
0000
0100
0001
0100
0000
0001
0000
0010
0000
0001
0000
0010
0000
,
0100
1000
0100
1000
0001
0100
0001
0100
,
0010
0000
1000
0000
0010
1000
0010
0000
2000
0000
0000
0000
0001
0000
0000
0000
,
0100
0010
3002
1000
,
0010
0100
0203
0010
,
1000
0000
0001
0000
0320
0000
1030
0100
,
1000
0000
0010
0000
1000
0100
0010
0001
1000
0000
0000
0000
0100
0000
0000
0000
,
0010
0000
0000
0000
0001
0000
0000
0000
1000
0100
0010
0001
1000
0010
0100
0001
,
1000
0100
0001
0100
1000
0000
0000
0000
0001
0000
0001
0000
0001
0000
0001
0000
,
1000
1000
1000
1000
0010
0010
0010
0010
,
0100
0100
0100
0100
0001
0000
0001
0000
,
1000
0000
1000
0000
0010
0010
0010
0010
,
0100
0100
0100
0100
1000
0001
1000
0001
,
1000
0001
1000
0001
1000
0001
1000
0001
2000
0000
0000
0000
0000
0000
0000
0000
,
3001
0010
0100
1000
,
0001
0100
0010
1000
,
0001
0010
1000
0010
,
0001
0100
1000
0100
,
0001
0100
0010
1000
,
0001
0010
0100
1000
,
0001
0100
1000
0100
,
0001
0010
0002
0003
,
1000
0100
0010
0001
,
1000
0010
0100
0001
,
1000
0100
0001
0100
,
1000
0010
0001
0010
,
1000
0010
0100
0001
,
1000
0100
0010
0001
,
1000
0010
0001
0010
,
1000
0001
1000
0000
0001
0000
0000
0000
,
0001
0010
0100
0010
,
0001
1000
0010
0100
,
0010
1000
0001
0100
,
0010
0100
0001
1000
,
0100
0010
0100
1000
,
0001
0010
0100
1000
,
0001
0100
0010
1000
,
0001
1000
0002
0003
,
1000
0100
0010
0100
,
1000
0001
0100
0010
,
0100
0001
1000
0010
,
0100
0010
1000
0001
,
0010
0100
0010
0001
,
1000
0100
0010
0001
,
1000
0000
0000
0000
0001
0010
0100
1000
0001
0000
0000
0000
0000
0000
0000
0000
,
1000
0100
1000
0100
1000
0000
0000
2200
,
3300
1001
1001
0000
,
0001
0010
0001
0010
0001
0000
0000
0022
,
0033
1001
1001
0000
,
1000
0010
1000
0010
1000
0000
0000
2020
,
3030
1001
1001
0000
,
0001
0100
0001
0100
0001
0000
0000
0202
,
0303
1001
1001
0000
,
0100
0010
0100
0010
0100
0000
0000
0220
,
0330
1001
1001
0000
,
0001
1000
0001
1000
0001
0000
0000
2002
,
3003
1001
1001
0000
,
1000
0100
1000
0100
0020
0000
0030
0002
,
0000
0003
0200
0000
0320
0000
0030
2000
,
0000
3000
0001
0000
1000
0001
1000
0001
,
1000
0001
1000
0000
0100
0000
1000
0000
,
0100
1000
0100
0010
,
0001
1000
0010
1000
,
0010
1000
0010
0100
,
0001
0010
0001
0010
,
0001
0010
0001
1000
,
0100
0100
0001
0100
,
0001
0100
0001
1000
,
0010
1000
0100
0010
,
0001
1000
0100
0010
,
0001
1000
0001
0001
,
1000
1000
0010
0010
,
0100
0100
0001
0010
,
0100
1000
0010
0100
,
0010
1000
0001
0000
,
1000
0100
0010
0001
,
1000
0100
0010
0001
1000
0000
0100
0000
,
0010
0001
1000
0010
,
0100
0001
1000
0100
,
0010
0001
1000
0010
,
0100
0000
0002
0000
1003
1000
1000
1000
,
0100
0100
0100
0100
0010
0010
0010
0010
,
0001
0001
0001
0001
1000
0100
1000
0100
,
0010
0001
0010
0000
1000
0100
0010
0001
,
1000
0001
1000
0001
0010
0100
0010
0100
0020
0000
0000
0000
0000
0000
0000
0000
,
0000
0000
0030
0000
;

//---------------dance-single - ----------------
#NOTES:
     dance-single:
     :
     Hard:
     13:
     1.073770,2.808137,0.720613,0.310264,0.595506,751.000000,679.000000,72.000000,31.000000,0.000000,0.000000,1.073770,2.808137,0.720613,0.310264,0.595506,751.000000,679.000000,72.000000,31.000000,0.000000,0.000000:
0000
0000
0000
0000
,
0000
0000
0000
0000
0000
0000
0000
0000
0000
0000
0000
0000
0000
0000
0000
0000
1001
0000
0100
0010
0100
0000
0010
0000
0001
0010
0100
1000
0100
0010
0001
0000
,
1000
0100
0010
0100
1000
0010
0100
0010
,
1000
0100
0010
0001
1000
0010
0100
0001
,
0010
0100
1000
0100
0010
0100
1000
0010
,
1000
0000
0010
0000
0100
0000
0001
0000
1000
0000
0100
0010
0001
0100
0010
0000
,
1000
0100
1000
0010
0100
0001
0010
0001
,
0100
0010
1000
0100
1000
0100
0010
0001
,
1000
0010
0100
0001
1000
0010
0100
0010
,
1000
0000
0000
0000
1000
0000
0000
0000
0000
0000
0000
0000
1000
0001
1000
0001
1000
0000
0100
0000
1000
0000
0100
0000
0010
0000
0000
0000
0010
0000
0000
0000
,
0001
0010
0001
0010
0100
0000
0100
0000
1000
0010
1000
0010
0100
0000
0100
0000
,
0001
0100
0001
0100
0010
1000
0100
0010
0001
0010
0001
0010
1000
0000
1000
0000
,
1000
0100
1000
0100
0001
0000
0001
0000
1000
0010
1000
0010
0001
0000
0001
0000
,
0001
0100
0001
0100
0001
0010
0100
1000
0010
0100
0010
0100
0001
0000
0010
0000
,
0100
0010
0100
0010
0001
0000
0010
0000
1000
0010
1000
0100
0010
0000
0001
0000
,
0001
0100
0001
0010
0100
1000
0010
0100
0001
0000
0001
0000
0010
0100
1000
0100
,
0010
0000
0100
0000
0001
0100
0010
0100
0001
0000
0000
0000
0001
1000
0001
0000
,
1000
0001
1000
0001
1000
0100
0010
0001
1000
0100
0010
0001
1000
0010
0100
0001
,
1000
0000
0000
0000
0001
0000
0010
0000
0100
0000
1000
0000
0000
0000
0010
0000
1010
0000
0000
0000
1000
0000
0100
0000
0010
0000
0001
0000
0000
0000
0100
0000
0101
0000
0000
0000
0001
0010
0100
1000
0001
0000
0010
0000
0000
0000
0001
0000
0011
0000
0000
0000
1000
0100
0010
0001
1000
0000
0100
0000
0000
0000
1000
0000
,
1100
0000
0000
0000
0001
0100
0010
1000
0100
0000
0010
0000
0001
0000
1000
0000
0001
0000
0000
0010
0000
0000
0100
0000
0000
1000
0000
0000
0001
1000
0001
1000
0001
0000
0000
0000
0000
0000
0000
0000
0001
0000
0000
0000
0000
0000
0000
0000
1000
0000
0000
0000
0000
0000
0000
0000
1000
0000
0000
0000
0000
0000
0000
0000
,
0010
0010
0100
0100
1000
1000
0100
0100
,
0010
0010
0001
0001
1000
1000
0001
0001
,
0100
0100
0010
0010
1100
1100
0011
0011
,
0101
0000
0101
0000
1010
0000
1010
0000
1000
0100
1000
0010
0100
0001
0010
0001
,
0100
0010
1000
0100
1000
0100
0010
0001
2000
0000
0000
0000
0000
0000
0000
0000
,
3001
0010
0000
0100
1000
0000
1000
0100
,
0010
0000
0001
0000
1000
0001
1000
0001
,
1000
0010
0100
0001
0010
0001
0100
0010
,
1000
1000
0001
0001
,
1000
0100
0000
0010
0001
0000
0001
0010
,
0100
0000
1000
0000
0001
1000
0001
1000
,
0001
0100
0010
1000
0100
1000
0010
0100
,
0001
0001
2000
3000
,
1000
0100
1000
0000
0001
0100
0001
0000
,
1000
0010
1000
0000
0001
0010
0001
0000
,
1000
0100
0010
0000
0001
0010
0100
0000
,
1000
0010
0100
0000
0001
0100
0010
0000
,
0100
0010
0001
0000
0010
0100
1000
0000
,
0100
0001
0010
0000
0010
1000
0100
0000
,
1000
0100
1000
0100
0010
0001
0010
0001
,
1000
0001
2000
0000
3000
0000
0000
0000
,
0001
0010
0100
1000
0000
0000
0000
1000
,
0010
0000
0000
0000
0010
0001
0010
0000
,
1000
0100
0010
0001
0100
0010
1000
0001
,
0100
0100
0100
0100
,
1000
0100
0010
0001
0000
0000
0000
0001
,
0100
0000
0000
0000
0100
1000
0100
0000
,
0001
0010
0100
1000
0010
0100
0001
1000
,
0010
0010
0020
0030
,
1000
0100
1000
0100
1000
0000
0100
0000
,
0001
0010
0001
0010
0001
0000
0010
0000
,
1000
0010
1000
0010
1000
0000
0010
0000
,
0001
0100
0001
0100
0001
0000
0100
0000
,
1000
0100
1000
0100
0010
0001
0010
0001
,
1000
0010
1000
0010
0100
0001
0100
0001
,
1000
0000
0000
0000
0001
0000
0000
0000
1000
0100
0010
0001
1000
0100
0010
0001
1000
0000
0000
0000
0000
0000
0000
0000
0000
0000
0000
0000
0000
0000
0000
0000
,
1000
0100
0010
0001
1000
0000
0000
0220
,
0330
0011
1001
0000
,
0001
0010
0100
1000
0001
0000
0000
0220
,
0330
1100
1001
0000
,
1000
0010
0100
0001
0010
0000
0000
0220
,
0330
1010
1001
0000
,
0001
0100
0010
1000
0100
0000
0000
0220
,
0330
0101
1001
0000
,
0001
0010
0100
0010
0001
0000
0000
2002
,
3003
0011
0110
0000
,
1000
0100
0010
0100
1000
0000
0000
2002
,
3003
1100
0110
0000
,
1000
0100
0001
0100
1000
0000
0000
0220
,
0330
0000
0110
0000
1001
0000
0000
1000
,
0000
0000
0001
0000
1000
0100
0010
0001
,
1000
0010
0100
0001
1000
0000
0000
0000
,
0001
0100
0010
0100
0001
0000
0000
2002
,
3003
0101
0110
0000
,
1000
0010
0100
0010
1000
0000
0000
2002
,
3003
1010
0110
0000
,
0100
0010
0001
0010
0100
0000
0000
0202
,
0303
0110
1001
0000
,
0010
0100
1000
0100
0010
0000
0000
2020
,
3030
0110
1001
0000
,
0001
0100
1000
0100
0001
0000
0000
0220
,
0330
0110
1001
1001
,
1010
1010
0101
0101
,
0110
0000
0110
0000
1000
0100
1000
0100
,
0010
0001
0010
0001
1000
0010
1000
0010
,
0100
0001
0100
0001
1000
0000
0000
0000
,
0010
0100
0010
0000
1000
0100
0010
0001
,
1000
0010
0100
0001
1000
0100
1100
0000
,
0001
0010
0011
0000
1000
0010
1010
0000
,
0001
0100
0101
0000
1000
0001
1001
0000
,
0010
0100
0110
0000
0100
0010
0110
0000
,
0001
1000
2002
3003
1000
1000
0001
0001
,
0010
0010
0100
0100
1100
1100
0011
0011
,
1010
0000
1010
0000
0101
0000
0101
0000
1000
0100
0010
0001
0100
0010
0100
0001
,
0010
0100
1000
0100
0010
0000
0000
0000
0001
0010
0100
1000
0010
0100
0010
1000
,
0010
0000
0100
0000
0010
0000
0100
0000
0000
0001
0000
0000
0010
0000
0000
0100
0000
0000
1000
0000
0000
0001
0000
0000
2000
0000
0000
0000
0000
0000
0000
0000
0000
0000
0000
0000
0000
0000
0000
0000
0000
0000
0000
0000
0000
0000
0000
0000
,
0000
0000
0000
3000
;

//---------------dance-single - ----------------
#NOTES:
     dance-single:
     :
     Challenge:
     15:
     1.378314,4.417254,1.621378,0.400340,0.870740,964.000000,802.000000,162.000000,40.000000,0.000000,0.000000,1.378314,4.417254,1.621378,0.400340,0.870740,964.000000,802.000000,162.000000,40.000000,0.000000,0.000000:
// measure 0
0000
0000
0000
0000
,  // measure 1
0000
0000
0000
0000
0000
0000
0000
0000
0000
0000
0000
0000
0000
0000
0000
0000
1001
0000
0010
0100
1000
0001
0010
0000
1000
0100
0001
0100
1000
0100
0010
0001
,  // measure 2
1001
0100
1010
0001
0110
1000
0011
0100
,  // measure 3
1100
0010
0101
0001
1001
0100
0011
1000
,  // measure 4
0110
0001
1100
0010
0101
1000
1001
0100
,  // measure 5
1010
0000
0000
0001
0000
0000
0110
0000
0000
1000
0000
0000
0011
0000
0000
0100
0000
0000
0001
0010
0100
1000
0000
0000
,  // measure 6
1001
0100
0011
1000
0110
0001
1010
0100
,  // measure 7
0011
1000
0110
0001
1100
0010
0101
1000
,  // measure 8
1010
0100
1100
0001
0101
0010
0011
0100
,  // measure 9
1001
0000
0000
0000
1001
0000
0000
0000
0000
0000
0000
0000
0100
0001
0010
0100
1000
0000
0100
0000
0010
0000
0000
0000
0100
0000
0001
0000
0010
0000
0001
0000
,  // measure 10
0100
0000
1000
0100
0010
0001
0010
0100
1000
0010
0100
0000
0001
0010
0001
0000
,  // measure 11
0010
0100
1000
0000
0001
0010
1000
0010
0001
0100
1000
0100
0001
0000
0010
0100
,  // measure 12
1000
0100
0010
0000
0001
0010
1000
0000
1000
0010
0100
0001
0010
0000
0100
1000
,  // measure 13
0010
0000
0001
0100
0010
1000
0100
0010
0001
0000
1000
0010
0100
0010
1000
0000
,  // measure 14
0010
0001
0100
0000
1000
0010
0100
0000
0001
0010
0100
0001
1000
0000
0100
0010
,  // measure 15
0001
0000
0010
0100
1000
0010
0001
0010
1000
0100
0010
0000
0001
0100
0010
0000
,  // measure 16
1000
0001
0100
0000
0001
0100
0010
1000
0100
0000
0000
0000
0001
0010
0001
0000
,  // measure 17
1000
0000
0000
0000
0000
0000
0000
0000
0000
0000
0000
0000
0100
0000
0000
0000
0000
0000
0000
0000
0000
0000
0000
0000
0010
0000
0000
0000
0000
0000
0000
0000
0000
0000
0000
0000
0001
0000
0000
0000
0000
0000
0000
0000
0000
0000
0000
0000
1000
0000
0000
0000
0000
0000
0000
0000
0100
0000
0000
0000
0000
0000
0000
0000
1000
0000
0000
0000
0000
0000
0000
0000
0001
0000
0000
0000
0000
0000
0000
0000
0100
0000
0000
0000
0000
0000
0000
0000
0001
0000
0000
0000
0000
0000
0000
0000
1000
0000
0000
0000
0000
0000
0000
0000
0000
0000
0000
0000
0100
0000
0000
0000
0000
0000
0000
0000
0000
0000
0000
0000
0010
0000
0000
0000
0000
0000
0000
0000
0000
0000
0000
0000
0001
0000
0000
0000
0000
0000
0000
0000
0000
0000
0000
0000
1001
0000
0000
0000
0000
0000
0000
0000
0000
0000
0000
0000
0001
0000
0000
0010
0000
0000
0100
0000
0000
0010
0000
0000
0001
0000
0000
0000
0000
0000
0011
0000
0000
0000
0000
0000
0000
0000
0000
0000
0000
0000
0110
0000
0000
0000
0000
0000
,  // measure 18
0110
0000
0000
0000
1000
0100
0010
0100
1000
0000
1100
0000
0000
0000
0110
0000
0110
0000
0000
0000
0001
0100
0010
0100
0001
0000
0101
0000
0000
0000
1001
0000
1001
0000
0000
0000
1000
0010
0100
0010
1000
0000
0100
0001
0010
0000
1001
0000
1001
0000
0000
0000
0001
0100
0010
1000
0100
0010
0001
0010
0001
0000
0110
0000
,  // measure 19
1001
0000
0000
0000
1000
0010
0100
0001
0010
0100
1000
0000
1001
0000
1010
0000
1001
0000
0000
1100
0000
0000
0110
0000
0000
0011
0000
0000
1000
0100
0010
0001
1001
0000
0000
0000
1000
0000
0000
0000
1100
0000
0000
0000
0100
0000
0000
0000
0110
0000
0000
0000
0010
0000
0000
0000
0011
0000
0000
0000
0001
0000
0000
0000
,  // measure 20
0101
0100
0110
0010
1010
1000
1001
0001
0011
0010
0110
0100
1100
1000
1010
0010
,  // measure 21
0110
0100
0101
0001
1001
1000
1001
0001
1001
0000
1001
0000
1010
0000
1010
0000
,  // measure 22
0110
0110
0101
0101
0011
0011
0110
0110
,  // measure 23
1100
0000
1100
0000
1001
0000
1001
0000
1000
0010
0100
0001
0010
0100
1000
0010
,  // measure 24
0100
0000
0000
0010
0000
0000
1000
0000
0000
0001
0000
0000
0010
0000
0000
0100
0000
0000
0010
0000
0000
0001
0000
0000
2000
0000
0000
0000
0000
0000
0000
0000
0000
0000
0000
0000
3000
0000
0000
0000
0000
0000
0000
0000
0001
0000
0000
0000
,  // measure 25
1000
0100
1000
0100
0010
0001
0010
0001
,  // measure 26
1000
0010
1000
0010
0100
0001
0100
0001
,  // measure 27
1000
0100
0001
0100
1000
0001
0100
1000
,  // measure 28
0100
0001
1000
0001
1000
0010
0100
0010
,  // measure 29
1000
0010
1000
0010
0100
0001
0100
0001
,  // measure 30
1000
0100
1000
0100
0010
0001
0010
0001
,  // measure 31
1000
0010
0001
0010
1000
0001
0010
1000
,  // measure 32
0010
0001
0100
0010
0100
0001
1000
0001
,  // measure 33
1000
0010
0100
0001
0010
0100
1000
0100
,  // measure 34
0001
0100
1000
0001
0010
1000
0010
0001
,  // measure 35
1000
0100
0010
0100
1000
0001
0100
0010
,  // measure 36
0100
0001
1000
0010
0100
0001
0100
0010
,  // measure 37
1000
0100
0010
0001
0100
0010
1000
0010
,  // measure 38
0001
0010
1000
0001
0100
1000
0100
0001
,  // measure 39
1000
0010
0100
0010
1000
0001
0010
0100
,  // measure 40
0010
0001
1000
0100
0010
0001
0010
0100
,  // measure 41
1000
0000
0100
0000
0010
0000
0001
0000
0000
0010
0000
0000
0001
0000
0000
1000
0000
0000
0010
0000
0000
1000
0000
0000
,  // measure 42
0001
0100
0010
0100
0001
1000
0100
0010
,  // measure 43
0100
1000
0010
0001
0010
1000
0001
0010
,  // measure 44
1000
0010
0001
1000
0001
1000
0010
0100
,  // measure 45
0001
0100
0010
1000
0100
0010
0001
0100
,  // measure 46
0010
0100
0010
1000
0100
0010
0100
0010
,  // measure 47
0001
0100
1000
0100
0001
1000
0100
0001
,  // measure 48
0100
0000
0000
1000
0000
0000
0001
0000
0000
1000
0000
0000
0001
0000
1000
0000
0001
0000
1000
0000
0001
0000
1000
0000
,  // measure 49
0001
0010
0001
0010
0100
1000
0100
1000
,  // measure 50
0001
0100
0001
0100
0010
1000
0010
1000
,  // measure 51
0001
0010
1000
0010
0001
1000
0100
0001
,  // measure 52
0100
1000
0001
0010
0100
1000
0001
1000
,  // measure 53
0001
0100
0010
1000
0001
0010
0100
0010
,  // measure 54
0001
0100
1000
0100
0001
1000
0010
0001
,  // measure 55
0020
0000
0000
0000
0230
0000
0000
0000
1300
0100
0010
0001
1000
0100
0010
0001
1001
0000
0000
0000
0000
0000
0000
0000
0000
0000
0000
0000
0000
0000
0000
0000
,  // measure 56
1000
0100
0001
0100
1000
0000
0000
0220
,  // measure 57
0330
1100
0011
0000
,  // measure 58
0001
0100
1000
0100
0001
0000
0000
0220
,  // measure 59
0330
0011
1100
0000
,  // measure 60
1000
0010
0001
0010
1000
0000
0000
2002
,  // measure 61
3003
1010
0101
0000
,  // measure 62
0001
0010
1000
0010
0001
0000
0000
2002
,  // measure 63
3003
0101
1010
0000
,  // measure 64
1000
0100
0001
0010
1000
0000
0000
0220
,  // measure 65
0330
1100
0101
0000
,  // measure 66
0001
0010
1000
0100
0001
0000
0000
0220
,  // measure 67
0330
0011
1010
0000
,  // measure 68
1000
0100
0010
0001
2002
3003
0000
0220
,  // measure 69
0330
0000
2020
3030
0000
0022
0033
0000
,  // measure 70
0202
0303
0000
2200
3300
0000
1000
0010
,  // measure 71
0100
0001
1000
0010
0100
0001
1001
0000
,  // measure 72
1000
0100
0001
0100
1000
0000
0000
0220
,  // measure 73
0330
1100
0101
0000
,  // measure 74
0001
0010
1000
0010
0001
0000
0000
0220
,  // measure 75
0330
0011
1010
0000
,  // measure 76
0001
0100
1000
0100
0001
0000
0000
2002
,  // measure 77
3003
0101
1100
0000
,  // measure 78
1000
0010
0001
0010
1000
0000
0000
2002
,  // measure 79
3003
1010
0011
0000
,  // measure 80
1000
0010
0001
0100
1000
0000
0000
2002
,  // measure 81
3003
0110
1100
1100
,  // measure 82
0011
0011
1010
1010
,  // measure 83
0101
0000
0101
0000
1000
0100
0001
0100
,  // measure 84
1000
0010
0001
0010
1000
0100
0001
0100
,  // measure 85
1000
0010
0001
0010
1000
0000
0000
0000
,  // measure 86
0001
0010
1000
0010
0001
0000
0010
0100
,  // measure 87
1000
0000
0001
0000
1000
0000
0010
0000
0100
0000
0010
0000
0110
0000
0000
0001
0000
0000
1010
0000
0000
0100
0000
0000
,  // measure 88
0011
1000
0101
0010
1100
0010
1001
0100
,  // measure 89
0011
1000
0110
0001
1010
0100
1001
0010
,  // measure 90
0101
1000
0110
0001
1100
0010
0101
1000
,  // measure 91
0011
0000
0000
0100
0000
0000
1000
0100
1000
0001
0010
0001
1001
0000
0000
1001
0000
0000
1100
0000
0000
1100
0000
0000
,  // measure 92
0101
0101
0110
0110
0011
0011
1010
1010
,  // measure 93
0110
0000
0110
0000
1001
0000
1001
0000
1000
0100
0001
0100
1000
0001
0100
1000
,  // measure 94
0100
0001
1000
0100
0022
0033
0000
0000
0001
0010
0100
1000
0001
0100
0010
1000
,  // measure 95
0001
0010
0100
0010
1000
0010
0100
0010
0001
0010
0100
1000
0002
0000
0000
0000
0000
0000
0000
0000
0000
0000
0000
0000
,  // measure 96
0000
0000
0000
0000
,  // measure 97
0003
0000
0000
0000
;
