#TITLE:Delirium;
#SUBTITLE:;
#ARTIST:☺;
#TITLETRANSLIT:;
#SUBTITLETRANSLIT:;
#ARTISTTRANSLIT:Smiley;
#GENRE:;
#CREDIT:;
#MUSIC:Delirium.ogg;
#BANNER:delirium-bn.png;
#BACKGROUND:Delirium-bg.png;
#CDTITLE:;
#SAMPLESTART:64.820;
#SAMPLELENGTH:11.850;
#SELECTABLE:YES;
#OFFSET:-0.037;
#BPMS:0.000=163.000
,217.000=326.000
,219.000=163.000
;
#STOPS:208.000=0.368
,209.000=0.368
,210.000=0.368
,211.000=0.368
,216.000=0.368
,217.000=0.368
;
#BGCHANGES:;
#FGCHANGES:;

//--------------- dance-single - ----------------
#NOTES:
     dance-single:
     :
     Beginner:
     3:
     0,0,0,0,0:
0000
0000
0000
0000
,
0000
0000
0000
0000
,
0000
0000
0000
0000
,
0000
0000
0000
0000
,
0000
0000
0000
0000
,
0000
0000
0000
0000
,
0000
0000
0000
0000
,
0000
0000
0000
0000
,
1000
0000
0000
0000
,
0100
0000
0000
0000
,
0010
0000
0000
0000
,
0001
0000
0000
0000
,
0100
0000
0000
0000
,
0010
0000
0000
0000
,
1000
0000
0000
0000
,
0001
0000
0000
0000
,
1000
0000
0000
0000
,
0010
0000
0000
0000
,
0100
0000
0000
0000
,
0001
0000
0000
0000
,
1000
0000
0100
0000
,
0001
0000
0100
0000
,
1000
0000
0010
0000
,
0001
0000
0010
0000
,
1000
0000
0100
0000
,
0010
0000
0001
0000
,
1000
0000
0010
0000
,
0100
0000
0001
0000
,
1000
0000
0010
0000
,
0001
0000
0010
0000
,
1000
0000
0100
0000
,
0001
0000
0100
0000
,
1000
0000
0010
0000
,
0100
0000
0001
0000
,
1000
0000
0100
0000
,
0010
0000
0001
0000
,
1000
0000
0100
0000
,
0010
0000
0100
0000
,
1000
0000
0100
0000
,
0010
0000
0100
0000
,
1000
0000
0100
0000
,
0010
0000
0100
0000
,
1000
0000
0100
0000
,
0010
0000
0100
0000
,
1000
0000
0000
0000
,
0010
0000
0000
0000
,
0001
0000
0000
0000
,
0010
0000
0000
0000
,
1000
0000
0000
0000
,
0100
0000
0000
0000
,
0001
0000
0000
0000
,
0100
0000
0000
0000
,
1000
0100
0010
0001
,
1000
0010
0100
0001
,
0110
1002
0000
1003
,
0000
0100
0000
0010
,
0000
0001
0000
1000
,
0000
0010
0000
0100
,
0000
0001
0000
1000
,
0100
0010
0001
1000
,
0100
0010
0001
1000
,
0010
0100
0001
1000
,
0010
0100
0001
1000
,
0100
0010
0100
1000
,
0100
0010
0100
1000
,
0010
0100
0010
1000
,
0010
0100
0010
1000
,
0100
0010
0100
1000
,
0010
0100
0001
0010
,
0100
0010
0100
1000
,
0010
0100
0001
1000
,
0010
0100
0010
1000
,
0100
0010
0001
0100
,
0010
0100
0010
1000
,
0100
0010
0001
1000
,
0000
0100
0000
0010
,
0000
0001
0000
0100
,
0000
0010
0000
1000
,
0000
0001
0000
1121
,
0000
MM3M
0000
0000
;

//--------------- dance-single - ----------------
#NOTES:
     dance-single:
     :
     Easy:
     8:
     0,0,0,0,0:
0000
0000
0000
0000
,
0000
0000
0000
0000
,
0000
0000
0000
0000
,
0000
0000
0000
0000
,
1000
0000
0000
1000
0000
0000
1000
0000
,
0000
0000
0000
0000
,
0100
0000
0000
0100
0000
0000
0100
0000
,
0000
0000
0000
0000
,
0010
0000
0000
0010
0000
0000
0010
0000
,
0000
0000
0000
0000
,
0001
0000
0000
0001
0000
0000
0001
0000
,
0000
0000
0000
0000
,
0100
0000
0000
0100
0000
0000
0100
0000
,
0000
0000
0000
0000
,
0010
0000
0000
0010
0000
0000
0010
0000
,
0000
0000
1000
0000
,
1000
0000
0000
1000
0000
0000
1000
0000
,
0000
0000
0000
0000
,
0001
0000
0000
0001
0000
0000
0001
0000
,
0000
0000
0000
0000
,
1000
0000
0100
0000
,
0001
0000
0100
0000
,
1000
0000
0100
0000
,
0001
0000
0100
0000
,
1000
0000
0100
0000
,
0001
0000
0100
0000
,
1000
0000
0100
0000
,
0001
0000
0100
0000
,
1000
0000
0010
0000
,
0001
0000
0010
0000
,
1000
0000
0010
0000
,
0001
0000
0010
0000
,
1000
0000
0010
0000
,
0001
0000
0010
0000
,
1000
0000
0010
0000
,
0001
0000
0010
0000
,
1000
0100
0010
0001
,
1000
0100
0010
0001
,
1000
0100
0010
0001
,
1000
0100
0010
0001
,
1000
0100
0010
0001
,
1000
0100
0010
0001
,
1000
0100
0010
0001
,
1000
0100
0010
0001
,
1000
0000
0100
0000
,
0010
0000
0001
0000
,
1000
0000
0010
0000
,
0100
0000
0001
0000
,
1000
0000
0100
0000
,
0010
0000
0001
0000
,
1000
0000
0010
0000
,
0100
0000
0001
0000
,
1000
0100
0100
0010
0010
0001
0001
0000
,
1000
1000
0010
0010
0100
0100
0001
0001
,
0110
1002
0000
1003
,
0000
0010
0000
0001
,
0000
0010
0000
1000
,
0000
0100
0000
0001
,
0000
0000
0100
0000
0000
0000
1000
0100
,
0010
0001
1000
0100
0010
0001
1000
0100
,
0010
0001
1000
0100
0010
0001
1000
0010
,
0100
0001
1000
0010
0100
0001
1000
0010
,
0100
0001
1000
0010
0100
0001
1000
0100
,
0010
0100
1000
0100
0010
0100
1000
0100
,
0010
0100
1000
0100
0010
0100
1000
0010
,
0100
0010
1000
0010
0100
0010
1000
0010
,
0100
0010
1000
0010
0100
0010
1000
0100
,
0010
0001
0100
0010
1000
0100
0010
0001
,
0100
0010
1000
0100
0010
0001
1000
0010
,
0100
0001
0010
0100
1000
0010
0100
0001
,
0010
0100
1000
0010
0100
0001
1000
0100
,
0010
0100
1000
0010
0100
0001
0010
0100
,
0010
0100
1000
0010
0100
0001
1000
0010
,
0100
0010
1000
0100
0010
0001
0100
0010
,
0100
0010
1000
0100
0010
0001
1000
0000
,
1000
0100
0100
0010
,
0010
0001
0001
0100
,
0100
0010
0010
1000
,
1000
0001
0001
1121
,
0000
MM3M
0000
0000
;

//--------------- dance-single - ----------------
#NOTES:
     dance-single:
     :
     Medium:
     11:
     0,0,0,0,0:
0000
0000
0000
0000
,
0000
0000
0000
0000
,
0000
0000
0000
0000
,
0000
0000
0000
0000
,
1001
1000
1000
1000
,
1001
0001
0001
0001
,
1001
1000
1000
1000
,
1001
0001
0001
0001
,
1000
0000
0100
0000
0010
0000
0001
1000
,
0001
0010
0100
1000
,
0001
0000
0010
0000
0100
0000
1000
0001
,
1000
0100
0010
0001
,
1000
0000
0010
0000
0100
0000
0001
1000
,
0001
0100
0010
1000
,
0001
0000
0100
0000
0010
0000
1000
0001
,
1000
0010
0100
0001
,
1000
0000
0100
0000
0010
0000
0001
1000
,
0001
0100
0010
1000
,
0001
0010
0100
1000
,
0001
0000
0000
0000
1000
0100
0010
0001
,
2000
3100
0002
0103
,
2000
3100
0002
0103
,
2000
3010
0002
0013
,
2000
3010
0002
0013
,
2000
3100
0002
0103
,
2000
3100
0002
0103
,
2000
3010
0002
0013
,
2000
0000
3010
0000
0002
0013
2000
3010
,
0002
0103
2000
3100
,
0002
0103
2000
3100
,
0002
0013
2000
3010
,
0002
0013
2000
3010
,
0002
0103
2000
3100
,
0002
0103
2000
3100
,
0002
0013
2000
3010
,
0002
0000
0013
0000
2000
3010
0002
0013
,
1000
0000
0000
0100
0000
0000
1000
0000
0100
0000
0000
0010
0000
0000
0100
0000
,
0010
0000
0000
0001
0000
0000
0010
0000
0001
0000
0000
0100
0000
0000
0001
0000
,
0100
0000
0000
0010
0000
0000
0100
0000
0010
0000
0000
1000
0000
0000
0010
0000
,
1000
0000
0000
0001
0000
0000
1000
0000
0001
0000
0000
1000
0000
0000
0001
0000
,
1000
0000
0000
0010
0000
0000
1000
0000
0010
0000
0000
0100
0000
0000
0010
0000
,
0100
0000
0000
0001
0000
0000
0100
0000
0001
0000
0000
0010
0000
0000
0001
0000
,
0010
0000
0000
0100
0000
0000
0010
0000
0100
0000
0000
1000
0000
0000
0100
0000
,
1000
0100
0010
0001
,
1000
0100
0001
0100
,
1000
0100
0001
0100
,
1000
0100
0001
0100
,
1000
0100
0001
0100
,
1000
0010
0001
0010
,
1000
0010
0001
0010
,
1000
0010
0001
0010
,
1000
0010
0001
0010
,
1M10
0100
011M
0010
M011
0001
1M01
0000
,
11M0
1000
011M
0010
M101
0100
1M01
0001
,
0110
1002
0000
1003
,
0100
0010
0001
0100
,
0010
1000
0001
1000
,
0010
0100
0001
0010
,
0100
0000
0000
0000
1000
0000
0000
0000
0001
0000
0000
0000
1000
0100
1000
0100
,
1000
0100
1000
0000
0001
0100
0001
0100
0001
0100
0001
0000
1000
0010
1000
0010
,
1000
0010
1000
0000
0001
0010
0001
0010
0001
0010
0001
0000
1000
0001
1000
0001
,
1000
0001
1000
0000
0010
0100
0010
0100
0010
0100
0010
0000
0001
1000
0001
1000
,
0001
1000
0001
0000
0100
0010
0100
0010
0100
0010
0100
0000
1000
0100
1000
0100
,
0010
0001
0010
0000
0001
0100
0001
0100
0010
1000
0010
0000
1000
0010
1000
0010
,
0100
0001
0100
0000
0001
0010
0001
0010
0100
1000
0100
0000
1000
0100
1000
0001
,
0100
0001
0100
0000
0001
0010
0001
1000
0010
1000
0010
0000
1000
0010
1000
0001
,
0010
0001
0010
0000
0001
0100
0001
1000
0100
1000
0100
0000
1000
0100
0010
0001
,
0010
0100
1000
0000
0001
0010
0100
1000
0100
0010
0001
0000
1000
0010
0100
0001
,
0100
0010
1000
0000
0001
0100
0010
1000
0010
0100
0001
0000
1000
0100
0010
0001
,
0100
0010
1000
0000
0001
0010
0100
1000
0010
0100
0001
0000
1000
0010
0100
0001
,
0010
0100
1000
0000
0001
0100
0010
1000
0100
0010
0001
0000
1000
0100
0010
0001
,
0100
0001
0100
0000
0001
0010
0100
1000
0010
1000
0010
0000
1000
0010
0100
0001
,
0010
0001
0010
0000
0001
0100
0010
1000
0100
1000
0100
0000
1000
0100
0010
0100
,
1000
0001
0100
0000
0001
0010
0100
0010
0001
1000
0010
0000
1000
0010
0100
0010
,
1000
0001
0010
0000
0001
0100
0010
0100
0001
1000
0100
0000
1000
0000
0000
0000
,
0100
0010
0001
1000
,
0010
0100
0001
1000
,
0100
0010
0001
1000
,
0010
0100
0001
1121
,
0000
MM3M
0000
0000
;

//--------------- dance-single - ----------------
#NOTES:
     dance-single:
     :
     Hard:
     13:
     0,0,0,0,0:
1001
0000
0000
0010
0000
0000
0110
0000
,
0000
0000
0000
0000
,
1001
0000
0000
0100
0000
0000
0110
0000
,
0000
0000
0000
0000
,
0110
0000
0000
0001
0000
0000
1001
0000
,
0000
0000
0000
0000
,
0110
0000
0000
1000
0000
0000
1001
0000
,
0000
0000
0000
0000
1100
0101
0000
0011
,
1020
0000
0000
0100
0000
0000
0001
0000
,
0000
0000
0000
0000
,
1000
0000
0000
0100
0000
0000
0032
0000
,
0000
0000
0000
0000
,
0100
0000
0000
0010
0000
0000
1000
0000
,
0000
0000
0000
0000
,
0010
0000
0000
1000
0000
0000
0203
0000
,
0000
0000
0000
0000
0010
0010
0000
1000
,
1300
0000
0000
1000
0000
0000
1000
0000
,
0000
0000
0000
0000
,
0001
0000
0000
0001
0000
0000
0001
0000
,
0000
0000
0000
0000
,
2000
0000
0000
0000
0200
0000
0000
3000
0002
0000
0000
0300
0020
0003
0200
0030
,
2000
0000
0000
0300
0020
0000
0000
3000
0002
0000
0000
0130
0200
0003
0020
1300
,
0002
0000
0000
0030
0020
0000
0000
0003
2000
0000
0000
0030
0200
3000
0020
0300
,
0002
0000
0000
0030
0200
0000
0000
0003
2000
0000
0000
0310
0020
3000
0200
0031
,
2000
0000
0000
0300
0020
0000
0000
3000
0002
0000
0000
0030
0200
0003
0020
0300
,
2000
0000
0000
0030
0200
0000
0000
3000
0002
0000
0000
0310
0020
0003
0200
1030
,
0002
0000
0000
0300
0200
0000
0000
0003
2000
0000
0000
0300
0020
3000
0200
0030
,
0002
0000
0000
0300
0020
0000
0000
0003
2000
0130
0002
3010
2000
0103
0002
3010
,
2000
0000
0000
0003
0200
0000
0000
3000
0002
0000
0000
0300
0020
0003
2000
0030
,
0002
0000
0000
3000
0020
0000
0000
0003
2000
0000
0000
0130
0200
3000
0002
0013
,
0002
0000
0000
0300
0020
0000
0000
0003
2000
0000
0000
0030
0200
3000
0002
0300
,
2000
0000
0000
0003
0200
0000
0000
3000
0002
0000
0000
0310
0020
0003
2000
3100
,
2000
0000
0000
0030
0020
0000
0000
3000
0002
0000
0000
0030
0200
0003
2000
0300
,
0002
0000
0000
3000
0200
0000
0000
0003
2000
0000
0000
0310
0020
3000
0002
0103
,
0002
0000
0000
0030
0200
0000
0000
0003
2000
0000
0000
0300
0020
3000
0002
0030
,
2000
0000
0000
0003
0020
0000
0000
3000
0032
0010
2000
0103
0002
3010
2000
3100
,
1003
0100
0010
0001
1000
0100
0010
0001
1000
0100
0010
0001
1000
0100
0010
0001
,
1000
0100
0010
0001
1000
0100
0010
0001
1000
0100
0010
0001
1000
0100
0010
0001
,
1000
0100
0010
0001
1000
0100
0010
0001
1000
0100
0010
0001
1000
0100
0010
0001
,
1000
0100
0010
0001
1000
0100
0010
0001
1000
0100
0010
0001
1000
0100
0010
0001
,
1000
0100
0010
0001
1000
0100
0010
0001
1000
0100
0010
0001
1000
0100
0010
0001
,
1000
0100
0010
0001
1000
0100
0010
0001
1000
0100
0010
0001
1000
0100
0010
0001
,
1000
0100
0010
0001
1000
0100
0010
0001
1000
0100
0010
0001
1000
0100
0010
0001
,
1000
0100
0010
0001
1000
0100
0010
0001
1000
0100
0010
0001
1000
0100
0010
0001
,
1000
0000
0100
0000
0010
0000
0001
0010
,
0100
0000
0000
0000
1000
0000
0000
0000
0100
0000
0000
0010
0001
0000
0010
0100
,
1000
0000
0010
0000
0100
0000
0001
0100
,
0010
0000
0000
0000
1000
0000
0000
0000
0010
0000
0000
0100
0001
0000
0100
0010
,
1000
0000
0100
0000
0010
0000
0001
0100
,
0010
0000
0000
0000
1000
0000
0000
0000
0100
0000
0000
0010
0001
0000
0100
0010
,
1000
0000
0010
0000
0100
0000
0001
0010
,
0100
0000
0000
0000
1000
0000
0000
0000
0001
0010
0100
1000
0001
0010
0100
1000
,
MM11
0110
1M1M
0110
11MM
0110
M1M1
0000
,
1MM1
1100
1MM1
0101
1MM1
1010
1MM1
0011
,
M11M
1MM2
MMM0
1003
,
0100
0000
0010
0000
0001
0001
0001
0000
,
0100
0000
0000
0000
0010
0000
0000
0010
1000
0000
0100
0010
0001
0000
0000
0000
,
0010
0000
0100
0000
1000
1000
1000
0000
,
0010
0000
0000
0000
0100
0000
0000
0100
0001
0000
0010
0100
1000
0100
0010
0001
,
1000
0100
0010
0001
1000
0100
0010
0001
1000
0100
0010
0001
1000
0010
0100
0001
,
1000
0010
0100
0001
1000
0010
0100
0001
1000
0010
0100
0001
1000
0100
0010
0100
,
1000
0100
0010
0001
0010
0100
0010
0100
1000
0100
0010
0001
1000
0010
0100
0010
,
1000
0010
0100
0001
0100
0010
0100
0010
1000
0010
0100
0001
1000
0100
0010
0100
,
1000
0010
0100
0001
0010
0100
0010
0100
1000
0010
0100
0001
1000
0010
0100
0010
,
1000
0100
0010
0001
0100
0010
0100
0010
1000
0100
0010
0001
1000
0100
0010
0001
,
0010
0100
1000
0100
0010
0001
0010
0100
1000
0100
0010
0001
1000
0010
0100
0001
,
0100
0010
1000
0010
0100
0001
0100
0010
1000
0010
0100
0001
1000
0100
0010
0001
,
0100
0010
1000
0100
0010
0001
0100
0010
1000
0100
0010
0001
1000
0010
0100
0001
,
0010
0100
1000
0010
0100
0001
0010
0100
1000
0010
0100
0001
1000
0100
0010
0100
,
0010
0001
1000
0100
0010
0100
0010
0001
1000
0100
0010
0001
1000
0010
0100
0010
,
0100
0001
1000
0010
0100
0010
0100
0001
1000
0010
0100
0001
1000
0100
0010
0100
,
0010
0001
1000
0010
0100
0010
0100
0001
1000
0100
0010
0001
1000
0010
0100
0010
,
0100
0001
1000
0100
0010
0100
0010
0001
1000
0010
0100
0001
1000
0100
1000
0010
,
0100
0001
0010
0100
1000
0100
0010
0001
0100
0010
1000
0100
1000
0010
1000
0100
,
0010
0001
0100
0010
1000
0010
0100
0001
0010
0100
1000
0010
1000
0000
0000
0000
,
0100
0000
0010
0000
0001
0001
0001
0000
,
0010
0000
0000
0000
0100
0000
0000
1000
0001
0000
0010
0100
1000
0000
0000
0000
,
0100
0000
0010
0000
0001
0010
0100
0000
,
1000
0000
0000
0000
0010
0100
0010
1000
0010
0001
0010
0100
1121
0000
0000
0000
,
0000
MM3M
0000
0000
;

//--------------- dance-single - ----------------
#NOTES:
     dance-single:
     :
     Challenge:
     14:
     0,0,0,0,0:
1000
0100
1000
0100
1000
0100
1000
0100
1000
0100
1000
0100
1000
0100
1000
0100
,
0010
0000
0001
0000
0010
0000
0001
0000
0010
0000
0001
0000
0010
0000
0001
0000
0010
0000
0001
0000
0010
0000
0001
0000
0010
0000
0001
0000
0010
0001
0010
0001
,
1000
0010
1000
0010
1000
0010
1000
0010
1000
0010
1000
0010
1000
0010
1000
0010
,
0100
0000
0000
0001
0000
0000
0100
0000
0000
0001
0000
0000
0100
0000
0000
0001
0000
0000
0100
0000
0000
0001
0000
0000
0100
0000
0000
0001
0000
0000
0100
0000
0000
0001
0000
0000
0100
0000
0001
0000
0100
0000
0001
0000
0100
0000
0001
0000
,
1000
0100
1000
0100
1000
0100
1000
0100
0010
0001
0010
0001
0010
0001
0010
0001
,
0100
0010
0100
0010
0100
0010
0100
0010
1000
0001
1000
0001
1000
0001
1000
0001
,
1000
0010
1000
0010
1000
0010
1000
0010
0100
0001
0100
0001
0100
0001
0100
0001
,
0010
0000
0000
0100
0000
0000
0010
0000
0000
0100
0000
0000
0010
0000
0000
0100
0000
0000
0010
0000
0000
0100
0000
0000
1000
0000
0000
0001
0000
0000
1000
0000
0000
0001
0000
0000
1000
0000
0001
0000
1000
0000
0001
0000
1000
0000
0001
0000
,
1000
0100
1000
0100
0010
0001
0010
0001
0100
0010
0100
0010
1000
0001
1000
0001
,
1000
0000
0010
0000
1000
0000
0010
0000
0100
0000
0001
0000
0100
0000
0001
0000
0010
0000
0100
0000
0010
0000
0100
0000
1000
0000
0001
0000
1000
0001
1000
0001
,
0010
0001
0010
0001
1000
0010
1000
0010
0100
0001
0100
0001
1000
0100
1000
0001
,
0100
0000
0000
0001
0000
0000
0100
0000
0000
0001
0000
0000
1000
0000
0000
0100
0000
0000
1000
0000
0000
0100
0000
0000
0010
0000
0000
0001
0000
0000
0010
0000
0000
0001
0000
0000
1000
0000
0010
0000
1000
0000
0010
0000
1000
0000
0010
0000
,
1000
0100
1000
0100
1000
0010
1000
0010
0100
0001
0100
0001
0010
0001
0010
0001
,
1000
0010
1000
0010
1000
0100
1000
0100
0010
0001
0010
0001
0100
0001
0100
0001
,
1000
0100
1000
0100
0010
0100
0010
0100
0010
0001
0010
0001
0100
0010
0100
0010
,
1000
0000
0000
0010
0000
0000
1000
0000
0000
0010
0000
0000
0100
0000
0000
0010
0000
0000
0100
0000
0000
0010
0000
0000
0100
0000
0000
0001
0000
0000
0100
0000
0000
0001
0000
0000
0010
0000
0100
0000
0010
0000
0100
0000
0010
0000
0100
0000
,
1000
0100
1000
0100
1000
0100
1000
0100
0010
0100
0010
0100
0010
0100
0010
0100
,
0001
0000
0100
0000
0001
0000
0100
0000
0001
0000
0100
0000
0001
0000
0100
0000
0010
0000
0100
0000
0010
0000
0100
0000
0010
0000
0100
0000
0010
0100
0010
0100
,
1000
0010
1000
0010
1000
0010
1000
0010
0100
0010
0100
0010
0100
0010
0100
0010
,
0001
0000
0000
0010
0000
0000
0001
0000
0000
0010
0000
0000
0001
0000
0000
0010
0000
0000
0001
0000
0000
0010
0000
0000
0100
0000
0000
0010
0000
0000
0100
0000
0000
0010
0000
0000
0100
0000
0010
0000
0100
0000
0010
0000
0100
0000
0010
0000
,
1001
0000
1100
0000
1010
0000
0110
0110
,
0110
0000
0000
0000
0011
0000
0000
0000
0101
0000
0000
0010
0110
0000
1000
0001
,
1001
0000
0101
0000
0011
0000
0110
0110
,
0110
0000
0000
0000
1010
0000
0000
0000
1100
0000
0000
0100
0110
0000
0001
1000
,
1001
0000
1100
0000
0101
0000
0110
0110
,
0110
0000
0000
0000
0011
0000
0000
0000
1010
0000
0000
1000
0110
0000
0010
0100
,
1001
0000
1010
0000
0011
0000
0101
1100
,
0110
0000
0000
0000
1001
0000
0000
0000
1000
0100
0010
0100
0001
0010
0100
0010
,
1001
0100
1000
0010
0100
0001
0010
0010
,
1000
0000
0010
0000
1000
0000
0100
0000
0010
0000
0001
0100
0010
0000
0100
0010
,
1000
0100
1000
0100
0010
0001
0100
0100
,
1000
0000
0010
0000
1000
0000
0010
0000
0100
0000
0001
0010
0100
0000
0010
0100
,
1000
0010
1000
0100
0010
0001
0010
0010
,
1000
0000
0100
0000
1000
0000
0010
0000
0100
0000
0001
0010
0100
0000
0010
0100
,
1100
0000
0101
0000
0011
0000
1010
0110
,
1001
0000
0000
0000
0110
0000
0000
0000
1000
0100
0010
0100
0001
0010
0100
0010
,
1000
0100
0010
0100
0010
0001
1000
0100
0010
0100
0010
0001
1000
0100
0010
0100
,
0010
0001
1000
0100
0010
0100
0010
0001
1000
0100
0010
0001
1000
0100
0010
0001
,
1000
0010
0100
0010
0100
0001
1000
0010
0100
0010
0100
0001
1000
0010
0100
0010
,
0100
0001
1000
0010
0100
0010
0100
0001
1000
0010
0100
0001
1000
0010
0100
0001
,
1000
0100
0010
0001
1000
0100
0010
0001
1000
0100
0010
0001
1000
0100
0010
0001
,
1000
0100
0010
0001
1000
0100
0010
0001
1000
0100
0010
0001
1000
0100
0010
0001
,
1000
0010
0100
0001
1000
0010
0100
0001
1000
0010
0100
0001
1000
0010
0100
0001
,
1000
0010
0100
0001
1000
0010
0100
0001
1000
0010
0100
0001
1000
0010
0100
0001
,
1000
0100
0010
0001
0010
0100
1000
0100
0010
0001
0010
0100
1000
0100
0010
0001
,
1000
0010
0100
0001
0100
0010
1000
0010
0100
0001
0100
0010
1000
0010
0100
0001
,
1000
0100
0010
0100
1000
0100
0010
0001
0010
0100
0010
0100
1000
0100
0010
0001
,
1000
0010
0100
0010
1000
0010
0100
0001
0100
0010
0100
0010
1000
0010
0100
0001
,
1000
0100
0010
0001
0100
0010
1000
0100
0010
0001
0100
0010
1000
0100
0010
0001
,
1000
0010
0100
0001
0010
0100
1000
0010
0100
0001
0010
0100
1000
0010
0100
0001
,
1000
0100
0010
0100
1000
0010
0100
0001
0010
0100
0010
0100
1000
0010
0100
0001
,
1000
0010
0100
0010
1000
0100
0010
0001
0100
0010
0100
0010
1000
0100
0010
0001
,
1MM1
1100
1MM1
0101
1MM1
0110
1MM1
0000
,
1M1M
1010
MM11
0011
M11M
0110
1MM1
1001
,
M11M
1MM2
MMM0
1003
,
0100
0000
0010
0000
0001
0001
0001
0000
,
0100
0000
0000
0000
0010
0000
0000
0010
1000
0000
0100
0010
0001
0000
0000
0000
,
0010
0000
0100
0000
1000
1000
1000
0000
,
0010
0000
0000
0000
0100
0000
0000
0100
0001
0000
0010
0100
1000
0100
0010
0001
,
1000
0100
0010
0001
1000
0100
0010
0001
1000
0100
0010
0001
1000
0010
0100
0001
,
1000
0000
0010
0000
0100
0000
0001
0000
1000
0000
0010
0000
0100
0000
0001
0000
1000
0000
0010
0000
0100
0001
0100
0001
1000
0000
0100
0000
0010
0000
0100
0000
,
1000
0100
0010
0001
0010
0100
0010
0100
1000
0100
0010
0001
1000
0010
0100
0010
,
1000
0000
0000
0000
0000
0000
0010
0000
0000
0000
0000
0000
0100
0000
0000
0000
0000
0000
0001
0000
0000
0000
0000
0000
0100
0000
0000
0000
0000
0000
0010
0000
0000
0000
0000
0000
0100
0000
0000
0010
0000
0000
0100
0000
0000
0010
0000
0000
1000
0000
0000
0000
0010
0000
0000
0000
0100
0000
0000
0000
0001
0000
0000
0000
0010
0000
0000
0000
0100
0000
0000
0000
1000
0000
0000
0000
0000
0000
0100
0000
0000
0000
0000
0000
0010
0000
0000
0000
0000
0000
0100
0000
0000
0000
0000
0000
,
1000
0010
0100
0001
0010
0100
0010
0100
1000
0010
0100
0001
1000
0010
0100
0010
,
1000
0100
0010
0001
0100
0010
0100
0010
1000
0100
0010
0001
1000
0100
0010
0001
,
0010
0100
1000
0100
0010
0001
0010
0100
1000
0100
0010
0001
1000
0010
0100
0001
,
0100
0000
0000
0010
0000
0000
1000
0000
0000
0010
0000
0000
0100
0000
0000
0001
0000
0000
0100
0000
0000
0010
0000
0000
1000
0000
0010
0000
0100
0000
0001
0000
0010
0000
0100
0000
1000
0000
0000
0100
0000
0000
0010
0000
0000
0001
0000
0000
,
0100
0010
1000
0100
0010
0001
0100
0010
1000
0100
0010
0001
1000
0010
0100
0001
,
0010
0000
0100
0000
1000
0000
0010
0000
0100
0000
0001
0000
0010
0000
0100
0000
1000
0000
0010
0000
0100
0001
0100
0001
1000
0000
0100
0000
0010
0000
0100
0000
,
0010
0001
1000
0100
0010
0100
0010
0001
1000
0100
0010
0001
1000
0010
0100
0010
,
0100
0000
0000
0000
0000
0000
0001
0000
0000
0000
0000
0000
1000
0000
0000
0000
0000
0000
0010
0000
0000
0000
0000
0000
0100
0000
0000
0000
0000
0000
0010
0000
0000
0000
0000
0000
0100
0000
0000
0001
0000
0000
0100
0000
0000
0001
0000
0000
1000
0000
0000
0000
0010
0000
0000
0000
0100
0000
0000
0000
0001
0000
0000
0000
0010
0000
0000
0000
0100
0000
0000
0000
1000
0000
0000
0000
0000
0000
0100
0000
0000
0000
0000
0000
0010
0000
0000
0000
0000
0000
0100
0000
0000
0000
0000
0000
,
0010
0001
1000
0010
0100
0010
0100
0001
1000
0100
0010
0001
1000
0010
0100
0010
,
0100
0001
1000
0100
0010
0100
0010
0001
1000
0010
0100
0001
1000
0100
1000
0010
,
0100
0001
0010
0100
1000
0100
0010
0001
0100
0010
1000
0100
1000
0010
1000
0100
,
0010
0000
0000
0001
0000
0000
0100
0000
0000
0010
0000
0000
1000
0000
0010
0000
0100
0000
0001
0000
0010
0000
0100
0000
1000
0000
0010
0000
1000
0000
0100
0000
0010
0000
0001
0000
1001
0000
0000
0000
0000
0000
0000
0000
0000
0000
0000
0000
,
0100
0000
0010
0000
0001
1000
0001
0000
,
0010
0000
0000
0000
0100
0000
0000
1000
0100
0000
0010
0001
1000
0000
0000
0000
,
0010
0000
0100
0000
0001
1000
0001
0000
,
0100
0000
0000
0000
0010
0100
0010
1000
0010
0001
0010
0100
1121
0000
0000
0000
,
0000
MM3M
0000
0000
;
