#VERSION:0.83;
#TITLE:DEATH†ZIGOQ ~怒りの高速爆走野郎~;
#SUBTITLE:;
#ARTIST:L.E.D.ALiCE (DJ NAGAI Vs. BEMANI Sound Team "L.E.D.-G");
#TITLETRANSLIT:DEATH†ZIGOQ ~Ikari no kousoku bakusou yarou~;
#SUBTITLETRANSLIT:;
#ARTISTTRANSLIT:;
#GENRE:;
#ORIGIN:;
#CREDIT:;
#BANNER:;
#BACKGROUND:;
#PREVIEWVID:;
#JACKET:;
#CDIMAGE:;
#DISCIMAGE:;
#LYRICSPATH:;
#CDTITLE:;
#MUSIC:DEATH ZIGOQ.ogg;
#OFFSET:0.000000;
#SAMPLESTART:93.599998;
#SAMPLELENGTH:14.400000;
#SELECTABLE:YES;
#BPMS:0.000=200.000;
#STOPS:;
#DELAYS:;
#WARPS:;
#TIMESIGNATURES:0.000=4=4;
#TICKCOUNTS:0.000=4;
#COMBOS:0.000=1;
#SPEEDS:0.000=1.000=0.000=0;
#SCROLLS:0.000=1.000;
#FAKES:;
#LABELS:0.000=Song Start;
#BGCHANGES:0.000=DEATH ZIGOQ.avi=1.000=0=0=0=StretchNoLoop====,
99999=-nosongbg-=1.000=0=0=0 // don't automatically add -songbackground-
;
#KEYSOUNDS:;
#ATTACKS:
;

//---------------dance-single - ----------------
#NOTEDATA:;
#CHARTNAME:;
#STEPSTYPE:dance-single;
#DESCRIPTION:;
#CHARTSTYLE:;
#DIFFICULTY:Beginner;
#METER:7;
#RADARVALUES:0.279739,0.559953,0.008333,0.224981,0.000000,235.000000,234.000000,1.000000,27.000000,0.000000,0.000000,0.000000,0.000000,0.000000,0.279739,0.559953,0.008333,0.224981,0.000000,235.000000,234.000000,1.000000,27.000000,0.000000,0.000000,0.000000,0.000000,0.000000;
#CREDIT:;
#NOTES:
0000
0000
0000
0000
,
0000
0000
0000
0000
,
0000
0000
0000
0000
,
0000
0000
0000
0000
,
0000
0000
0000
0000
,
0000
0000
0000
0000
,
0000
0000
0000
0000
,
0000
0000
0000
0000
,
0000
0000
0000
0000
,
1000
0000
0000
0100
0000
0000
0010
0000
,
0000
0001
0000
0000
1000
0000
1000
0000
,
0001
0000
0000
0010
0000
0000
0100
0000
,
0000
1000
0000
0000
0001
0000
0001
0000
,
2000
3000
2000
3000
0002
0003
0002
0003
,
2002
3003
0100
0000
1000
0000
0100
0000
,
0010
0001
0010
0001
,
1000
0010
1000
0010
,
0100
0000
0001
0000
0100
0000
0002
0003
,
1000
0100
0010
0001
,
1000
0010
0100
0001
,
1000
0100
0010
0001
,
1000
0000
0000
0001
0000
0000
1000
0000
,
0001
0010
0001
0010
,
0100
1000
0100
1000
,
0001
0100
0001
0100
,
0010
0000
1000
0000
0010
0000
2000
3000
,
0001
0010
0100
1000
,
0001
0100
0010
1000
,
0001
0000
1000
0000
,
0001
0000
0000
0000
,
1000
0000
0000
0000
,
0000
0000
0000
0000
,
0100
0000
0000
0000
,
0000
0000
0000
0000
,
0010
0000
0000
0000
,
0000
0000
0000
0000
,
0001
0000
0000
0000
,
0000
0000
0000
0000
,
1000
1000
0100
0100
,
0010
0010
0001
0001
,
1000
0100
0010
0001
,
1000
0100
0010
0001
,
1000
1000
0010
0010
,
0100
0100
0001
0001
,
1000
0010
0100
0001
,
1000
0010
0100
0001
,
1000
0000
0000
0000
,
1000
0000
0000
0000
,
1000
0000
0000
0000
,
1000
0000
0000
0000
,
1000
0000
1000
0000
,
1000
0000
1000
0000
,
1000
1000
1000
1000
,
1000
0000
0000
0000
,
1000
0000
0000
0000
,
0000
0000
0000
0000
,
0100
0000
0000
0000
,
0000
0000
0000
0000
,
0010
0000
0000
0000
,
0000
0000
0000
0000
,
0001
0000
0000
0000
,
0000
0000
0000
0000
,
1000
0000
0000
0000
,
0000
0000
0000
0000
,
0001
0000
0000
0000
,
0000
0000
0000
0000
,
1000
0000
0000
0000
,
0000
0000
0000
0000
,
0001
0000
0000
0000
,
1000
0000
0000
0000
,
0100
0200
0000
0000
0000
0000
0000
0000
,
0300
0000
0000
0000
,
0100
0200
0000
0000
0000
0000
0000
0000
,
0300
0000
0000
0000
,
0100
0200
0000
0000
0000
0000
0000
0000
,
0300
0000
0000
0000
,
2000
3000
0000
0200
0300
0000
0020
0030
,
0000
0002
0003
0000
2000
3000
0000
0000
,
1000
0100
1000
0000
0100
0000
0010
0000
,
0001
0010
0001
0000
0010
0000
0100
0000
,
1000
0100
1000
0000
0001
0100
0001
0000
,
1000
0010
1000
0000
0001
0010
0001
0000
,
1000
0010
1000
0000
0010
0000
0100
0000
,
0001
0100
0001
0000
0100
0000
0010
0000
,
1000
1000
0100
0100
0010
0010
0001
0001
,
2000
0000
3200
0320
0000
0032
2003
0000
,
3001
0010
0001
0000
0010
0000
0100
0000
,
1000
0010
1000
0000
0010
0000
0100
0000
,
0001
0010
0001
0000
1000
0010
1000
0000
,
0001
0100
0001
0000
1000
0100
1000
0000
,
0001
0100
0001
0000
0100
0000
0010
0000
,
1000
0100
1000
0000
0100
0000
0010
0000
,
0001
0001
0010
0010
0100
0100
1000
1000
,
0002
0000
0023
0230
0000
2300
3200
0320
,
0000
0000
0000
0000
,
0000
0000
0000
0000
,
0030
0000
0000
0000
;

//---------------dance-single - ----------------
#NOTEDATA:;
#CHARTNAME:;
#STEPSTYPE:dance-single;
#DESCRIPTION:;
#CHARTSTYLE:;
#DIFFICULTY:Easy;
#METER:10;
#RADARVALUES:0.576142,0.919923,0.041663,0.399967,0.091659,484.000000,479.000000,5.000000,48.000000,0.000000,0.000000,0.000000,0.000000,0.000000,0.576142,0.919923,0.041663,0.399967,0.091659,484.000000,479.000000,5.000000,48.000000,0.000000,0.000000,0.000000,0.000000,0.000000;
#CREDIT:;
#NOTES:
0000
0000
0000
0000
,
0000
0000
0000
0000
,
0000
0000
0000
0000
,
0000
0000
0000
0000
,
0000
0000
0000
0000
,
0000
0000
0000
0000
,
0000
0000
0000
0000
,
0000
0000
0000
0000
,
1000
0000
0001
0000
1000
0000
0001
0000
1000
0000
0001
0000
1000
0001
1000
0001
,
1000
0100
0010
0001
,
1000
1000
0001
0001
,
1000
0010
0100
0001
,
1000
1000
0001
0001
,
2002
3003
2002
3003
2002
3003
2002
3003
,
2002
3003
1000
0100
1000
0100
0010
0001
,
0010
0001
1000
0010
1000
0010
0100
0001
,
0100
0001
1000
0001
1000
0001
0100
0010
,
0100
0010
1000
0001
0010
0100
2000
3000
,
1000
0100
0010
0001
1000
0100
1000
0001
,
0100
0010
1000
0001
0010
0001
1000
0001
,
1000
0100
0010
0001
,
1000
0000
0000
0000
,
0001
0010
0100
1000
0001
0100
0001
1000
,
0010
0100
0001
1000
0010
1000
0001
0010
,
0100
0010
0001
1000
0010
0100
0001
1000
,
0001
0100
0010
1000
0001
1000
0020
0030
,
1000
0100
0010
0100
1000
0010
0100
0010
,
1000
0100
0010
0001
0010
0100
0010
0001
,
0100
0100
0001
0001
,
2000
0000
0000
0000
,
3002
0000
0000
2003
,
3200
0320
0032
2003
,
3002
0000
0000
0023
0000
0000
0230
0000
,
2300
3020
0230
0302
,
2003
0000
0000
3000
,
1000
1000
0001
0001
,
1000
0100
0010
0001
,
1000
0100
0010
0001
1000
0000
0000
0000
,
1000
0100
1000
0001
0100
0001
1000
0100
,
0010
0001
0100
0010
0100
0001
0010
0100
,
1000
0010
1000
0001
0010
0001
1000
0010
,
0100
0001
0010
0100
0010
0001
0100
0010
,
1000
0010
1000
0001
0010
0001
1000
0010
,
0100
0001
0100
0010
0100
0001
0010
0100
,
1000
0100
1000
0001
0100
0001
1000
0100
,
0010
0001
0010
0100
0010
0001
0100
0010
,
1000
0000
1000
1000
0000
0000
0000
0000
,
0100
0000
0100
0100
0000
0000
0000
0000
,
0010
0000
0010
0010
0000
0000
0000
0000
,
0001
0000
0001
0001
0000
0000
0000
0000
,
1000
0000
0100
0000
,
0010
0000
0001
0000
,
1000
0100
0010
0001
,
1000
1000
0001
0001
,
1000
0000
0000
0100
0000
0000
0010
0000
,
0000
0001
0000
0000
1000
0000
1000
0000
,
0001
0000
0000
0010
0000
0000
0100
0000
,
0000
1000
0000
0000
0001
0000
0001
0000
,
1000
0000
0000
0010
0000
0000
0100
0000
,
0000
0001
0000
0000
1000
0000
1000
0000
,
0001
0000
0000
0100
0000
0000
0010
0000
,
1000
1000
0001
0001
,
1000
0100
0010
0001
,
1000
0010
0100
0001
,
1000
0100
1000
0100
,
0010
0001
0010
0001
,
1000
0010
1000
0010
,
0100
0001
0100
0001
,
1000
1000
0100
0100
0010
0010
0001
0001
,
1000
0000
0000
0000
,
0100
0200
0000
0000
0000
0000
0300
0000
,
1000
0000
0000
0000
,
0100
0200
0000
0000
0000
0000
0300
0000
,
1000
0100
0010
0001
,
0100
0200
0000
0000
0000
0000
0300
0000
,
1000
0100
0010
0001
1000
0010
0100
0001
,
1000
0200
0300
0100
0020
0030
0010
0002
,
0003
0001
2000
3000
0002
0003
2000
3000
,
1000
0100
1000
0000
0001
0100
0001
0000
1000
0000
0100
0000
0010
0000
0001
0000
,
1000
0010
1000
0000
0001
0010
0001
0000
1000
0000
0010
0000
0100
0000
0001
0000
,
1000
0100
0010
0001
0010
0100
1000
0010
,
0100
0001
0100
0010
1000
0001
1000
0001
,
1000
0010
1000
0000
0001
0010
0001
0000
1000
0000
0010
0000
0100
0000
0001
0000
,
1000
0100
1000
0000
0001
0100
0001
0000
1000
0000
0100
0000
0010
0000
0001
0000
,
1000
0100
1000
0100
0010
0001
0010
0001
,
2000
0000
3200
0320
0030
0002
0023
0230
,
1300
0100
0010
0000
0001
0100
0010
0000
1000
0000
0001
0000
1000
0000
0001
0000
,
1000
0010
0100
0000
0001
0010
0100
0000
1000
0000
0001
0000
1000
0000
0001
0000
,
1000
0100
0010
0001
1000
0010
0100
0001
,
1000
0100
0010
0001
1000
0010
0100
0001
,
1000
0010
0100
0000
0001
0010
0100
0000
1000
0000
0100
0000
0010
0000
0001
0000
,
1000
0100
0010
0000
0001
0100
0010
0000
1000
0000
0010
0000
0100
0000
0001
0000
,
1000
0000
0001
0000
1000
0000
0001
0000
1000
0001
1000
0001
1000
0001
1000
0001
,
2000
0000
3200
0320
0000
0032
0203
0320
,
0000
0000
0000
0000
,
0000
0000
0000
0000
,
0030
0000
0000
0000
;

//---------------dance-single - ----------------
#NOTEDATA:;
#CHARTNAME:;
#STEPSTYPE:dance-single;
#DESCRIPTION:;
#CHARTSTYLE:;
#DIFFICULTY:Medium;
#METER:13;
#RADARVALUES:0.878498,1.319890,0.074994,0.308308,0.804100,738.000000,729.000000,9.000000,37.000000,0.000000,0.000000,0.000000,0.000000,0.000000,0.878498,1.319890,0.074994,0.308308,0.804100,738.000000,729.000000,9.000000,37.000000,0.000000,0.000000,0.000000,0.000000,0.000000;
#CREDIT:;
#NOTES:
0000
0000
0000
0000
,
0000
0000
0000
0000
,
0000
0000
0000
0000
,
0000
0000
0000
0000
,
0000
0000
0000
0000
,
0000
0000
0000
0000
,
0000
0000
0000
0000
,
1000
0100
0010
0001
1000
0010
0100
0001
,
1000
0001
1000
0001
1000
0001
1000
0001
1000
0001
1000
0001
1000
0001
1000
0001
,
1000
0100
0010
0001
0001
0100
0100
0010
,
0010
1000
1000
0001
0001
0000
0001
0000
,
1000
1000
0010
0010
0100
0100
0001
0010
,
0100
1000
1000
0001
0001
1000
1001
0000
,
2002
3003
2002
3003
0220
0330
0220
0330
,
2002
0000
3003
0000
1000
0100
1000
0100
1000
0000
0100
0000
0100
0010
0100
0010
,
0100
0000
0010
0000
0010
0001
0010
0001
0010
0000
0001
0000
0001
0100
0001
0100
,
0001
0000
0100
0000
0100
0010
0100
0010
0100
0000
0010
0000
0010
1000
0010
1000
,
0010
0000
1000
0000
1000
0100
0010
0001
1000
0000
0001
0000
2002
0000
3003
0000
,
1000
0010
1000
0010
1000
0000
0010
0000
0010
0100
0010
0100
0010
0000
0100
0000
,
0100
0001
0100
0001
0100
0000
0001
0000
0001
0010
0001
0010
0001
0000
0010
0000
,
0010
0100
0010
0100
0010
0000
0100
0000
0100
1000
0100
1000
0100
0000
1000
0000
,
1000
1000
0000
0001
0001
0000
1000
0001
,
1001
0000
0000
0000
1000
0100
1000
0000
0100
0000
0010
0000
0001
0010
0001
0000
,
0010
0000
0100
0000
1000
0010
1000
0000
0010
0000
0100
0000
0001
0100
0001
0000
,
0100
0000
0010
0000
1000
0100
1000
0000
0010
0000
0100
0000
0001
0010
0001
0000
,
0100
0000
0010
0000
1000
0010
1000
0000
0100
0000
0010
0000
0002
0000
0003
0000
,
1000
0100
1000
0100
0010
0001
0010
0001
,
1000
0010
1000
0010
0100
0001
0100
0001
,
1000
0001
1000
0001
1000
0000
0001
1000
0001
1000
0001
0000
1000
0001
1000
0001
,
1000
0000
0100
0000
0010
0000
0001
0000
1000
0100
0010
0001
1000
0100
0010
0001
,
2000
0000
0000
3100
,
0010
0000
0001
0000
0100
0000
0010
0000
1000
0000
0001
0000
1000
0001
1000
0001
,
1000
0000
0010
0100
0000
0001
0010
0100
,
1000
0100
0010
0001
,
2000
0000
0000
3000
,
0001
0000
0000
0000
1000
0100
0010
0001
,
1000
0100
1000
0000
0001
0000
1000
0000
0001
0010
0001
0000
1000
0000
0001
0000
,
1000
0001
0000
1000
0001
0000
1000
0001
0000
1000
0001
0000
2000
0000
3000
0000
,
1000
0100
1000
0000
0100
1000
0100
0000
1000
0010
1000
0000
0010
1000
0010
0000
,
0100
0010
0100
0000
0010
0100
0010
0000
0100
0001
0100
0000
0001
0100
0001
0000
,
0010
0001
0010
0000
0001
0010
0001
0000
0010
0100
0010
0000
0100
0010
0100
0000
,
1000
0100
1000
0000
0100
1000
0100
0000
1000
0001
1000
0000
0001
1000
0001
0000
,
1000
0010
1000
0000
0010
1000
0010
0000
0100
0010
0100
0000
0010
0100
0010
0000
,
0100
0001
0100
0000
0001
0100
0001
0000
0010
0001
0010
0000
0001
0010
0001
0000
,
0010
0100
0010
0000
0100
0010
0100
0000
1000
0100
1000
0000
0100
1000
0100
0000
,
1000
0001
1000
0000
0001
1000
0001
0000
1000
0001
1000
0000
0001
1000
0001
0000
,
1000
0000
1000
1000
0000
0000
0000
0000
,
0100
0000
0100
0100
0000
0000
0000
0000
,
0010
0000
0010
0010
0000
0000
0000
0000
,
0001
0000
0001
0001
0000
0000
0000
0000
,
1000
0000
0100
0000
,
0010
0000
0001
0000
,
1000
0001
1000
0001
,
1001
0000
0000
0000
,
1000
0000
0000
0100
0000
0000
0010
0000
,
0000
0000
0001
0000
0000
0000
0000
0000
1000
0100
0010
0001
1000
0000
0000
0000
,
0001
0000
0000
0010
0000
0000
0100
0000
,
0000
0000
1000
0000
0000
0000
0000
0000
0001
0010
0100
1000
0001
0000
0000
0000
,
1000
0000
0000
0010
0000
0000
0100
0000
,
0000
0000
0001
0000
0000
0000
0000
0000
1000
0010
0100
0001
1000
0000
0000
0000
,
0001
0000
0000
0100
0000
0000
0010
0000
,
1000
1000
0001
0001
,
1000
0100
1000
0100
1000
0100
1000
0100
,
1000
0010
1000
0010
1000
0010
1000
0000
,
0001
0010
0001
0010
0001
0010
0001
0010
,
0001
0100
0001
0100
0001
0100
0001
0000
,
1000
0001
1000
0001
1000
0001
1000
0001
,
0100
0010
0100
0010
0100
0010
0100
0000
,
0001
1000
0001
1000
0001
1000
0001
1000
,
0100
0000
0000
0000
,
0100
0200
0000
0000
0000
0000
0300
0000
,
1000
0100
0010
0001
,
0100
0200
0000
0000
0000
0000
0300
0000
,
1000
0100
0010
0001
1000
0100
0010
0001
,
0100
0200
0000
0000
0000
0000
0300
0000
,
1000
0100
1000
0100
0010
0001
0010
0001
1000
0010
1000
0010
0100
0001
0100
0001
,
1000
0100
2000
0000
3000
0000
0001
0100
0002
0000
0003
0000
1000
0010
2000
0000
,
3000
0000
0001
0010
0002
0000
0003
0000
1000
0000
0001
0000
1000
0000
0000
0000
,
1000
0100
1000
0100
1000
0100
1000
0100
0010
0001
0010
0001
0010
0001
0010
0001
,
1000
0010
1000
0010
1000
0010
1000
0010
0100
0001
0100
0001
0100
0001
0100
0001
,
1000
0100
0010
0001
1000
0000
1000
0010
0100
0001
1000
0000
0001
0010
0100
1000
,
0001
0000
0001
0100
0010
1000
0001
0000
1000
0001
1000
0001
2000
0000
3000
0000
,
0001
0010
0001
0010
0001
0010
0001
0010
0100
1000
0100
1000
0100
1000
0100
1000
,
0001
0100
0001
0100
0001
0100
0001
0100
0010
1000
0010
1000
0010
1000
0010
1000
,
0001
0001
0010
0010
0100
0100
1000
1000
,
0002
0000
0023
0230
0000
2300
3200
0320
,
0031
0100
0001
0100
0001
0100
0001
0100
0010
1000
0010
1000
0010
1000
0010
1000
,
0001
0010
0001
0010
0001
0010
0001
0010
0100
1000
0100
1000
0100
1000
0100
1000
,
0001
0100
0010
1000
0001
0000
0001
0010
0100
1000
0001
0000
1000
0010
0100
0001
,
1000
0000
1000
0100
0010
0001
1000
0000
0001
1000
0001
1000
0002
0000
0003
0000
,
1000
0010
1000
0010
1000
0010
1000
0010
0100
0001
0100
0001
0100
0001
0100
0001
,
1000
0100
1000
0100
1000
0100
1000
0100
0010
0001
0010
0001
0010
0001
0010
0001
,
1000
1000
0010
0010
0100
0100
0001
0001
,
0200
0000
0320
2030
0000
3020
0230
0302
,
0000
0000
0000
0000
,
0000
0000
0000
0000
,
0003
0000
0000
0000
;

//---------------dance-single - ----------------
#NOTEDATA:;
#CHARTNAME:;
#STEPSTYPE:dance-single;
#DESCRIPTION:;
#CHARTSTYLE:;
#DIFFICULTY:Hard;
#METER:15;
#RADARVALUES:1.241563,1.319890,0.000000,0.524956,1.791517,1043.000000,1043.000000,0.000000,63.000000,0.000000,0.000000,0.000000,0.000000,0.000000,1.241563,1.319890,0.000000,0.524956,1.791517,1043.000000,1043.000000,0.000000,63.000000,0.000000,0.000000,0.000000,0.000000,0.000000;
#CREDIT:;
#NOTES:
0000
0000
0000
0000
,
0000
0000
0000
0000
,
0000
0000
0000
0000
,
0000
0000
0000
0000
,
0000
0000
0000
0000
,
0000
0000
0000
0000
,
0000
0000
0000
0000
,
1000
0001
1000
0001
1000
0001
1000
0001
1000
0001
1000
0001
1000
0001
1000
0001
,
1000
0001
1000
0001
1000
0001
1000
0001
1000
0001
1000
0001
1000
0001
1000
0001
,
1000
0000
0100
0010
0001
0000
0100
0000
0010
0000
0010
0000
1000
0000
1000
0000
,
0100
0000
0100
0000
0010
0000
0010
0000
0001
0000
0000
0000
0001
0000
0010
0100
,
1000
0000
0100
0000
0010
0000
0010
0000
0001
0000
0001
0000
0100
0000
0100
0010
,
1000
1000
0001
0001
0001
0000
1000
0000
,
1000
0100
0010
0001
,
1000
0000
0000
0000
1000
0100
1000
0100
1000
0100
1000
0100
0010
0001
0010
0001
,
0010
0001
0010
0001
1000
0010
1000
0010
1000
0010
1000
0010
0100
0001
0100
0001
,
0100
0000
0100
0000
1000
0100
0010
0001
1000
0010
1000
0010
1000
0010
1000
0010
,
0100
0001
0100
0001
0100
0001
0100
0001
1000
0100
1000
0100
2000
0000
3000
0000
,
0001
0010
0001
0010
0001
0010
0001
0010
0100
1000
0100
1000
0100
1000
0100
1000
,
0001
0100
0001
0100
0001
0100
0001
0100
0010
1000
0010
1000
0010
1000
0010
1000
,
0001
0000
1000
0100
0000
0100
0000
0010
,
0001
1000
0001
0000
0000
0000
1000
0001
1000
0000
0000
0000
0001
1000
0001
0000
,
1000
0000
1000
0000
0001
0010
0001
0010
0001
0100
0001
0100
0010
0100
0010
0100
,
0010
1000
0010
1000
0100
1000
0100
1000
0100
0010
0100
0010
0001
0010
0001
0010
,
0001
1000
0001
1000
0001
0010
0001
0010
0100
1000
0100
1000
0001
0100
0001
0100
,
0010
1000
0010
1000
0001
1000
0001
1000
0010
0100
0010
0100
0002
0000
0003
0000
,
1000
0100
1000
0100
1000
0010
1000
0010
0100
0010
0100
0010
0100
0001
0100
0001
,
0010
0001
0010
0001
0010
0100
0010
0100
1000
0100
1000
0100
1000
0001
1000
0001
,
1000
0000
0000
0000
0000
0000
0001
1000
0001
0000
1000
0000
1000
0001
1000
0001
,
1000
0100
0010
0000
0001
0010
0000
0100
1000
0010
0100
0000
0001
0000
1000
0000
,
0002
0000
0000
0000
0003
0000
2000
3000
,
2000
0000
3200
0000
0320
0000
0032
0000
2003
3200
2300
3200
0320
0032
0023
0032
,
2003
0000
0000
0000
3200
0000
0320
0000
0000
0000
0032
0000
2003
0000
0000
3002
,
2003
0000
3200
0000
0320
0032
2003
3020
,
2030
0000
3000
0000
,
1000
0100
0010
0001
1000
0010
0100
0001
,
1000
0100
1000
0100
0010
0001
0010
0001
1000
0010
1000
0010
0100
0001
0100
0001
,
1000
0001
1000
0001
0100
0010
0100
0010
1000
0100
0010
0001
2000
0000
3000
0000
,
0001
0100
0001
0100
0010
0100
0010
0100
0010
1000
0010
1000
0100
1000
0100
1000
,
0100
0010
0100
0010
0001
0010
0001
0010
0001
1000
0001
1000
0010
0100
0010
0100
,
0001
0010
0100
1000
0001
0010
0100
1000
0001
0100
0010
1000
0001
0100
0010
1000
,
0001
1000
0001
1000
0010
0100
0010
0100
0001
1000
0001
1000
0100
0010
0100
0010
,
0001
0010
0001
0010
0001
0100
0001
0100
0010
0100
0010
0100
0010
1000
0010
1000
,
0100
1000
0100
1000
0100
0010
0100
0010
0001
0010
0001
0010
0001
1000
0001
1000
,
0001
0100
0010
1000
0001
0100
0010
1000
0001
0010
0100
1000
0001
0010
0100
1000
,
0001
1000
0001
1000
0001
1000
0001
1000
0001
1000
0001
1000
0001
1000
0001
1000
,
0001
0000
0000
0000
0001
0000
0001
0000
0000
0000
0001
1000
0001
0000
0000
0000
,
1000
0000
0000
0000
1000
0000
1000
0000
0000
0000
1000
0100
1000
0000
0000
0000
,
0100
0000
0000
0000
0100
0000
0100
0000
0000
0000
0100
0010
0100
0000
0000
0000
,
0010
0000
0000
0000
0010
0000
0010
0000
0000
0000
0010
1000
0010
0000
0000
0000
,
1000
0100
1000
0100
1000
0100
1000
0100
0010
0001
0010
0001
0010
0001
0010
0001
,
1000
0010
1000
0010
1000
0010
1000
0010
0100
0001
0100
0001
0100
0001
0100
0001
,
1000
0100
1000
0100
0010
0001
0010
0001
1000
0010
1000
0010
0100
0001
0100
0001
,
1000
0000
1000
0000
0001
0001
0001
0000
,
1000
0100
2000
0000
3000
0000
0001
0100
0002
0000
0003
0000
1000
0010
2000
0000
,
3000
0000
0001
0010
0002
0000
0003
0000
1000
0100
0010
0001
2000
0000
3000
0000
,
0001
0010
0002
0000
0003
0000
1000
0010
2000
0000
3000
0000
0001
0010
0002
0000
,
0003
0000
1000
0010
2000
0000
3000
0000
0001
0010
0100
1000
0002
0000
0003
0000
,
1000
0100
0020
0000
0030
0000
0001
0010
0200
0000
0300
0000
1000
0010
0200
0000
,
0300
0000
0001
0100
0020
0000
0030
0000
1000
0100
0010
0001
1000
0001
1000
0001
,
1000
0001
2000
0000
3000
0000
0001
1000
0002
0000
0003
0000
1000
0001
2000
0000
,
3001
0000
0001
0000
1000
0001
1000
0000
,
1000
0100
0010
0001
0010
0000
0001
0000
0010
0000
0010
0000
0100
0000
0100
0000
,
1000
0000
1000
0000
0001
0000
0001
0000
1000
0100
0010
0001
1000
0000
0000
0000
,
1000
0010
0100
0001
0010
0000
0001
0000
0100
0000
0100
0000
0010
0000
0010
0000
,
1000
0000
1000
0000
0001
0000
0001
0000
1000
0010
0100
0001
1000
0000
0000
0000
,
1000
0100
0010
0000
0001
0000
0010
0001
0100
0000
0010
0000
1000
0010
0100
0000
,
0001
0000
0010
0100
1000
0000
0000
0000
1000
0001
1000
0001
1000
0001
1000
0000
,
1000
1000
0100
0100
0010
0010
0001
0001
,
1000
0000
0000
0001
0001
0000
0000
0000
,
2000
3100
2000
3100
1000
0100
1000
0100
1000
0100
1000
0100
1000
0100
1000
0100
,
0010
0001
0010
0001
0010
0001
0010
0001
0010
0001
0010
0001
0010
0001
0010
0001
,
2000
3010
2000
3010
1000
0010
1000
0010
1000
0010
1000
0010
1000
0010
1000
0010
,
0100
0001
0100
0001
0100
0001
0100
0001
0100
0001
0100
0001
0100
0001
0100
0001
,
1000
0100
1000
0100
0010
0001
0010
0001
1000
0010
1000
0010
0100
0001
0100
0001
,
1000
0001
1000
0001
0100
0010
0100
0010
1000
0001
1000
0001
0010
0100
0010
0100
,
1000
0100
0010
0000
0001
0000
0001
0100
0010
0000
1000
0000
1000
0010
0100
0000
,
0001
0000
0001
0010
0100
0000
1000
0000
1000
0100
0010
0001
1000
0000
0001
0000
,
1000
0100
1000
0100
1000
0100
1000
0100
0010
0001
0010
0001
0010
0001
0010
0001
,
1000
0010
1000
0010
1000
0010
1000
0010
0100
0001
0100
0001
0100
0001
0100
0001
,
1000
0100
0010
0001
1000
0100
1000
0001
0010
0100
1000
0001
0010
0001
1000
0010
,
0100
0001
1000
0010
1000
0001
0100
0010
1000
0001
0100
0001
1000
0100
0010
0001
,
1000
0001
1000
0001
1000
0001
1000
0001
0100
0010
0100
0010
0100
0010
0100
0010
,
1000
0001
1000
0001
1000
0001
1000
0001
0010
0100
0010
0100
0010
0100
0010
0100
,
1000
0100
1000
0100
0010
0001
0010
0001
1000
0010
1000
0010
0100
0001
0100
0001
,
2000
0000
3200
0320
0000
0032
0023
0230
,
1300
0010
1000
0010
1000
0010
1000
0010
0100
0001
0100
0001
0100
0001
0100
0001
,
1000
0100
1000
0100
1000
0100
1000
0100
0010
0001
0010
0001
0010
0001
0010
0001
,
1000
0010
0100
0001
1000
0010
1000
0001
0100
0010
1000
0001
0100
0001
1000
0100
,
0010
0001
1000
0100
1000
0001
0010
0100
1000
0001
0010
0001
1000
0010
0100
0001
,
1000
0001
1000
0001
1000
0001
1000
0001
0010
0100
0010
0100
0010
0100
0010
0100
,
1000
0001
1000
0001
1000
0001
1000
0001
0100
0010
0100
0010
0100
0010
0100
0010
,
1000
0010
1000
0010
0100
0001
0100
0001
1000
0100
1000
0100
0010
0001
0010
0001
,
2000
0000
3020
0230
0000
0302
0203
0320
,
0000
0000
0000
0000
,
0000
0000
0000
0000
,
0030
0000
0000
0000
;

//---------------dance-single - ----------------
#NOTEDATA:;
#CHARTNAME:;
#STEPSTYPE:dance-single;
#DESCRIPTION:;
#CHARTSTYLE:;
#DIFFICULTY:Challenge;
#METER:16;
#RADARVALUES:1.286798,1.519873,0.674944,0.516624,1.641530,1081.000000,1000.000000,81.000000,62.000000,0.000000,0.000000,0.000000,0.000000,0.000000,1.286798,1.519873,0.674944,0.516624,1.641530,1081.000000,1000.000000,81.000000,62.000000,0.000000,0.000000,0.000000,0.000000,0.000000;
#CREDIT:;
#NOTES:
// measure 0
0000
0000
0000
0000
,  // measure 1
0000
0000
0000
0000
,  // measure 2
0000
0000
0000
0000
,  // measure 3
0000
0000
0000
0000
,  // measure 4
0000
0000
0000
0000
,  // measure 5
1000
0100
0010
0001
1000
0100
0010
0001
,  // measure 6
1000
0010
0100
0001
1000
0010
0100
0001
,  // measure 7
1000
0100
1000
0100
0010
0001
0010
0001
1000
0010
1000
0010
0100
0001
0100
0001
,  // measure 8
0010
0001
0010
0001
1000
0100
1000
0100
1000
0010
1000
0010
0100
0001
0100
0001
,  // measure 9
1001
0000
1000
0010
0100
0000
0110
0000
0100
0000
0100
0000
0101
0000
0001
0000
,  // measure 10
0001
1001
1001
0001
1001
0000
1001
0000
,  // measure 11
0010
0010
0010
0110
0100
0100
0110
0010
,  // measure 12
0010
1010
1001
0001
1001
0000
1001
0000
,  // measure 13
2200
3300
0022
0033
2020
3030
0202
0303
,  // measure 14
2002
0000
3003
0000
1001
0000
1000
0100
0010
0001
0100
0010
1000
0001
1000
0010
,  // measure 15
0100
0001
0010
0100
1000
0001
1000
0100
0010
0001
0100
0010
0100
0001
0010
0100
,  // measure 16
1100
0000
0000
0000
0000
0000
1001
0000
0000
0001
0000
0000
1000
0000
0001
0000
1000
0000
0001
0000
0000
1000
0000
0000
0001
0000
0000
0010
0000
0000
0001
0000
0000
0010
0000
0000
0100
0000
0000
1000
0000
0000
0100
0000
0000
1000
0000
0000
,  // measure 17
0001
0100
0001
0100
0010
1000
0010
1000
0001
0010
0100
1000
1001
0000
0000
0000
,  // measure 18
1000
0010
0100
0001
0010
0100
0010
0001
0100
0010
1000
0100
0010
0100
1000
0100
,  // measure 19
0010
0001
0100
0010
0100
0001
0010
0100
1000
0010
0100
0010
1000
0100
0010
0001
,  // measure 20
1001
0000
1100
0110
0000
0011
0000
1001
,  // measure 21
1000
1000
0000
0001
0001
0000
1000
0001
,  // measure 22
1001
0000
1001
0000
1000
0100
0010
0001
0100
0010
0100
0001
0100
0010
1000
0100
,  // measure 23
0010
0100
1000
0010
0100
0001
0010
0100
0010
0001
0010
0100
1000
0010
0100
0010
,  // measure 24
1000
0100
1000
0001
0100
0001
1000
0100
0010
0001
1000
0010
1000
0001
0010
0001
,  // measure 25
1000
0100
0010
0001
1000
0010
0100
0001
1000
0100
0010
0001
2002
0000
3003
0000
,  // measure 26
0001
0010
0100
1000
0010
0100
0010
1000
0010
0100
0001
0010
0100
0010
0001
0100
,  // measure 27
0010
1000
0100
0010
0100
1000
0100
0010
0001
0100
0010
0100
0001
0010
0100
1000
,  // measure 28
0001
0000
0000
0000
0000
0000
1000
0100
1001
0000
0110
0000
1000
0100
0010
0001
,  // measure 29
1000
0100
1000
0000
1000
0010
0000
0010
0001
0010
0001
0000
0010
0100
1000
0000
,  // measure 30
2002
3003
0000
0000
0220
0330
2000
3002
,  // measure 31
2003
0000
3200
0000
0320
0000
0032
0000
2003
0000
3002
0003
0001
1000
0001
1000
,  // measure 32
0002
0000
0000
0000
0000
0000
0023
0000
0000
0230
0000
0000
0000
0000
0000
2300
0000
0000
3002
0000
0000
1003
0001
1000
,  // measure 33
0002
0000
0000
0000
0000
0000
0000
0000
0000
0000
0000
0000
0023
0000
0000
0000
0000
0000
0000
0000
0000
0000
0000
0000
0031
0000
0000
0100
0000
0000
0010
0000
0000
1000
0000
0000
0100
0000
0000
1000
0000
0000
0010
0000
0100
0000
0001
0000
,  // measure 34
0010
0100
1001
1000
0100
0000
0011
1100
,  // measure 35
0001
0000
0001
0000
0010
0000
0001
0000
1000
0100
0010
0001
1000
0010
0100
0001
,  // measure 36
1000
0100
1000
0100
1000
0100
1000
0100
0010
0001
0010
0001
0010
0001
0010
0001
,  // measure 37
1000
0001
1000
0001
1000
0000
0001
0010
0100
1000
0100
0010
0002
0000
0000
0000
,  // measure 38
1003
0100
1000
0001
0010
0100
1000
0001
0100
0001
1000
0100
0010
0001
1000
0010
,  // measure 39
1000
0001
0100
0010
1000
0001
0010
0001
1000
0010
0100
0001
1000
0100
0010
0001
,  // measure 40
1000
0100
1000
0100
0010
0001
0010
0001
1000
0010
1000
0010
0100
0001
0100
0001
,  // measure 41
1000
0100
0010
0100
1000
0010
0100
0010
1000
0100
0010
0001
1000
0010
0100
0001
,  // measure 42
0001
0010
0001
1000
0100
0010
0001
1000
0010
1000
0001
0010
0100
1000
0001
0100
,  // measure 43
0001
1000
0010
0100
0001
1000
0100
1000
0001
0100
0010
1000
0001
1000
0001
1000
,  // measure 44
0001
0010
0001
0010
0100
1000
0100
1000
0001
0100
0001
0100
0010
1000
0010
1000
,  // measure 45
0001
0010
0100
0010
0001
0100
0010
0100
0001
0010
0100
1000
0001
0100
0010
1000
,  // measure 46
1001
0000
0000
0000
0110
0000
0011
0000
0000
0000
0000
0000
1000
0100
0010
0001
,  // measure 47
1001
0000
0000
0000
0110
0000
0101
0000
0000
0000
0000
0000
1000
0010
0100
0001
,  // measure 48
1001
0000
0000
0000
0110
0000
0011
0000
0000
0000
0001
0000
1000
0100
0010
0001
,  // measure 49
1001
0000
0000
0000
0110
0000
0101
0000
1000
0010
0100
0001
2002
0000
3003
0000
,  // measure 50
1001
1000
1001
0001
,  // measure 51
1001
0010
1001
0100
,  // measure 52
1001
1100
0011
0110
,  // measure 53
1001
0000
0110
0000
1001
0110
1001
0000
,  // measure 54
1000
0100
0010
0000
0000
0000
0001
0010
0100
0000
0000
0000
1000
0001
1000
0001
,  // measure 55
1000
0000
1000
0010
0100
0000
0000
0000
1000
0100
0010
0001
2000
0000
3000
0000
,  // measure 56
1000
0010
0100
0000
0000
0000
0001
0100
0010
0000
0001
0000
1000
0001
1000
0000
,  // measure 57
0000
0000
0000
0000
0000
0000
0010
0000
0000
0100
0000
0000
0010
0000
0000
0000
0000
0000
0000
0000
0000
0000
0000
0000
1000
0000
0000
0010
0000
0000
0100
0000
0000
0001
0000
0000
1000
0000
0001
0000
1000
0000
0001
0000
0000
0000
0000
0000
,  // measure 58
1000
0100
1001
0000
0000
0000
0001
0000
0011
0000
0000
0000
1000
0000
1010
0000
,  // measure 59
0000
0000
0000
0000
0001
0000
0000
0000
0101
0000
0000
0000
0000
0000
0000
0000
1000
0000
0000
0000
0001
0000
0000
0000
1000
0001
1000
0001
1000
0000
0000
0000
,  // measure 60
1000
0100
0010
0000
0000
0000
0100
0010
0001
0000
0000
0000
0001
1000
0001
0000
,  // measure 61
1001
0000
1001
0000
1001
0110
1001
0000
,  // measure 62
1000
0100
0010
0001
1000
0000
0001
0000
0010
0000
0010
0000
0100
0000
0100
0000
,  // measure 63
1100
1000
0010
0010
0100
0001
1001
0000
,  // measure 64
1000
0010
0100
0000
0001
0000
0010
0000
0010
0000
0100
0000
0100
0000
1000
0100
,  // measure 65
1000
0010
0010
0100
0100
0001
1001
0000
,  // measure 66
1000
0100
2000
0000
3000
0000
0001
0010
0002
0000
0003
0000
1000
0010
2000
0000
,  // measure 67
3000
0000
0000
0000
0000
0000
0001
0000
0000
0100
0000
0000
0002
0000
0000
0000
0000
0000
0003
0000
0000
0000
0000
0000
1000
0000
0000
0100
0000
0000
0010
0000
0000
0001
0000
0000
1000
0000
0001
0000
1000
0000
0001
0000
1000
0000
0001
0000
,  // measure 68
1000
1000
0001
0001
0100
0100
0010
0010
,  // measure 69
2002
0000
0000
0000
0000
0000
0000
3003
,  // measure 70
0110
0220
0000
0000
0000
0000
0000
0000
,  // measure 71
0000
0000
0000
0330
,  // measure 72
2000
3200
0310
0001
1000
0100
0010
0001
,  // measure 73
1000
0010
0100
0001
1000
0010
0100
0001
,  // measure 74
1000
0100
1000
0100
0010
0001
0010
0001
1000
0010
1000
0010
0100
0001
0100
0001
,  // measure 75
1000
0001
1000
0001
0100
0010
0100
0010
1000
0001
1000
0001
0010
0100
0010
0100
,  // measure 76
1000
0100
0020
0000
0030
0000
0001
0010
0200
0000
0300
0000
1000
0010
0200
0000
,  // measure 77
0300
0000
0001
0100
0020
0000
0030
0000
1000
0000
0001
0000
1001
0000
0000
0000
,  // measure 78
1000
0100
1000
0000
0001
0000
0010
0000
0100
0000
1000
0000
0001
0000
0100
0000
0001
0000
1000
0000
0100
0000
0010
0000
0001
0000
1000
0000
0001
0000
1000
0000
,  // measure 79
0001
0010
0001
0000
1000
0000
0010
0000
0100
0000
0001
0000
1000
0000
0010
0000
1000
0000
0001
0000
0100
0000
0010
0000
1000
0000
0100
0000
0010
0000
0001
0000
,  // measure 80
1000
0000
0100
0000
0010
0000
0001
0000
0000
1000
0000
0000
0001
0000
0000
1000
0000
0000
0001
0000
0100
0000
0010
0000
1000
0000
0000
0001
0000
0000
1000
0000
0000
0001
0000
0000
1000
0000
0100
0000
0010
0000
0001
0000
0100
0000
0010
0000
,  // measure 81
1000
0010
0100
0010
1000
0100
0010
0100
1000
0100
0010
0001
1000
0010
0100
0001
,  // measure 82
1000
0010
1000
0000
0001
0000
0100
0000
0010
0000
1000
0000
0001
0000
0010
0000
0001
0000
1000
0000
0010
0000
0100
0000
0001
0000
0010
0000
0100
0000
0010
0000
,  // measure 83
0001
0100
0001
0000
1000
0000
0100
0000
0010
0000
0001
0000
1000
0000
0100
0000
1000
0000
0001
0000
0010
0000
0100
0000
1000
0000
0010
0000
0100
0000
0010
0000
,  // measure 84
1000
0100
1000
0100
0010
0001
0010
0001
1000
0010
1000
0010
0100
0001
0100
0001
,  // measure 85
2002
3003
2000
3200
0000
0320
0032
1003
,  // measure 86
0001
0100
0001
0000
1000
0000
0100
0000
0010
0000
0001
0000
1000
0000
0100
0000
1000
0000
0001
0000
0010
0000
0100
0000
1000
0000
0010
0000
0100
0000
0010
0000
,  // measure 87
1000
0010
1000
0000
0001
0000
0100
0000
0010
0000
1000
0000
0001
0000
0010
0000
0001
0000
1000
0000
0010
0000
0100
0000
0001
0000
0010
0000
0100
0000
0010
0000
,  // measure 88
0001
0000
0100
0000
0010
0000
1000
0000
0000
0001
0000
0000
1000
0000
0000
0001
0000
0000
1000
0000
0100
0000
0010
0000
0001
0000
0000
1000
0000
0000
0001
0000
0000
1000
0000
0000
0001
0000
0100
0000
0010
0000
1000
0000
0100
0000
0010
0000
,  // measure 89
0001
0010
0100
0010
0001
0100
0010
0100
0001
0100
0010
1000
0001
0010
0100
1000
,  // measure 90
0001
0010
0001
0000
1000
0000
0010
0000
0100
0000
0001
0000
1000
0000
0010
0000
1000
0000
0001
0000
0100
0000
0010
0000
1000
0000
0100
0000
0010
0000
0100
0000
,  // measure 91
1000
0100
1000
0000
0001
0000
0010
0000
0100
0000
1000
0000
0001
0000
0100
0000
0001
0000
1000
0000
0100
0000
0010
0000
0001
0000
0100
0000
0010
0000
0100
0000
,  // measure 92
0001
0010
0001
0010
0100
1000
0100
1000
0001
0100
0001
0100
0010
1000
0010
1000
,  // measure 93
2002
3003
0020
0230
0000
2300
3200
0320
,  // measure 94
0000
0000
0000
0000
,  // measure 95
0000
0000
0000
0000
,  // measure 96
0030
0000
0000
0000
;
