#TITLE:Crop Cord;
#SUBTITLE:;
#ARTIST:Raxxo;
#TITLETRANSLIT:;
#SUBTITLETRANSLIT:;
#ARTISTTRANSLIT:;
#GENRE:;
#CREDIT:;
#MUSIC:Crop Cord.ogg;
#BANNER:Crop Cord-bn.png;
#BACKGROUND:Crop Cord-bg.png;
#CDTITLE:;
#SAMPLESTART:0.086;
#SAMPLELENGTH:4.571;
#SELECTABLE:YES;
#OFFSET:-0.086;
#BPMS:0.000=105.000;
#STOPS:;
#BGCHANGES:;
#FGCHANGES:;

//--------------- dance-single - ----------------
#NOTES:
     dance-single:
     :
     Beginner:
     1:
     0,0,0,0,0:
1000
0000
0001
0000
,
1000
0000
0001
0000
,
1000
0000
0001
0000
,
1000
0000
0001
0000
,
1000
0000
0001
0000
,
1000
0000
0001
0000
,
1000
0000
0001
0000
,
1000
0000
0001
0000
,
1000
0000
0001
0000
,
1000
0000
0001
0000
,
1000
0000
0001
0000
,
1000
0000
0001
0000
,
1000
0000
0001
0000
,
1000
0000
0001
0000
,
1000
0000
0001
0000
,
1000
0000
0001
0000
,
1000
0000
0001
0000
,
1000
0000
0001
0000
,
1000
0000
0001
0000
,
1000
0000
0001
0000
,
1000
0000
0001
0000
,
1000
0000
0001
0000
,
1000
0000
0001
0000
,
1000
0000
0001
0000
,
1000
0000
0001
0000
,
1000
0000
0001
0000
,
1000
0000
0001
0000
,
1000
0000
0001
0000
,
1000
0000
0001
0000
,
1000
0000
0001
0000
;

//--------------- dance-single - ----------------
#NOTES:
     dance-single:
     :
     Easy:
     2:
     0,0,0,0,0:
1000
0001
1000
0001
,
1000
0001
1000
0001
,
1000
0001
1000
0001
,
1000
0001
1000
0001
,
1000
0001
1000
0001
,
1000
0001
1000
0001
,
1000
0001
1000
0001
,
1000
0001
1000
0001
,
1000
0001
1000
0001
,
1000
0001
1000
0001
,
1000
0001
1000
0001
,
1000
0001
1000
0001
,
1000
0001
1000
0001
,
1000
0001
1000
0001
,
1000
0001
1000
0001
,
1000
0001
1000
0001
,
1000
0001
1000
0001
,
1000
0001
1000
0001
,
1000
0001
1000
0001
,
1000
0001
1000
0001
,
1000
0001
1000
0001
,
1000
0001
1000
0001
,
1000
0001
1000
0001
,
1000
0001
1000
0001
,
1000
0001
1000
0001
,
1000
0001
1000
0001
,
1000
0001
1000
0001
,
1000
0001
1000
0001
,
1000
0001
1000
0001
,
1000
0001
1000
0000
;

//--------------- dance-single - ----------------
#NOTES:
     dance-single:
     :
     Medium:
     4:
     0,0,0,0,0:
1000
0001
1000
0000
0001
1000
0001
0000
,
1000
0001
1000
0000
0001
1000
0001
0000
,
1000
0001
1000
0000
0001
1000
0001
0000
,
1000
0001
1000
0000
0001
1000
0001
0000
,
1000
0001
1000
0000
0001
1000
0001
0000
,
1000
0001
1000
0000
0001
1000
0001
0000
,
1000
0001
1000
0000
0001
1000
0001
0000
,
1000
0001
1000
0000
0001
1000
0001
0000
,
1000
0001
1000
0000
0001
1000
0001
0000
,
1000
0001
1000
0000
0001
1000
0001
0000
,
1000
0001
1000
0000
0001
1000
0001
0000
,
1000
0001
1000
0000
0001
1000
0001
0000
,
1000
0001
1000
0000
0001
1000
0001
0000
,
1000
0001
1000
0000
0001
1000
0001
0000
,
1000
0001
1000
0000
0001
1000
0001
0000
,
1000
0001
1000
0000
0001
1000
0001
0000
,
1000
0001
1000
0000
0001
1000
0001
0000
,
1000
0001
1000
0000
0001
1000
0001
0000
,
1000
0001
1000
0000
0001
1000
0001
0000
,
1000
0001
1000
0000
0001
1000
0001
0000
,
1000
0001
1000
0000
0001
1000
0001
0000
,
1000
0001
1000
0000
0001
1000
0001
0000
,
1000
0001
1000
0000
0001
1000
0001
0000
,
1000
0001
1000
0000
0001
1000
0001
0000
,
1000
0001
1000
0000
0001
1000
0001
0000
,
1000
0001
1000
0000
0001
1000
0001
0000
,
1000
0001
1000
0000
0001
1000
0001
0000
,
1000
0001
1000
0000
0001
1000
0001
0000
,
1000
0001
1000
0000
0001
1000
0001
0000
,
1000
0001
1000
0000
0001
0000
0000
0000
;

//--------------- dance-single - ----------------
#NOTES:
     dance-single:
     :
     Hard:
     6:
     0,0,0,0,0:
1000
0001
1000
0001
1000
0001
1000
0001
,
1000
0001
1000
0001
1000
0001
1000
0001
,
1000
0001
1000
0001
1000
0001
1000
0001
,
1000
0001
1000
0001
1000
0001
1000
0001
,
1000
0001
1000
0001
1000
0001
1000
0001
,
1000
0001
1000
0001
1000
0001
1000
0001
,
1000
0001
1000
0001
1000
0001
1000
0001
,
1000
0001
1000
0001
1000
0001
1000
0001
,
1000
0001
1000
0001
1000
0001
1000
0001
,
1000
0001
1000
0001
1000
0001
1000
0001
,
1000
0001
1000
0001
1000
0001
1000
0001
,
1000
0001
1000
0001
1000
0001
1000
0001
,
1000
0001
1000
0001
1000
0001
1000
0001
,
1000
0001
1000
0001
1000
0001
1000
0001
,
1000
0001
1000
0001
1000
0001
1000
0001
,
1000
0001
1000
0001
1000
0001
1000
0001
,
1000
0001
1000
0001
1000
0001
1000
0001
,
1000
0001
1000
0001
1000
0001
1000
0001
,
1000
0001
1000
0001
1000
0001
1000
0001
,
1000
0001
1000
0001
1000
0001
1000
0001
,
1000
0001
1000
0001
1000
0001
1000
0001
,
1000
0001
1000
0001
1000
0001
1000
0001
,
1000
0001
1000
0001
1000
0001
1000
0001
,
1000
0001
1000
0001
1000
0001
1000
0001
,
1000
0001
1000
0001
1000
0001
1000
0001
,
1000
0001
1000
0001
1000
0001
1000
0001
,
1000
0001
1000
0001
1000
0001
1000
0001
,
1000
0001
1000
0001
1000
0001
1000
0001
,
1000
0001
1000
0001
1000
0001
1000
0001
,
1000
0001
1000
0001
1000
0000
0000
0000
;

//--------------- dance-single - ----------------
#NOTES:
     dance-single:
     :
     Challenge:
     8:
     0,0,0,0,0:
1000
0000
0000
0001
0000
1000
0001
0000
1000
0000
0000
0001
0000
0000
0000
0000
0000
1000
0001
0000
1000
0001
0000
1000
,
0001
0000
0000
0000
0000
1000
0001
0000
1000
0000
0000
0001
0000
0000
0000
0000
0000
1000
0001
0000
1000
0001
0000
0000
,
1000
0000
0000
0001
0000
1000
0001
0000
1000
0000
0000
0001
0000
0000
0000
0000
0000
1000
0001
0000
1000
0001
0000
1000
,
0001
0000
0000
0000
0000
1000
0001
0000
1000
0000
0000
0001
0000
0000
0000
0000
0000
1000
0001
0000
1000
0001
0000
0000
,
1000
0000
0000
0001
0000
1000
0001
0000
1000
0000
0000
0001
0000
0000
0000
0000
0000
1000
0001
0000
1000
0001
0000
1000
,
0001
0000
0000
0000
0000
1000
0001
0000
1000
0000
0000
0001
0000
0000
0000
0000
0000
1000
0001
0000
1000
0001
0000
0000
,
1000
0000
0000
0001
0000
1000
0001
0000
1000
0000
0000
0001
0000
0000
0000
0000
0000
1000
0001
0000
1000
0001
0000
1000
,
0001
0000
0000
0000
0000
1000
0001
0000
1000
0000
0000
0001
0000
0000
0000
0000
0000
1000
0001
0000
1000
0001
0000
0000
,
1000
0000
0000
0001
0000
1000
0001
0000
1000
0000
0000
0001
0000
0000
0000
0000
0000
1000
0001
0000
1000
0001
0000
1000
,
0001
0000
0000
0000
0000
1000
0001
0000
1000
0000
0000
0001
0000
0000
0000
0000
0000
1000
0001
0000
1000
0001
0000
0000
,
1000
0000
0000
0001
0000
1000
0001
0000
1000
0000
0000
0001
0000
0000
0000
0000
0000
1000
0001
0000
1000
0001
0000
1000
,
0001
0000
0000
0000
0000
1000
0001
0000
1000
0000
0000
0001
0000
0000
0000
0000
0000
1000
0001
0000
1000
0001
0000
0000
,
1000
0000
0000
0001
0000
1000
0001
0000
1000
0000
0000
0001
0000
0000
0000
0000
0000
1000
0001
0000
1000
0001
0000
1000
,
0001
0000
0000
0000
0000
1000
0001
0000
1000
0000
0000
0001
0000
0000
0000
0000
0000
1000
0001
0000
1000
0001
0000
0000
,
1000
0000
0000
0001
0000
1000
0001
0000
1000
0000
0000
0001
0000
0000
0000
0000
0000
1000
0001
0000
1000
0001
0000
1000
,
0001
0000
0000
0000
0000
1000
0001
0000
1000
0000
0000
0001
0000
0000
0000
0000
0000
1000
0001
0000
1000
0001
0000
0000
,
1000
0000
0000
0001
0000
1000
0001
0000
1000
0000
0000
0001
0000
0000
0000
0000
0000
1000
0001
0000
1000
0001
0000
1000
,
0001
0000
0000
0000
0000
1000
0001
0000
1000
0000
0000
0001
0000
0000
0000
0000
0000
1000
0001
0000
1000
0001
0000
0000
,
1000
0000
0000
0001
0000
1000
0001
0000
1000
0000
0000
0001
0000
0000
0000
0000
0000
1000
0001
0000
1000
0001
0000
1000
,
0001
0000
0000
0000
0000
1000
0001
0000
1000
0000
0000
0001
0000
0000
0000
0000
0000
1000
0001
0000
1000
0001
0000
0000
,
1000
0000
0000
0001
0000
1000
0001
0000
1000
0000
0000
0001
0000
0000
0000
0000
0000
1000
0001
0000
1000
0001
0000
1000
,
0001
0000
0000
0000
0000
1000
0001
0000
1000
0000
0000
0001
0000
0000
0000
0000
0000
1000
0001
0000
1000
0001
0000
0000
,
1000
0000
0000
0001
0000
1000
0001
0000
1000
0000
0000
0001
0000
0000
0000
0000
0000
1000
0001
0000
1000
0001
0000
1000
,
0001
0000
0000
0000
0000
1000
0001
0000
1000
0000
0000
0001
0000
0000
0000
0000
0000
1000
0001
0000
1000
0001
0000
0000
,
1000
0000
0000
0001
0000
1000
0001
0000
1000
0000
0000
0001
0000
0000
0000
0000
0000
1000
0001
0000
1000
0001
0000
1000
,
0001
0000
0000
0000
0000
1000
0001
0000
1000
0000
0000
0001
0000
0000
0000
0000
0000
1000
0001
0000
1000
0001
0000
0000
,
1000
0000
0000
0001
0000
1000
0001
0000
1000
0000
0000
0001
0000
0000
0000
0000
0000
1000
0001
0000
1000
0001
0000
1000
,
0001
0000
0000
0000
0000
1000
0001
0000
1000
0000
0000
0001
0000
0000
0000
0000
0000
1000
0001
0000
1000
0001
0000
0000
,
1000
0000
0000
0001
0000
1000
0001
0000
1000
0000
0000
0001
0000
0000
0000
0000
0000
1000
0001
0000
1000
0001
0000
1000
,
0001
0000
0000
0000
0000
1000
0001
0000
1000
0000
0000
0001
1000
0000
0000
0000
0000
0000
0000
0000
0000
0000
0000
0000
;

//--------------- dance-single - joke ----------------
#NOTES:
     dance-single:
     joke:
     Edit:
     10:
     0,0,0,0,0:
1000
0000
0001
1000
0000
0001
1000
0000
0001
1000
0000
0001
1000
0000
0001
1000
0000
0001
1000
0000
0001
1000
0000
0001
,
1000
0000
0001
1000
0000
0001
1000
0000
0001
1000
0000
0001
1000
0000
0001
1000
0000
0001
1000
0000
0001
1000
0000
0001
,
1000
0000
0001
1000
0000
0001
1000
0000
0001
1000
0000
0001
1000
0000
0001
1000
0000
0001
1000
0000
0001
1000
0000
0001
,
1000
0000
0001
1000
0000
0001
1000
0000
0001
1000
0000
0001
1000
0000
0001
1000
0000
0001
1000
0000
0001
1000
0000
0001
,
1000
0000
0001
1000
0000
0001
1000
0000
0001
1000
0000
0001
1000
0000
0001
1000
0000
0001
1000
0000
0001
1000
0000
0001
,
1000
0000
0001
1000
0000
0001
1000
0000
0001
1000
0000
0001
1000
0000
0001
1000
0000
0001
1000
0000
0001
1000
0000
0001
,
1000
0000
0001
1000
0000
0001
1000
0000
0001
1000
0000
0001
1000
0000
0001
1000
0000
0001
1000
0000
0001
1000
0000
0001
,
1000
0000
0001
1000
0000
0001
1000
0000
0001
1000
0000
0001
1000
0000
0001
1000
0000
0001
1000
0000
0001
1000
0000
0001
,
1000
0000
0001
1000
0000
0001
1000
0000
0001
1000
0000
0001
1000
0000
0001
1000
0000
0001
1000
0000
0001
1000
0000
0001
,
1000
0000
0001
1000
0000
0001
1000
0000
0001
1000
0000
0001
1000
0000
0001
1000
0000
0001
1000
0000
0001
1000
0000
0001
,
1000
0000
0001
1000
0000
0001
1000
0000
0001
1000
0000
0001
1000
0000
0001
1000
0000
0001
1000
0000
0001
1000
0000
0001
,
1000
0000
0001
1000
0000
0001
1000
0000
0001
1000
0000
0001
1000
0000
0001
1000
0000
0001
1000
0000
0001
1000
0000
0001
,
1000
0000
0001
1000
0000
0001
1000
0000
0001
1000
0000
0001
1000
0000
0001
1000
0000
0001
1000
0000
0001
1000
0000
0001
,
1000
0000
0001
1000
0000
0001
1000
0000
0001
1000
0000
0001
1000
0000
0001
1000
0000
0001
1000
0000
0001
1000
0000
0001
,
1000
0000
0001
1000
0000
0001
1000
0000
0001
1000
0000
0001
1000
0000
0001
1000
0000
0001
1000
0000
0001
1000
0000
0001
,
1000
0000
0001
1000
0000
0001
1000
0000
0001
1000
0000
0001
1000
0000
0001
1000
0000
0001
1000
0000
0001
1000
0000
0001
,
1000
0000
0001
1000
0000
0001
1000
0000
0001
1000
0000
0001
1000
0000
0001
1000
0000
0001
1000
0000
0001
1000
0000
0001
,
1000
0000
0001
1000
0000
0001
1000
0000
0001
1000
0000
0001
1000
0000
0001
1000
0000
0001
1000
0000
0001
1000
0000
0001
,
1000
0000
0001
1000
0000
0001
1000
0000
0001
1000
0000
0001
1000
0000
0001
1000
0000
0001
1000
0000
0001
1000
0000
0001
,
1000
0000
0001
1000
0000
0001
1000
0000
0001
1000
0000
0001
1000
0000
0001
1000
0000
0001
1000
0000
0001
1000
0000
0001
,
1000
0000
0001
1000
0000
0001
1000
0000
0001
1000
0000
0001
1000
0000
0001
1000
0000
0001
1000
0000
0001
1000
0000
0001
,
1000
0000
0001
1000
0000
0001
1000
0000
0001
1000
0000
0001
1000
0000
0001
1000
0000
0001
1000
0000
0001
1000
0000
0001
,
1000
0000
0001
1000
0000
0001
1000
0000
0001
1000
0000
0001
1000
0000
0001
1000
0000
0001
1000
0000
0001
1000
0000
0001
,
1000
0000
0001
1000
0000
0001
1000
0000
0001
1000
0000
0001
1000
0000
0001
1000
0000
0001
1000
0000
0001
1000
0000
0001
,
1000
0000
0001
1000
0000
0001
1000
0000
0001
1000
0000
0001
1000
0000
0001
1000
0000
0001
1000
0000
0001
1000
0000
0001
,
1000
0000
0001
1000
0000
0001
1000
0000
0001
1000
0000
0001
1000
0000
0001
1000
0000
0001
1000
0000
0001
1000
0000
0001
,
1000
0000
0001
1000
0000
0001
1000
0000
0001
1000
0000
0001
1000
0000
0001
1000
0000
0001
1000
0000
0001
1000
0000
0001
,
1000
0000
0001
1000
0000
0001
1000
0000
0001
1000
0000
0001
1000
0000
0001
1000
0000
0001
1000
0000
0001
1000
0000
0001
,
1000
0000
0001
1000
0000
0001
1000
0000
0001
1000
0000
0001
1000
0000
0001
1000
0000
0001
1000
0000
0001
1000
0000
0001
,
1000
0000
0001
1000
0000
0001
1000
0000
0001
1000
0000
0001
1000
0000
0000
0000
0000
0000
0000
0000
0000
0000
0000
0000
;
