#VERSION:0.83;
#TITLE:CLEANER;
#SUBTITLE:;
#ARTIST:DOIN;
#TITLETRANSLIT:;
#SUBTITLETRANSLIT:;
#ARTISTTRANSLIT:;
#GENRE:;
#CREDIT:;
#MUSIC:Cleaner.ogg;
#BANNER:Cleaner-bn.png;
#BACKGROUND:Cleaner-bg.png;
#CDTITLE:;
#SAMPLESTART:47.447;
#SAMPLELENGTH:28.371;
#SELECTABLE:YES;
#OFFSET:-0.162;
#BPMS:0.000=203.023;
#STOPS:;
#SPEEDS:0.000=1.000=0.000=0;
#SCROLLS:0.000=1.000;
#TICKCOUNTS:0.000=4;
#TIMESIGNATURES:0.000=4=4;
#LABELS:0.000=Song Start;
#COMBOS:0.000=1;
#DISPLAYBPM:*;
#ORIGIN:;
#PREVIEWVID:;
#JACKET:Cleaner-jacket.png;
#CDIMAGE:;
#DISCIMAGE:;
#BGCHANGES:-0.162=Cleaner.avi=1.000=0=0=0=StretchNoLoop====,
99999.000=-nosongbg-=1.000=0=0=0=StretchNoLoop====
;
#FGCHANGES:;

//--------------- dance-single - ----------------
#NOTEDATA:;
#STEPSTYPE:dance-single;
#DESCRIPTION:;
#DIFFICULTY:Beginner;
#METER:9;
#RADARVALUES:0.001275,0.001785,0,0,0,1,1,0,0,0,0,0,0,0,0.001275,0.001785,0,0,0,1,1,0,0,0,0,0,0,0;
#DISPLAYBPM:*;
#CHARTNAME:;
#CHARTSTYLE:;
#CREDIT:;
#NOTES:
0000
0000
0000
0000
,
0000
0000
0000
0000
,
0000
0000
0000
0000
,
0000
0000
0000
0000
,
0000
0000
0000
0000
,
0000
0000
0000
0000
,
0000
0000
0000
0000
,
0000
0000
0000
0000
,
1000
0000
0000
0000
,
1000
0000
0000
0000
,
0001
0000
0000
0000
,
0001
0000
0000
0000
,
0100
0000
0000
0000
,
0100
0000
0000
0000
,
0010
0000
0000
0000
,
0010
0000
0000
0000
,
1001
0000
1000
0100
,
0010
0000
0000
0000
,
0001
0010
0100
1000
,
0001
0010
0100
1000
,
1001
1000
0010
0100
,
0001
0000
0000
0000
,
1001
0000
0000
0000
,
0000
0000
0000
0000
,
1000
0000
1000
0000
,
0100
0000
0100
0000
,
0010
0000
0010
0000
,
0001
0000
0001
0000
,
1000
0000
1000
0000
,
0010
0000
0010
0000
,
0100
0000
0100
0000
,
0001
0000
0001
0000
,
1000
0000
1000
0000
,
0100
0000
0100
0000
,
0010
0000
0010
0000
,
0001
0000
0001
0000
,
0000
0000
1000
0100
1000
0100
0010
0001
,
0010
0001
1000
0010
1000
0010
0100
0001
,
1000
0000
1000
0000
1000
0000
0001
0000
0001
0000
0001
0000
,
1000
0000
0000
0000
,
1001
0000
0001
0010
,
0100
0000
0000
0000
,
1000
0100
0010
0001
,
0100
1000
0010
0100
,
1001
0010
1000
0001
,
0100
0000
0010
0000
,
1001
0000
0000
0000
,
0000
0000
0000
0000
,
1001
0000
0000
0000
0000
1001
0000
0000
,
0000
0000
1001
0000
,
1001
0000
0000
0000
,
0000
1001
1001
0000
,
1001
0000
0000
0000
0000
1001
0000
0000
,
1001
1001
1001
1001
,
0000
0000
1001
0000
,
1001
0000
0000
0000
,
1000
0000
0000
0000
,
0100
0000
0000
0000
,
0010
0000
0000
0000
,
0001
0000
0000
0000
,
1000
0000
0000
0000
,
0001
0000
0000
0000
,
1000
0000
0000
0000
,
0001
0000
0000
0000
,
1000
0000
0100
0000
,
0010
0000
0001
0000
,
1000
0000
0010
0000
,
0100
0000
0001
0000
,
1000
0100
0010
0001
,
1000
0000
0000
0001
,
0010
0100
1000
0100
,
0010
0001
0010
0010
,
1001
0000
0000
0000
,
0000
0000
0000
0000
,
1000
0000
1000
0000
,
0010
0000
0010
0000
,
0001
0000
0001
0000
,
0100
0000
0100
0000
,
1000
0000
1000
0000
,
0100
0000
0100
0000
,
0001
0000
0001
0000
,
0010
0000
0010
0000
,
1000
1000
0100
0100
,
0010
0010
0001
0001
,
1000
1000
0010
0010
,
0100
0100
0001
0001
,
0000
0000
1000
0100
1000
0100
0010
0001
,
0010
0001
1000
0010
1000
0010
0100
0001
,
1001
1001
1001
1001
,
0100
0010
0100
0010
0100
0010
0100
0010
0100
0010
0100
0010
0100
0010
0100
0010
,
2002
0000
0000
0000
,
3003
1001
0000
0000
;

//--------------- dance-single - ----------------
#NOTEDATA:;
#STEPSTYPE:dance-single;
#DESCRIPTION:;
#DIFFICULTY:Easy;
#METER:11;
#RADARVALUES:0.045894,0.351377,0.008924,0,0.008924,36,35,1,0,0,0,0,0,0,0.045894,0.351377,0.008924,0,0.008924,36,35,1,0,0,0,0,0,0;
#OFFSET:-0.162;
#BPMS:0.000=203.023
,88.000=101.512
,92.000=203.023
,180.000=101.512
,224.000=203.023
,240.000=101.512
,244.000=203.023
,304.000=406.046
,312.000=101.512
,314.000=203.023
;
#SPEEDS:0.000=1.000=0.000=0;
#SCROLLS:0.000=1.000;
#TICKCOUNTS:0.000=4;
#TIMESIGNATURES:0.000=4=4;
#LABELS:0.000=Song Start;
#COMBOS:0.000=1;
#DISPLAYBPM:*;
#CHARTNAME:;
#CHARTSTYLE:;
#CREDIT:;
#NOTES:
0000
0000
0000
0000
,
0000
0000
0000
0000
,
0000
0000
0000
0000
,
0000
0000
0000
0000
,
1001
0000
0000
0000
,
0000
0000
0000
0000
,
0000
0000
0000
0000
,
0000
0000
0000
0000
,
1000
0000
0000
0100
0000
0000
0010
0001
,
0010
0000
0100
1000
,
0001
0000
0000
0010
0000
0000
0100
1000
,
0100
0000
0010
0001
,
1000
0000
0000
0010
0000
0000
0100
0001
,
0100
0000
0010
1000
,
0001
0000
0000
0100
0000
0000
0010
1000
,
0010
0000
0000
0100
0000
0001
0000
0000
,
1001
0000
0000
0000
1000
0010
0100
0001
,
0010
0000
0000
0010
0000
0000
0000
0000
,
1000
0000
0001
0010
0001
0100
0010
1000
,
0100
0000
0100
0000
1000
0100
0001
0000
,
1001
0000
1000
0010
0001
0010
1000
0000
,
1001
0000
0000
0010
0000
0001
0010
0100
,
1000
0000
0000
0000
,
1000
0100
1000
0000
0001
0100
0001
0000
,
1000
0100
0010
0001
1000
0010
1000
0000
,
0001
0010
0001
0000
1000
0010
1000
0000
,
0001
0010
0100
1000
0001
0100
0001
0000
,
1000
0010
1000
0000
0001
0010
0001
0000
,
1000
0010
0100
0001
1000
0100
1000
0000
,
0001
0100
0001
0000
1000
0100
1000
0000
,
0001
0100
0010
1000
0001
0010
0001
0000
,
1000
0100
0010
0001
,
1000
0010
0100
0001
,
1000
1000
0001
0001
,
0100
0100
0010
0010
,
0000
0000
0000
0000
1000
0100
1000
0100
1000
0100
1000
0000
0100
0000
0100
0000
,
0001
0010
0001
0010
0001
0010
0001
0000
0010
0000
0010
0000
1000
0010
1000
0010
,
1000
0000
1000
0000
1000
0000
0001
0000
0001
0000
0001
0000
,
1000
0100
0010
0001
0100
0010
1000
0000
,
1001
0000
0000
0000
0001
0010
0100
1000
,
0010
0000
0000
0000
,
1000
0000
1000
1000
1000
0100
0010
0001
,
0100
0000
0010
0000
0001
0010
0100
0000
,
1001
0000
1000
0001
0010
0100
1000
0000
,
0001
0000
0000
0010
0000
0000
0100
0000
,
1001
0000
0000
0000
,
1001
0000
0000
0000
0000
1001
0000
0000
0000
0000
0000
0000
1001
0000
0000
0000
,
1001
0000
0000
0000
0000
1001
1001
0000
,
1001
0000
0000
0000
0000
1001
0000
0000
1001
0000
1001
0000
1001
0000
1001
0000
,
0000
1001
1001
0000
,
1000
0000
0100
0000
,
0010
0000
0001
0000
,
1000
0000
0010
0000
,
0100
0000
0001
0000
,
1000
0100
0010
0001
1000
0010
0100
0001
,
1000
0100
0010
0001
1000
0010
0100
0001
,
1000
0100
0010
0100
1000
0010
0100
0010
,
1000
0100
0010
0001
,
1000
2000
3000
0001
,
1000
0100
0010
0001
,
1000
0000
0000
0001
,
1000
0100
0010
0000
1000
0100
1000
0000
,
0001
0010
0100
1000
0100
0010
0001
0000
,
0001
0010
0100
0000
0001
0010
0001
0000
,
1000
0100
0010
0001
0010
0100
1000
0000
,
1000
0010
0100
0000
1000
0010
1000
0000
,
0001
0100
0010
1000
0010
0100
0001
0000
,
0001
0100
0010
0000
0001
0100
0001
0000
,
1000
0010
0100
0001
0100
0010
1000
0000
,
1000
0100
1000
0100
1000
0000
0000
0000
0001
0010
0001
0010
0001
0000
0000
0000
,
1000
0010
1000
0010
1000
0000
0000
0000
0001
0100
0001
0100
0001
0000
0000
0000
,
1000
0100
0010
0100
1000
0000
0000
0000
0001
0100
0010
0100
0001
0000
0000
0000
,
1000
0010
0100
0010
1000
0000
0000
0000
0001
0010
0100
0010
0001
0000
0000
0000
,
0000
0000
0000
0000
1000
0100
1000
0000
1000
0010
1000
0000
0001
0010
0001
0000
,
0001
0100
0001
0000
0100
0010
0100
0000
1000
0001
1000
0000
0010
0100
0010
0000
,
1001
1001
1001
1001
,
1000
0001
1000
0001
1000
0001
1000
0001
,
1000
0001
1000
0001
1000
0001
1000
0001
,
2002
0000
3003
1001
;

//--------------- dance-single - ----------------
#NOTEDATA:;
#STEPSTYPE:dance-single;
#DESCRIPTION:;
#DIFFICULTY:Medium;
#METER:12;
#RADARVALUES:0.675664,1.408633,0.321259,0.044619,0.486351,530,494,36,5,0,0,0,0,0,0.675664,1.408633,0.321259,0.044619,0.486351,530,494,36,5,0,0,0,0,0;
#OFFSET:-0.162;
#BPMS:0.000=101.512
,48.000=203.023
,136.000=101.512
,140.000=203.023
,188.000=101.512
,196.000=203.023
,296.000=406.046
,304.000=6496.736
,308.000=203.023
;
#STOPS:304.000=1.460;
#SPEEDS:0.000=1.000=0.000=0;
#SCROLLS:0.000=1.000;
#TICKCOUNTS:0.000=4;
#TIMESIGNATURES:0.000=4=4;
#LABELS:0.000=Song Start;
#COMBOS:0.000=1;
#DISPLAYBPM:*;
#CHARTNAME:;
#CHARTSTYLE:;
#CREDIT:;
#NOTES:
0000
0000
0000
0000
,
0000
0000
0000
0000
,
0000
0000
0000
0000
,
0000
0000
0000
0000
,
1000
0000
0000
0100
0000
0000
0010
0001
0010
0000
0000
0000
0100
0000
1000
0000
,
0001
0000
0000
0010
0000
0000
0100
1000
0100
0000
0010
0000
0001
0000
1000
0000
,
0010
0000
0000
0100
0000
0000
0001
0100
0010
0000
1000
0000
0100
0000
0010
0000
,
0001
0000
0000
0100
0000
0000
0010
1000
0010
0000
0100
0000
0001
0000
1000
0000
,
1001
0000
0000
0000
0000
0000
0000
0000
1000
0100
1000
0100
1000
0100
1000
0100
1100
0000
0000
0000
0000
0000
0010
0000
0000
0000
0000
0000
0000
0000
0000
0000
,
1000
0000
0000
0000
0001
0000
0100
0000
0001
0100
0001
0100
0001
0100
0001
0100
0101
0000
0000
0000
2000
0000
0000
0000
3001
0010
0001
0010
0001
0010
0001
0010
,
0011
0000
0000
0000
1000
0010
1000
0010
1000
0010
1000
0010
1000
0000
0100
0000
0011
0000
0000
0000
0000
0000
1010
0000
0000
0000
0100
0000
0010
0000
0000
0000
,
0001
0000
0000
0000
,
1000
0100
0010
0001
1000
0010
0100
0001
,
1000
0100
0001
0100
1000
0010
0001
0010
,
1000
0010
0100
0001
1000
0100
0010
0001
,
1000
0010
0001
0010
1000
0100
0001
0100
,
1000
0000
1000
0100
1000
0100
0010
0001
,
0010
0001
1000
0010
1000
0010
0100
0001
,
1000
0100
1000
0100
0010
0001
0010
0001
,
1000
0100
0010
0100
1000
0010
0100
0010
,
0001
0010
0100
1000
0001
0100
0010
1000
,
0001
0010
1000
0010
0001
0100
1000
0100
,
0001
0100
0010
1000
0001
0010
0100
1000
,
0001
0100
1000
0100
0001
0010
1000
0010
,
0001
0000
0000
0000
1000
0100
1000
0100
1000
0100
1000
0100
1000
0100
1000
0100
,
0010
0001
0010
0001
0010
0001
0010
0001
0010
0001
0010
0001
1000
0001
1000
0001
,
1000
0000
0010
0000
1010
0000
0001
0000
0100
0000
0101
0000
,
1000
0100
0010
0001
1000
0010
0100
0001
,
1000
0000
0000
0000
0000
0000
0000
0000
1000
0100
1000
0100
0010
0100
0010
0100
,
0110
0000
0000
0010
0000
0000
0000
0000
,
1000
0000
0000
0000
0100
0000
0010
0000
0001
0010
0001
0010
0100
0010
0100
0010
,
0110
0000
0002
0000
1003
0100
0010
0001
,
1001
0000
0000
0000
1000
0010
1000
0010
0100
0010
0100
0010
0110
0000
0000
0000
,
1001
0000
0000
0001
0010
0100
1000
0000
,
0002
0000
0000
0003
,
1001
0000
0000
0000
0000
1001
0000
0000
,
0000
0000
1001
0000
,
1001
0000
0000
0000
,
0000
1001
1001
0000
,
1001
0000
0000
0000
0000
1001
0000
0000
,
1001
1001
1001
1001
,
0000
0000
1001
0000
,
1001
0000
0000
0000
,
1000
0000
0000
0000
,
0100
0000
0000
0000
,
0010
0000
0000
0000
,
0001
0000
0000
0000
,
1000
0000
0100
0000
,
0010
0000
0001
0000
,
1000
0000
0100
0000
0010
0000
0001
0001
,
0001
0000
1000
0000
0100
0000
0010
0010
,
0010
0000
0001
0001
0001
0000
1000
1000
,
1000
0000
0010
0000
0010
0000
0100
0100
,
1001
0000
0000
0000
0001
0100
0001
0100
0010
0100
0010
0100
0110
0000
0000
0000
,
1001
0000
0000
0000
0000
1000
0100
0010
,
0001
0010
0100
1000
,
0001
0001
1000
1000
,
0001
0000
0000
0000
,
0000
0000
0000
0000
0000
0000
0000
0000
1000
0001
1000
0001
1000
0000
0000
0000
,
1000
0100
0010
0001
1000
0100
0001
0100
,
1000
0010
0100
0001
1000
0010
0001
0010
,
1000
0010
0100
0001
1000
0010
0001
0010
,
1000
0100
0010
0001
1000
0100
0001
0100
,
0001
0010
0100
1000
0001
0010
1000
0010
,
0001
0100
0010
1000
0001
0100
1000
0100
,
0001
0100
0010
1000
0001
0100
1000
0100
,
0001
0010
0100
1000
0001
0010
1000
0010
,
1000
0100
1000
0100
1000
0100
1000
0100
1000
0100
1000
0100
1000
0100
1000
0000
,
0001
0010
0001
0010
0001
0010
0001
0010
0001
0010
0001
0010
0001
0010
0001
0000
,
1000
0010
1000
0010
1000
0010
1000
0010
1000
0010
1000
0010
1000
0010
1000
0000
,
0001
0100
0001
0100
0001
0100
0001
0100
0001
0100
0001
0100
0001
0100
0001
0000
,
0100
0000
0000
0000
1000
0100
1000
0100
0010
0001
0010
0001
1000
0010
1000
0010
,
0100
0001
0100
0001
0100
0010
0100
0010
1000
0001
1000
0001
0010
0100
0010
0100
,
1001
1001
1001
1001
,
1000
0100
1000
0010
0100
0001
0010
0100
,
0010
0001
0100
0010
1000
0100
1000
0001
,
2002
3003
0000
0000
,
1001
0000
0000
0000
;

//--------------- dance-single - ----------------
#NOTEDATA:;
#STEPSTYPE:dance-single;
#DESCRIPTION:;
#DIFFICULTY:Hard;
#METER:14;
#RADARVALUES:0.982901,1.313594,0.428346,0.348031,0.959316,771,723,48,39,0,0,0,0,0,0.982901,1.313594,0.428346,0.348031,0.959316,771,723,48,39,0,0,0,0,0;
#OFFSET:-0.162;
#BPMS:0.000=203.023
,88.000=101.512
,92.000=203.023
,180.000=101.512
,184.000=203.023
,232.000=50.756
,236.000=101.512
,244.000=203.023
,300.000=406.046
,364.000=6496.736
,368.000=203.023
;
#STOPS:364.000=1.460;
#SPEEDS:364.000=2.500=0.750=1;
#SCROLLS:0.000=1.000;
#TICKCOUNTS:0.000=4;
#TIMESIGNATURES:0.000=4=4;
#LABELS:0.000=Song Start;
#COMBOS:0.000=1;
#DISPLAYBPM:*;
#CHARTNAME:;
#CHARTSTYLE:;
#CREDIT:;
#NOTES:
0000
0000
0000
0000
,
0000
0000
0000
0000
,
0000
0000
0000
0000
,
0000
0000
0000
0000
,
1000
0000
0100
0010
0000
0001
1000
0000
,
0100
0010
0001
1000
,
0001
0000
0010
0100
0000
1000
0001
0000
,
0010
0100
1000
0001
,
2000
0000
0000
0000
0000
3200
0320
0032
,
0203
0000
0320
0000
,
2030
0000
0000
3200
0000
0000
0320
0032
,
0203
0310
0100
0010
1100
0000
0000
0000
0012
0000
0003
0000
0000
0000
0001
0100
,
2100
0000
0000
0000
0000
0000
3200
0000
0000
0000
0000
0000
0320
0000
0032
0003
,
0201
0300
1100
0000
2010
3000
0012
0003
,
1000
0000
0100
0100
0101
0000
0000
0010
,
1010
0000
0000
0000
0000
0000
0100
0000
0000
0000
0001
0010
0100
1000
0100
0010
,
1001
0000
0000
0000
0000
0000
0000
0000
1000
0100
1000
0100
1000
0010
0100
0001
,
0101
0000
0000
1000
0100
0001
0010
0000
,
1000
0000
0100
0000
0000
0000
0000
0000
0000
0000
0000
0000
1000
0000
0000
0010
0000
0000
1000
0000
0000
0010
0000
0000
0100
0000
0000
0001
0000
0000
0010
0000
0000
0001
0000
0000
0010
0000
0000
0001
0000
0000
0100
0000
0000
0010
0000
0000
,
0110
0000
0000
0000
0000
0000
0000
0000
0000
0000
0000
0000
1000
0000
0100
0000
1000
0000
0100
0000
0000
1000
0000
0000
0001
0000
0000
0010
0000
0000
0100
0000
0000
1000
0000
0000
0001
0000
0000
0100
0000
0000
0010
0000
0000
1000
0000
0000
,
1001
0000
0000
0000
1000
0010
1000
0010
0100
0001
0010
0001
0011
0000
0000
0000
,
1001
0000
0000
0000
0000
0000
0110
0000
0000
0000
1000
0100
0001
0000
0000
0000
,
2000
0000
0000
3200
0000
0000
0320
0032
0023
0000
0000
0000
0230
0000
2300
3000
,
1000
0100
1000
0010
0100
0000
0000
0000
0010
0100
0001
0010
0001
0000
0000
0000
,
1000
0010
0100
0010
1000
0000
0000
0000
0001
0010
0100
0010
0001
0000
0000
0000
,
1000
0100
0010
0100
1000
0000
0000
0000
0001
0100
0010
0100
0001
0000
0000
0000
,
1000
0100
0010
0001
0100
0000
0000
0000
0001
0100
0010
1000
0100
0000
0000
0000
,
1000
0010
0100
0001
0010
0000
0000
0000
0001
0010
0100
1000
0010
0000
0000
0000
,
1000
0001
0010
0100
1000
0000
0000
0000
0001
1000
0010
0100
0001
0000
0000
0000
,
1000
0001
0100
0010
1000
0000
0000
0000
0001
1000
0100
0010
0001
0000
0000
0000
,
1000
0100
0001
0100
1000
0000
0000
0000
0001
0100
1000
0100
0001
0000
0000
0000
,
1000
0100
0010
0001
0010
0000
0000
0000
1000
0010
0001
0010
1000
0000
0000
0000
,
0001
0100
0010
1000
0010
0000
0000
0000
0001
0010
1000
0010
0001
0000
0000
0000
,
1000
0010
0100
0001
0100
0000
0000
0000
1000
0100
0001
0100
1000
0000
0000
0000
,
0001
0010
0100
1000
0100
0000
0000
0000
0001
0100
1000
0100
0001
0000
0000
0000
,
0000
0000
0000
0000
1000
0100
1000
0100
1000
0100
1000
0100
0010
0001
0010
0001
,
0010
0001
0010
0001
1000
0010
1000
0010
1000
0010
1000
0010
0100
0001
0100
0001
,
1001
0000
1010
0000
0011
0000
0110
0000
0101
0000
1100
0000
,
1000
0000
0100
0000
1000
0000
0100
0000
0000
1000
0000
0000
0001
0000
0000
0010
0000
0000
0100
0000
0000
1000
0000
0000
0010
0000
0000
0100
0000
0000
0001
0000
0000
1000
0000
0000
0010
0000
0100
0000
0010
0000
0100
0000
0000
0010
0000
0000
,
1001
0000
0000
0000
0000
0000
0000
0000
1000
0100
1000
0010
0100
0001
0100
0001
,
0011
0000
0000
0100
0001
0010
1000
0000
,
0001
0000
0100
0000
0000
0000
0000
0000
0000
0000
0000
0000
0001
0000
0010
0000
0001
0000
0010
0000
0000
0100
0000
0000
1000
0000
0000
0010
0000
0000
0100
0000
0000
0001
0000
0000
0010
0000
0000
0001
0000
0000
0100
0000
0000
0010
0000
0000
,
1000
0000
0000
0000
0000
0000
0000
0000
0000
0000
0000
0000
0001
0000
1000
0000
0001
0000
1000
0000
0000
0100
0000
0000
0010
0000
0000
0001
0000
0000
0100
0000
0000
0010
0000
0000
1000
0000
0000
0100
0000
0000
0010
0000
0000
0001
0000
0000
,
1001
0000
0000
0000
0001
0010
0001
0100
0010
1000
0100
1000
0010
0100
0001
0010
,
1001
0000
0000
0000
1000
0100
0010
0001
0010
0100
1000
0001
1000
0000
0000
0000
,
0002
0000
0000
0023
0000
0000
0230
2300
3200
0000
0000
0000
0320
0000
0032
0003
,
1001
0000
0000
0000
0000
1001
0000
0000
,
0000
0000
1001
0000
,
1001
0000
0000
0000
,
0100
0010
0100
0010
1001
0000
0000
0000
1001
0000
0000
0000
0000
0000
0010
0100
,
1001
0000
0000
0010
0000
1001
0000
0000
,
1001
1001
1001
1001
,
0100
0000
0010
0100
1001
0000
0000
0100
,
1001
0000
0000
0000
0000
0000
0100
0000
0000
0000
0010
0100
0010
0100
0010
0100
,
1001
0000
1000
0000
0100
0000
0010
0001
0010
0000
0100
0000
1000
0000
0001
1000
,
0001
0000
0010
0000
0100
0000
1000
0100
1000
0000
0100
0000
0010
0001
0010
0000
,
0001
0000
0100
0000
0010
1000
0100
0000
0010
0000
0001
0000
1000
0000
0010
0000
,
0100
0001
0010
0100
1000
0100
0010
0001
,
2000
3200
0320
0032
,
1003
0000
0100
0000
0010
0000
0001
0001
0001
0000
0010
0000
0100
0000
1000
1000
,
1000
0000
0010
0010
0100
0000
0001
0001
0001
0000
0100
0000
0010
0000
1000
1000
,
1000
0100
1000
0100
1000
0010
0100
0001
0010
0001
0100
0010
1000
0000
0100
0000
,
0101
0000
0000
0000
0010
0000
0000
0000
0100
0000
1000
0010
0001
0010
1000
0000
,
0100
0000
0000
0000
0000
0000
0000
0000
0000
0000
0000
0000
0010
0000
0000
0001
0000
0000
0010
0000
0000
0001
0000
0000
1000
0000
0000
0010
0000
0000
1000
0000
0000
0010
0000
0000
0100
0000
0010
0000
0100
0000
0010
0000
0000
0100
0000
0000
,
0001
0000
0000
0010
0000
0000
0100
0000
0000
1000
0000
0000
0010
0000
0000
0100
0000
0000
0001
0000
0000
0010
0000
0000
0100
0000
1000
0000
0000
0000
0000
0000
0000
0000
0000
0000
1000
0000
0001
0000
0000
0000
0000
0000
0000
0000
0000
0000
,
1000
0100
0010
0100
1000
0000
0000
0000
1000
0010
0100
0010
1000
0000
0000
0000
,
1000
0100
0010
0001
1000
0000
0000
0000
1000
0100
0001
0100
1000
0000
0000
0000
,
0001
0010
0100
0010
0001
0000
0000
0000
0001
0100
0010
0100
0001
0000
0000
0000
,
0001
0010
0100
1000
0001
0000
0000
0000
0001
0010
1000
0010
0001
0000
0000
0000
,
1000
0001
0100
0001
1000
0000
0000
0000
0001
1000
0010
1000
0001
0000
0000
0000
,
1000
0001
0010
0001
1000
0000
0000
0000
0001
1000
0100
1000
0001
0000
0000
0000
,
1000
0010
0100
0010
1000
0000
0000
0000
1000
0100
0010
0100
1000
0000
0000
0000
,
1000
0010
0100
0001
1000
0000
0000
0000
1000
0010
0001
0010
1000
0000
0000
0000
,
0001
0100
0010
0100
0001
0000
0000
0000
0001
0010
0100
0010
0001
0000
0000
0000
,
0001
0100
0010
1000
0001
0000
0000
0000
0001
0100
1000
0100
0001
0000
0000
0000
,
1000
0100
1000
0100
1000
0100
1000
0100
,
0010
0001
0010
0001
0010
0001
0010
0001
,
1000
0010
1000
0010
1000
0010
1000
0010
,
0100
0001
0100
0001
0100
0001
0100
0001
,
1000
0100
1000
0100
1000
0100
1000
0100
,
1000
0010
1000
0010
1000
0010
1000
0010
,
0100
0001
0100
0001
0100
0001
0100
0001
,
0010
0001
0010
0001
0010
0001
0010
0001
,
1000
0000
0000
0000
1000
0100
1000
0010
,
0100
0001
0010
0001
0100
0010
1000
0100
,
1000
0010
1000
0100
0010
0001
0100
0001
,
0010
0100
1000
0010
1000
0100
0010
0001
,
1001
0000
1001
0000
,
1001
0000
1001
0000
,
1000
0100
0001
0100
1000
0100
0001
0100
,
1000
0010
0001
0010
1000
0010
0001
0010
,
2002
3003
0000
0000
0000
0000
0000
0000
0000
0000
0000
0000
0000
0000
0000
0000
,
1001
0000
0000
0000
;

//--------------- dance-single - ----------------
#NOTEDATA:;
#STEPSTYPE:dance-single;
#DESCRIPTION:;
#DIFFICULTY:Challenge;
#METER:15;
#RADARVALUES:1.000748,1.766706,0.55328,0.133858,1.111022,785,723,62,15,0,0,0,0,0,1.000748,1.766706,0.55328,0.133858,1.111022,785,723,62,15,0,0,0,0,0;
#OFFSET:-0.162;
#BPMS:0.000=203.023
,88.000=50.756
,89.000=68.023
,89.500=106.727
,90.000=145.092
,90.500=183.331
,91.000=812.092
,92.000=203.023
,180.000=101.512
,208.000=25.378
,212.000=203.023
,228.000=50.756
,230.000=203.023
,262.000=406.046
,294.000=203.023
,295.000=406.046
,317.000=812.092
,333.000=6496.736
,337.000=203.023
;
#STOPS:333.000=1.460;
#SPEEDS:333.000=2.500=0.750=1;
#SCROLLS:0.000=1.000;
#TICKCOUNTS:0.000=4;
#TIMESIGNATURES:0.000=4=4;
#LABELS:0.000=Song Start;
#COMBOS:0.000=1;
#DISPLAYBPM:*;
#CHARTNAME:;
#CHARTSTYLE:;
#CREDIT:;
#NOTES:
0000
0000
0000
0000
,
0000
0000
0000
0000
,
0000
0000
0000
0000
,
0000
0000
0000
0000
,
2000
0000
0000
0000
,
0000
0000
0000
0000
,
3002
0000
0000
0000
,
0000
0000
0000
0000
0000
0000
0000
0003
,
1001
0000
0000
0000
0000
0100
0001
0010
,
1000
0000
0100
0010
0001
0010
1000
0010
,
0001
0000
0000
0110
0000
0000
1000
0001
,
1000
0100
0001
0100
1001
0000
0100
0000
1001
0000
0000
0000
0000
0000
1000
0010
,
0011
0000
0010
0100
0000
1100
0001
0000
,
1100
1000
1100
0100
0011
0001
0011
0010
,
1000
0000
0100
0100
1001
0000
0010
0010
,
1001
0000
0000
0000
0010
0000
0100
0000
0000
0000
1000
0100
0001
0100
0010
0001
,
1000
0000
0000
0000
0000
0000
0000
0000
1000
0100
1000
0010
0100
0001
0010
0001
,
0202
0000
0300
0100
0000
0000
1003
0000
,
0001
0000
0010
0000
0001
0000
0000
0000
0000
0000
0000
0000
1000
0000
0100
0000
1000
0000
0100
0000
0000
0010
0000
0000
1000
0000
0000
0010
0000
0000
0100
0000
0000
0001
0000
0000
0010
0000
0000
0100
0000
0000
1000
0000
0000
0010
0000
0000
,
2200
0000
0300
0000
0020
0000
3000
0000
0031
0010
1000
0010
0001
0000
0100
0000
,
1001
0000
0000
0000
0001
0010
0001
0100
0010
1000
0100
1000
0010
0100
0001
0010
,
0101
0000
0000
0000
0000
0000
0000
0000
0000
0110
0000
0000
0000
0000
0000
1000
0100
1000
0100
0000
0000
0000
0000
0000
,
2002
0000
0000
3003
,
1000
0100
0001
0000
0100
0000
1000
0000
0001
0100
1000
0000
0100
0000
0001
0000
,
1000
0000
0100
0000
0010
0000
0001
0000
1000
0010
0100
0001
1000
0000
0001
0000
,
1000
0010
0001
0000
0010
0000
1000
0000
0001
0010
1000
0000
0010
0000
0001
0000
,
1000
0000
0010
0000
0100
0000
0001
0000
1000
0100
0010
0001
1000
0000
0000
0000
,
0001
0000
0000
0000
1001
0000
0000
0000
0001
0010
1000
0000
0010
0000
0001
0000
,
1000
0100
0001
0000
0100
0000
1000
0000
0001
0100
1000
0000
0100
0000
0001
0000
,
1000
0010
0001
0000
0010
0000
1000
0000
0001
0100
1000
0000
0010
0000
0001
0000
,
1000
0000
0100
0000
0010
0000
0001
0000
1000
0010
0001
0100
1000
0000
0000
0000
,
1000
0100
1000
0000
0100
0000
0000
0000
0001
0100
0001
0000
0100
0000
0000
0000
,
1000
0010
1000
0000
0010
0000
0000
0000
0001
0010
0001
0000
0010
0000
0000
0000
,
1000
0100
0010
0000
0100
0000
0000
0000
0001
0100
0010
0000
0100
0000
0000
0000
,
1000
0010
0100
0000
0010
0000
0000
0000
0001
0010
0100
0000
0010
0000
0000
0000
,
0000
0000
0000
0000
1000
0001
1000
0001
1000
0010
1000
0010
0100
0010
0100
0010
,
0100
0001
0100
0001
0010
0001
0010
0001
0010
0100
0010
0100
1000
0100
1000
0100
,
1010
0000
0011
0000
1010
0000
0101
0000
1100
0000
0101
0000
,
1000
0100
1000
0000
0100
0000
0010
0000
0001
0000
0000
0000
0010
0000
0000
0000
1000
0000
0100
0000
1000
0000
0010
0000
0100
0000
0001
0000
0010
0000
0100
0000
,
1001
0000
0000
0000
0000
0000
0000
0000
0001
0100
0001
0010
0100
1000
0010
0100
,
1100
0000
0000
0100
0001
0010
1000
0000
,
1000
0000
0010
0000
1000
0000
0000
0000
0000
0000
0000
0000
0001
0000
0100
0000
0001
0000
0100
0000
0000
0001
0000
0000
1000
0000
0000
0010
0000
0000
0100
0000
0000
0010
0000
0000
1000
0000
0000
0100
0000
0000
0010
0000
0000
0100
0000
0000
,
1010
0000
0000
0000
0000
0000
0000
0000
0001
0100
0001
0100
0001
0100
0001
0100
0001
0000
0010
0000
0100
0000
1000
0000
0001
0000
0100
0000
0010
0000
1000
0000
,
0011
0000
0000
0000
1000
0010
1000
0100
0010
0001
0100
0010
0100
0001
0010
0100
,
1100
0000
0000
1000
0100
0001
0010
0000
,
1001
0000
0000
0000
,
1001
0000
0010
0001
0000
1001
0000
0000
0100
0000
0010
0010
1001
0000
0000
0100
,
1001
0000
0000
0000
0000
0000
0100
0000
0000
0000
0100
0000
0010
0000
0001
0000
0010
0100
0010
0100
1001
0000
0000
0000
1001
0000
0000
0000
0000
0000
0100
0010
,
1001
0000
0000
0010
0000
1001
0000
0000
1001
0000
1001
0000
1001
0000
1001
0000
,
0100
0000
0000
0000
0010
0000
0010
0000
1001
0000
0000
0000
0000
0000
0100
0000
1001
0000
0000
0000
0000
0000
0100
0000
0000
0000
0010
0001
0100
0010
1000
0100
,
1000
0000
0100
0000
0010
0000
0001
0010
0001
0000
0010
0000
0100
0000
1000
0100
1000
0000
0010
0000
0100
0000
0001
0100
0001
0000
0100
0000
0010
0000
1000
0010
,
1000
0000
0100
0000
0010
0000
0001
0100
0001
0000
0100
0000
0010
0000
1000
0100
1000
0000
0010
0000
0100
0000
0001
0010
0001
0000
0010
0000
0100
0000
1000
0010
,
2000
0000
0000
0000
0000
0000
0000
0000
3002
0000
0000
0000
0000
0000
0000
0000
2003
0000
0000
0000
0000
0000
0000
0000
3002
0000
0000
0000
0000
0000
0000
0000
1003
0000
0100
0000
0010
0000
0001
0010
0100
0000
1000
0000
0100
0000
0010
0001
1000
0000
0010
0100
0001
0000
0100
0010
1000
0000
0010
0000
0100
0000
0001
0010
,
1000
0100
1000
0010
0100
0001
0010
0100
1000
0100
0010
0001
0100
0010
1000
0100
,
1100
0000
0000
0000
1000
0000
0000
0000
0000
0000
1000
0100
0001
0100
1000
0000
,
0001
0010
0001
0000
0000
0000
0000
0000
1000
0000
0100
0000
0010
0000
0001
0000
1000
0000
0010
0000
0100
0000
0001
0000
1000
0100
1000
0100
1000
0100
1000
0100
,
1000
0000
0000
0010
0000
0000
1000
0000
0000
0100
0000
0000
0010
0000
0000
0001
0000
0000
0100
0000
0000
0010
0000
0000
1000
0000
0010
0000
1000
0000
0000
0000
0000
0000
0000
0000
0010
0000
0001
0000
0010
0000
0000
0000
0000
0000
0000
0000
,
1000
0100
1000
0100
1000
0000
0000
0000
0100
0010
0100
0010
0100
0000
0000
0000
0010
0001
0010
0001
0010
0000
0000
0000
0001
1000
0001
1000
0001
0000
0000
0000
1000
0000
0000
0000
0100
0000
0000
0000
0001
0000
0000
0000
0000
0000
0000
0000
0010
0000
0000
0000
0000
0000
0000
0000
0100
0000
0000
0000
0000
0000
0000
0000
,
1000
0010
0001
0000
0100
0000
0010
0000
1000
0100
0001
0000
0100
0000
1000
0010
,
0100
0001
0010
0100
1000
0000
0000
0000
0001
0010
1000
0000
0100
0000
0010
0000
,
0001
0100
1000
0000
0010
0000
0100
0000
0001
0010
1000
0000
0010
0000
0001
0100
,
0010
1000
0100
0010
0001
0000
0000
0000
0000
0000
0000
0000
1100
0000
0100
0000
,
1000
0010
0100
0000
0011
0000
0010
0000
0001
0100
0010
0000
1010
0000
0010
0000
,
1000
0100
0010
0000
0101
0000
0100
0000
0001
0010
0100
0000
1001
0000
1000
0000
,
0001
0010
1000
0000
1001
0000
0001
0000
1100
0000
0000
0000
0110
0000
0000
0000
,
0011
0000
1001
0000
1000
0100
1000
0010
,
1000
0010
0100
0010
0100
0001
0100
0001
,
0010
0001
0010
0100
0010
0100
1000
0100
,
1000
0001
1000
0001
1000
0100
0010
0001
,
1000
0010
0100
0001
1000
0100
0010
0001
,
0100
0010
1000
0100
0010
0001
0010
0100
,
1000
0010
0100
0001
0010
0100
1000
0001
,
0100
0010
1000
0001
0010
0100
1000
0100
,
0010
0001
1000
0000
1000
0001
1000
0100
,
0010
0100
1000
0010
0100
0001
1000
0010
,
0100
0010
1000
0100
0010
0001
0100
0010
,
0001
0010
0100
0001
1000
0010
0100
0001
,
0010
0001
0110
0010
0100
0010
1001
1000
,
0001
1000
0110
0100
0010
0100
1001
0001
,
1000
0000
0000
0001
0000
0000
1000
0000
0000
0000
0100
0000
0000
0000
1000
0000
0000
0000
0010
0000
0000
0000
0100
0000
,
0000
0001
0000
0010
0000
0100
0000
0010
0000
0001
0000
0100
,
0000
0010
0000
1000
0000
0100
0000
1000
0000
0100
0000
0010
,
0000
0001
0000
0100
0000
0010
0000
0100
0000
0001
0000
0010
,
0000
0000
0000
0000
0000
0000
0000
0000
0100
0000
0000
0000
0000
0000
0000
0000
0000
0000
0000
0000
0000
0000
0000
0000
2002
0000
0000
3003
0000
0000
0000
0000
0000
0000
0000
0000
0000
0000
0000
0000
0000
0000
0000
0000
0000
0000
0000
0000
0000
0000
0000
0000
0000
0000
0000
0000
0000
0000
0000
0000
0000
0000
0000
0000
0000
0000
0000
0000
0000
0000
0000
0000
0000
0000
0000
0000
0000
0000
0000
0000
0000
0000
0000
0000
0000
0000
0000
0000
0000
0000
0000
0000
0000
0000
0000
0000
,
0000
0000
0000
0000
0000
0000
0000
0000
0000
0000
0000
0000
0000
0000
0000
0000
0000
0000
0000
0000
0000
0000
0000
0000
0000
0000
0000
0000
0000
0000
0000
0000
0000
0000
0000
0000
0000
0000
0000
0000
0000
0000
0000
0000
0000
0000
0000
1001
0000
0000
0000
0000
0000
0000
0000
0000
0000
0000
0000
0000
0000
0000
0000
0000
0000
0000
0000
0000
0000
0000
0000
0000
0000
0000
0000
0000
0000
0000
0000
0000
0000
0000
0000
0000
0000
0000
0000
0000
0000
0000
0000
0000
0000
0000
0000
0000
0000
0000
0000
0000
0000
0000
0000
0000
0000
0000
0000
0000
0000
0000
0000
0000
0000
0000
0000
0000
0000
0000
0000
0000
0000
0000
0000
0000
0000
0000
0000
0000
0000
0000
0000
0000
0000
0000
0000
0000
0000
0000
0000
0000
0000
0000
0000
0000
0000
0000
0000
0000
0000
0000
0000
0000
0000
0000
0000
0000
0000
0000
0000
0000
0000
0000
0000
0000
0000
0000
0000
0000
0000
0000
0000
0000
0000
0000
0000
0000
0000
0000
0000
0000
0000
0000
0000
0000
0000
0000
0000
0000
0000
0000
0000
0000
;
