#TITLE:Classical Insanity;
#SUBTITLE:;
#ARTIST:DM Ashura;
#TITLETRANSLIT:;
#SUBTITLETRANSLIT:;
#ARTISTTRANSLIT:;
#GENRE:;
#CREDIT:;
#MUSIC:Classical Insanity.ogg;
#BANNER:;
#BACKGROUND:;
#CDTITLE:;
#SAMPLESTART:11.167;
#SAMPLELENGTH:10.800;
#SELECTABLE:YES;
#OFFSET:-0.196;
#BPMS:0.000=175.000;
#STOPS:;
#BGCHANGES:;
#FGCHANGES:;

//--------------- dance-single - ----------------
#NOTES:
     dance-single:
     :
     Beginner:
     2:
     0,0,0,0,0:
0000
0000
0000
0000
,
0000
0000
0000
0000
,
0000
0000
0000
0000
,
0000
0000
0000
0000
,
1000
0000
0000
0000
,
0001
0000
0000
0000
,
1000
0000
0001
0000
,
1000
0001
1000
0001
,
2000
0000
0000
0000
,
0000
0000
0000
3000
,
0002
0000
0000
0000
,
0000
0000
0000
0003
,
0200
0000
0000
0000
,
0000
0000
0000
0300
,
0020
0000
0000
0030
,
2000
0000
0000
3000
,
1001
0000
0000
0000
,
0000
0000
0000
0000
,
1001
0000
0000
0000
,
0000
0000
0000
0000
,
1001
1000
1001
0001
,
1001
0000
0000
0000
,
1000
0000
0000
0000
,
0001
0000
0000
0000
,
1000
0000
0000
0000
,
0001
0000
0000
0000
,
1000
0000
0000
0000
,
0100
0000
0000
0000
,
0010
0000
0000
0000
,
0001
0000
0000
0000
,
1000
0000
0000
0000
,
0000
0000
0000
0000
,
0001
0000
0000
0000
,
0000
0000
0000
0000
,
1000
0000
0000
0000
,
0000
0000
0000
0000
,
0010
0000
0000
0000
,
0000
0000
0000
0000
,
0100
0000
0000
0000
,
0001
0000
0000
0000
,
1000
0000
0000
0000
,
0000
0000
0000
0000
,
0001
0000
0000
0000
,
0010
0000
0000
0000
,
0100
0000
0000
0000
,
0000
0000
0000
0000
,
1001
0000
0000
0000
,
0000
0000
1000
0000
,
0000
0000
0000
0000
,
0001
0000
0000
0000
,
0000
0000
0100
0000
,
0000
0000
0000
0000
,
0010
0000
0000
0000
,
0000
0000
1000
0000
,
0000
0000
0000
0000
,
0001
0000
0000
0000
,
0000
0000
0000
0000
,
0000
0000
0000
0000
,
0000
0000
0000
0000
,
1000
0000
0000
0000
,
0010
0000
0000
0000
,
0100
0000
0000
0000
,
0001
0000
0000
0000
,
1001
0000
0000
0000
,
0000
0000
0000
0000
,
0110
0000
0000
0000
,
0000
0000
0000
0000
,
1001
0000
0000
0000
,
0000
0000
0000
0000
,
0110
0000
0000
0000
,
0000
0000
0000
0000
,
2002
0000
0000
0000
,
0000
0000
0000
0000
,
0000
0000
0000
0000
,
0000
0000
0000
3000
,
2000
0000
0000
0000
,
0000
0000
0000
0003
,
0200
0000
0000
0000
,
0000
0000
0000
3000
,
0020
0000
0000
0000
,
0000
0000
0000
0300
,
0002
0000
0000
0000
,
0000
0000
0000
0030
,
0200
0000
0000
0003
,
0020
0000
0000
0300
,
2000
0000
0000
0030
,
0002
0000
0000
3003
,
2002
3003
0220
0330
,
2002
0000
0000
0000
,
0000
0000
0000
0000
,
3003
0000
0000
0000
;

//--------------- dance-single - ----------------
#NOTES:
     dance-single:
     :
     Easy:
     6:
     0,0,0,0,0:
0000
0000
0000
0000
,
0000
0000
0000
0000
,
0000
0000
0000
0000
,
0000
0000
0000
0000
,
2002
3003
0000
0000
,
2002
3003
0000
0000
,
2002
3003
0000
0000
2002
3003
0000
0000
,
2002
3003
0000
0000
2002
3003
0000
0000
2002
3003
0000
0000
2002
3003
0000
0000
,
1000
0100
0010
0001
,
0100
0010
1000
0001
,
1000
0010
0100
0001
,
0010
0100
1000
0001
,
1000
0100
0010
0001
,
0100
0010
0100
0001
,
0010
0100
1000
0001
,
1000
0100
0010
0001
,
2002
3003
0000
0000
,
0001
0000
0000
0000
,
2002
3003
0000
0000
,
1000
0000
0000
0000
,
2002
3003
0000
0000
2002
3003
0000
0000
0220
0330
0000
0000
0220
0330
0000
0000
,
2002
3003
0000
0000
,
1000
0000
0100
0000
,
0010
0001
0010
0000
,
1000
0000
0001
0000
,
0100
0000
0010
0000
,
0001
0000
0010
0000
,
0100
1000
0100
0000
,
1000
0100
0010
0001
,
1000
0001
1000
0000
,
0001
0000
0010
0000
,
0100
0000
1000
0000
,
0001
0000
0100
0000
,
0010
0000
1000
0000
,
0001
0000
0100
0000
,
0010
0000
1000
0000
,
0001
0010
0100
1000
,
0001
0000
1000
1000
,
1001
0000
0000
0000
,
1001
0000
0000
0000
,
1000
0100
0010
0001
,
0001
0010
0100
1000
,
1001
0000
0000
0000
,
1001
0000
0000
0000
,
0001
0100
0010
1000
,
1000
0010
0100
0001
,
1001
0000
0000
0000
,
0000
0000
0000
0000
1000
0100
1000
0000
,
0100
0000
0010
0001
0010
0000
0001
0000
,
1000
0010
1000
0000
0010
0000
0100
0001
,
0100
0000
0001
0000
1000
0001
1000
0000
,
0001
0000
0100
0010
0100
0000
0010
0000
,
0001
1000
0001
0000
1000
0000
0010
0100
,
0010
0100
0001
1000
,
0001
2002
0000
3003
,
1000
0000
0100
0000
,
0010
0000
0001
0010
,
0100
1000
0001
0001
,
0001
0000
0000
0000
,
1000
0000
0100
0000
,
0010
0000
0001
0000
,
0100
0000
0010
0000
,
1000
0000
0000
0000
,
1001
0000
0000
0000
,
1000
1000
0010
0010
,
0110
0000
0000
0000
,
0001
0001
0100
0100
,
0110
0000
0000
0000
,
1000
1000
0001
0001
,
1001
0000
0000
0000
,
0001
0001
1000
1000
,
1001
0000
0000
0000
,
0000
0000
0000
0000
,
1000
0000
0001
0000
,
1000
0001
1000
0001
,
1000
0100
0010
0001
,
1000
0010
0100
0001
,
1000
0100
0010
0001
,
1000
0100
0010
0001
,
1000
0010
0100
0001
,
1000
0100
0010
0001
,
1000
0010
0100
0001
,
1000
0010
0100
0001
,
1000
0100
0010
0000
0001
0000
0000
0000
,
0001
0010
0100
0000
1000
0000
0000
0000
,
1010
1010
1100
1100
,
0011
0011
0101
0101
,
2002
3003
0220
0330
,
2002
0000
0000
0000
,
0000
0000
0000
0000
,
3003
0000
0000
0000
;

//--------------- dance-single - ----------------
#NOTES:
     dance-single:
     :
     Medium:
     9:
     0,0,0,0,0:
0000
0000
0000
0000
,
0000
0000
0000
0000
,
0000
0000
0000
0000
,
0000
0000
0000
0000
,
1000
0001
0010
0100
1000
0001
0010
0100
,
1000
0001
0100
0010
1000
0001
0100
0010
,
1000
0001
0010
0100
1000
0001
0100
0010
,
1000
0100
1000
0000
0001
0100
0001
0000
1000
0010
1000
0000
0001
0010
0001
0000
,
1000
0100
1000
0100
0010
0001
0010
0001
,
1000
0010
1000
0010
0100
0001
0100
0000
,
0001
0010
0001
0010
0100
1000
0100
1000
,
0001
0100
0001
0100
0010
1000
0010
0000
,
1000
0010
1000
0010
0100
0001
0100
0001
,
1000
0100
1000
0100
0010
0001
0010
0000
,
0001
0100
0001
0100
0010
1000
0010
1000
,
0001
0010
0001
0010
0100
1000
0100
1000
,
1001
0000
0000
1000
1000
0100
0010
0001
,
1000
0100
0010
0001
1000
0100
0010
0001
,
1001
0000
0000
1000
1000
0010
0100
0001
,
1000
0010
0100
0001
1000
0010
0100
0001
,
0001
0001
1000
1000
0100
0100
0010
0010
,
0001
0000
0000
0000
1000
0000
0000
0000
0000
0000
0000
0000
0001
0010
0001
0000
,
2000
0000
0000
0000
3001
0100
0001
0000
2000
0000
0000
0000
3001
1000
0001
0000
,
1000
0100
0010
0001
2000
0000
3001
1000
,
0001
0010
0100
1000
0001
0100
0010
1000
,
0001
0000
1000
0000
0010
0000
0100
0000
0001
0000
0000
0000
1000
0100
1000
0000
,
0002
0000
0000
0000
1003
0010
1000
0000
0002
0000
0000
0000
1003
0001
1000
0000
,
0001
0010
0100
1000
0002
0000
1003
0001
,
1000
0100
0010
0001
1000
0010
0100
0001
,
1000
0001
0100
0010
1000
0000
0000
0000
,
0001
0000
0000
0010
0100
0000
0000
1000
,
0010
0000
0000
0100
0001
0000
0000
0000
,
1000
0000
0000
0010
0100
0000
0000
0000
,
0001
0010
0100
1000
0001
0000
0000
0000
,
1000
0000
0000
0100
0010
0000
0000
0001
,
0100
0000
0000
0010
1000
0000
0000
0000
,
1000
0010
0100
0001
0010
0100
1000
0001
,
1000
0100
0010
0001
1000
0000
0001
0000
,
2000
3200
0320
0000
,
0032
0203
0320
0000
,
1030
0100
0010
0001
,
1000
0010
0100
0001
,
2000
3020
0230
0000
,
0302
0023
0230
0000
,
1300
0010
0100
0001
,
1000
0100
0010
0001
,
1001
0000
0000
0000
,
0000
0000
0000
0000
1000
0100
0010
0001
,
0010
0100
1000
0010
0100
0001
0100
0010
,
1000
0100
0010
0001
0100
0010
1000
0010
,
0100
0001
0010
0100
1000
0100
0010
0001
,
0100
0010
0100
0001
0010
0100
1000
0001
,
1000
0010
0100
0001
0010
0100
0010
0001
,
0100
0010
1000
0001
1000
0001
1000
0001
,
1000
0001
1000
0000
0000
0001
0010
0100
,
1000
0000
0000
0001
0100
0000
0000
0010
,
1000
0000
0000
0000
1000
0100
0010
0001
,
1000
0010
0100
0001
2000
3000
2000
3000
,
2000
0000
3000
0001
,
1000
0100
1000
0000
0001
0000
1000
0000
,
0001
0010
0001
0000
1000
0000
0001
0000
,
1000
0100
0010
0001
,
1000
0000
0000
0000
,
1001
0000
0000
0000
,
1100
1100
0011
0011
,
1001
0000
0000
0000
,
0101
0101
1010
1010
,
1001
0000
0000
0000
,
0101
0101
1100
1100
,
0110
0000
0000
0000
,
1010
1010
0011
0011
,
0110
0000
0000
0000
,
0000
0000
0000
0000
,
1000
0100
0010
0001
,
1000
0000
0100
0000
0010
0000
0001
0000
1000
0001
1000
0001
1000
0001
1000
0001
,
1000
0100
0010
0001
0010
0100
1000
0001
,
1000
0010
0100
0001
0100
0010
1000
0001
,
1000
0100
0010
0001
0100
0010
1000
0100
,
1000
0010
0100
0001
0010
0100
1000
0010
,
1000
0100
1000
0100
0010
0001
0010
0001
,
1000
0010
1000
0010
0100
0001
0100
0001
,
1000
0100
0010
0001
1000
0100
0010
0001
,
1000
0010
0100
0001
1000
0010
0100
0001
,
1000
0100
1000
0000
0100
0000
1000
0000
0100
0000
0000
0000
0000
0000
0000
0000
,
0001
0010
0001
0000
0010
0000
0001
0000
0010
0000
0000
0000
0000
0000
0000
0000
,
1001
0000
1000
0100
0010
0001
0100
0010
,
1000
0010
0100
0001
0010
0100
1000
0001
,
2002
3003
0220
0330
,
2002
0000
0000
0000
,
0000
0000
0000
0000
,
3003
0000
0000
0000
;

//--------------- dance-single - ----------------
#NOTES:
     dance-single:
     :
     Hard:
     13:
     0,0,0,0,0:
0000
0000
0000
0000
,
0000
0000
0000
0000
,
0000
0000
0000
0000
,
0000
0000
0000
0000
,
2000
3010
1000
0010
1000
0010
1000
0010
1000
0010
1000
0010
1000
0010
1000
0010
,
0200
0301
0100
0001
0100
0001
0100
0001
0100
0001
0100
0001
0100
0001
0100
0001
,
2000
3100
1000
0100
1000
0100
1000
0100
0020
0031
0010
0001
0010
0001
0010
0001
,
2000
3100
1000
0100
0020
0031
0010
0001
2000
3010
1000
0010
0200
0301
0100
0001
,
1000
0100
1000
0100
1000
0100
1000
0100
0010
0100
0010
0100
0010
0100
0010
0100
,
0010
0001
0010
0001
0010
0001
0010
0001
1000
0001
1000
0001
1000
0001
1000
0001
,
1000
0010
1000
0010
1000
0010
1000
0010
0100
0010
0100
0010
0100
0010
0100
0010
,
0100
0001
0100
0001
0100
0001
0100
0001
1000
0001
1000
0001
1000
0001
1000
0001
,
1000
0100
1000
0100
1000
0100
1000
0100
1000
0010
1000
0010
1000
0010
1000
0010
,
0100
0001
0100
0001
0100
0001
0100
0001
0010
0001
0010
0001
0010
0001
0010
0001
,
1000
0100
1000
0100
0010
0001
0010
0001
1000
0001
1000
0001
1000
0001
1000
0001
,
1000
0010
1000
0010
0100
0001
0100
0001
0100
0010
0100
0010
0100
0010
0100
0010
,
2000
3000
0000
0000
0000
0000
1000
0000
0100
0000
0010
0000
0001
0000
0100
0000
,
0010
1000
0001
0100
0001
0010
0100
1000
,
2000
3000
0010
0000
0100
0000
0001
0000
0010
0000
0100
0000
1000
0000
0001
0000
,
0100
0001
1000
0010
1000
0100
0010
0001
,
2000
3000
1000
0000
0002
0003
0001
0000
0200
0300
0100
0000
0020
0030
0010
0000
,
2000
3000
0000
0000
0002
0000
0003
0000
0000
0000
0000
0000
1000
0100
1000
0100
,
2000
0000
0000
0000
3001
0010
0001
0010
0002
0000
0000
0000
0103
0010
0100
0010
,
1000
0001
1000
0001
1000
0001
1000
0001
2000
0000
3000
0000
2000
0000
3002
0000
,
2003
3200
0320
0032
2003
3020
0230
0302
,
2003
0000
3002
0000
0203
0000
0320
0000
2030
0000
3000
0000
1000
0010
1000
0010
,
2000
0000
0000
0000
3001
0100
0001
0100
0002
0000
0000
0000
1003
0001
1000
0001
,
0010
0100
0010
0100
0010
0100
0010
0100
0020
0000
0030
0000
1000
0000
0001
0000
,
1000
0001
1000
0001
0100
0000
0010
0000
1000
0001
1000
0001
0010
0000
0100
0000
,
1000
0100
1000
0100
0010
0001
0010
0001
1000
0001
1000
0001
1000
0001
1000
0001
,
2000
0000
0000
0000
3000
0000
0200
0300
0020
0000
0000
0000
0030
0000
0002
0003
,
0200
0000
0000
0000
0300
0000
0020
2030
3200
0000
0000
0000
0000
0000
0300
0000
,
0020
0000
0000
0000
0030
0000
0002
0023
0230
0000
0000
0000
0000
0000
0300
0000
,
2000
3020
0030
0200
0000
0300
0000
0002
2003
0000
0000
0000
0000
0000
3000
0000
,
0002
0000
0000
0000
0003
0000
0020
0230
2300
0000
0000
0000
3000
0000
2000
3000
,
0020
0000
0000
0000
0030
0000
0200
0302
2003
0000
0000
0000
0000
0000
3000
0000
,
1000
0010
1000
0010
1000
0010
1000
0010
0100
0001
0100
0001
0100
0001
0100
0001
,
1000
0001
1000
0001
0000
0000
0000
0001
1000
0000
0000
0000
0002
0003
0000
0000
,
2000
3200
0320
0000
,
0032
0203
0320
0000
,
1030
0000
0001
0010
0100
1000
0001
0000
,
1000
0000
0001
0100
0010
1000
0001
0000
,
0002
0023
0230
0000
,
2300
3020
0230
0000
,
0301
1000
0001
0000
0001
0010
0100
1000
,
0001
0100
0010
1000
0001
0000
1000
0000
,
0001
0000
0000
0000
0000
0000
0000
0000
0000
0000
0000
0000
0000
0001
1000
0001
,
1000
0001
1000
0001
1000
0001
1000
0001
2000
3100
1000
0100
1000
0100
1000
0100
,
1000
0100
1000
0100
0010
0001
0010
0001
0010
0001
0010
0001
0010
0001
0010
0001
,
2000
3010
1000
0010
1000
0010
1000
0010
1000
0010
1000
0010
0100
0001
0100
0001
,
0100
0001
0100
0001
0100
0001
0100
0001
0200
0310
0100
0010
0100
0010
0100
0010
,
0100
0010
0100
0010
1000
0001
1000
0001
1000
0001
1000
0001
1000
0001
1000
0001
,
0020
0130
0010
0100
0010
0100
0010
0100
0010
0100
0010
0100
1000
0010
1000
0010
,
1000
0010
1000
0010
1000
0010
1000
0010
1000
0001
1000
0001
1000
0001
1000
0001
,
1000
0001
1000
0001
1000
0001
1000
0001
1000
0001
2000
0000
3200
0000
0320
0000
,
0032
0000
0003
0020
0230
0000
0300
2000
,
3020
0000
0000
0000
0030
0000
0000
0000
0200
0302
0023
0000
0230
0000
2300
0000
,
3200
0320
0032
0000
0203
0000
0320
0000
2030
3000
0000
0000
2000
0000
3000
0000
,
2000
0000
0000
0000
3000
0000
1000
0001
,
1000
0100
2000
0000
0000
0000
0000
0000
3001
0000
0000
0000
0001
0000
1000
0000
,
0001
0010
0002
0000
0000
0000
0000
0000
1003
0000
0000
0000
1000
0000
0100
0000
,
0020
0000
0031
0010
0200
0000
1300
0001
,
2000
0000
0000
3000
,
0001
0000
1000
0001
1000
0001
1000
0001
1000
0000
0010
0000
0010
0000
0010
0000
,
1000
0100
0010
0001
1000
0010
0100
0001
,
1000
0000
0001
1000
0001
1000
0001
1000
0001
0000
0100
0000
0100
0000
0100
0000
,
0001
0010
0100
1000
0001
0100
0010
1000
,
0010
0000
0100
0010
0100
0010
0100
0010
0100
0000
0001
0000
0001
0000
0001
0000
,
1000
0010
0100
0001
1000
0100
0010
0001
,
0100
0000
0010
0100
0010
0100
0010
0100
0010
0000
1000
0000
1000
0000
1000
0000
,
0001
0100
0010
1000
0001
0010
0100
1000
,
1000
0001
1000
0001
1000
0001
1000
0001
1000
0001
1000
0001
1000
0001
1000
0001
,
1000
0001
1000
0001
1000
0001
1000
0001
1000
0001
1000
0001
1000
0001
1000
0001
,
0100
0010
0100
0010
0100
0010
0100
0010
0100
0010
0100
0010
0100
0010
0100
0010
,
0100
0010
0100
0010
0100
0010
0100
0010
0100
0010
0100
0010
0100
0010
0100
0010
,
1000
0100
1000
0100
1000
0100
1000
0100
1000
0010
1000
0010
1000
0010
1000
0010
,
0100
0001
0100
0001
0100
0001
0100
0001
0010
0001
0010
0001
0010
0001
0010
0001
,
1000
0010
1000
0010
1000
0010
1000
0010
1000
0100
1000
0100
1000
0100
1000
0100
,
0010
0001
0010
0001
0010
0001
0010
0001
0100
0001
0100
0001
0100
0001
0100
0001
,
1000
0100
1000
0100
1000
0100
1000
0100
0010
0001
0010
0001
0010
0001
0010
0001
,
1000
0010
1000
0010
1000
0010
1000
0010
0100
0001
0100
0001
0100
0001
0100
0001
,
0100
0010
0100
0010
0100
0010
0100
0010
1000
0001
1000
0001
1000
0001
1000
0001
,
0010
0100
0010
0100
0010
0100
0010
0100
1000
0001
1000
0001
1000
0001
1000
0001
,
1000
0010
1000
0010
1000
0010
1000
0010
0100
0000
0100
0010
0100
0010
0100
0010
,
0100
0001
0100
0001
0100
0001
0100
0001
0010
0000
0001
1000
0001
1000
0001
1000
,
0001
0000
0000
0000
1000
0100
0010
0001
1000
0100
0010
0001
1000
0010
0100
0001
,
1000
0010
0100
0001
1000
0100
0010
0001
1000
0010
0100
0001
1000
0001
1000
0001
,
2000
3000
0002
0003
,
0020
0000
0000
0000
,
0000
0000
0000
0000
,
0030
0000
0000
0000
;

//--------------- dance-single - ----------------
#NOTES:
     dance-single:
     :
     Challenge:
     13:
     0,0,0,0,0:
0000
0000
0000
0000
,
0000
0000
0000
0000
,
0000
0000
0000
0000
,
0000
0000
0000
0000
,
1001
0000
1000
0100
0010
0001
1000
0100
0010
0001
1000
0100
0010
0001
1000
0001
,
1001
0000
1000
0010
0100
0001
1000
0010
0100
0001
1000
0010
0100
0001
1000
0001
,
1001
0000
1000
0100
1000
0100
1000
0100
1100
0000
0010
0001
0010
0001
0010
0001
,
0011
0000
1000
0100
0010
0001
0100
0010
1000
0010
0100
0001
0010
0100
1000
0100
,
1000
0100
1000
0100
1000
0010
1000
0010
0100
0010
0100
0010
0100
0001
0100
0001
,
0010
0001
0010
0001
0010
0100
0010
0100
1000
0100
1000
0100
0020
0000
0031
0000
,
1000
0100
1000
0100
0010
0100
0010
0100
0010
0001
0010
0001
0100
0001
0100
0001
,
0100
0010
0100
0010
1000
0010
1000
0010
1000
0100
1000
0100
0020
0000
0031
0000
,
1000
0100
1000
0100
0010
0001
0010
0001
1000
0010
1000
0010
0100
0001
0100
0001
,
1000
0001
1000
0001
0100
0010
0100
0010
1000
0100
1000
0100
0020
0000
0031
0000
,
1000
0100
0010
0001
0010
0100
1000
0010
0100
0001
0100
0010
1000
0000
1000
0000
,
1000
0010
0100
0001
0100
0010
1000
0100
0010
0001
0010
0100
1000
0000
1000
0000
,
2002
3003
1000
0000
1000
0000
0001
0000
1000
0000
0100
0000
0010
0000
0001
0000
,
1000
0010
0100
0001
1000
0001
0100
0010
,
0220
0330
0010
0000
0100
0000
0010
0000
1000
0000
0010
0000
0100
0000
0001
0000
,
1000
0100
0010
0001
1000
0001
0010
0100
,
2200
3300
1000
0000
0022
0033
0001
0000
2020
3030
1000
0000
0202
0303
0001
0000
,
2002
0000
3003
0000
0220
0000
0000
0000
0330
0000
0000
0000
0001
1000
0100
0010
,
0002
0000
0003
0000
0100
1000
0100
0010
0002
0000
0003
0000
0010
1000
0100
0010
,
0001
0100
0010
1000
0100
0010
0100
0010
0002
0000
0003
0000
1000
0000
1000
0000
,
1000
0100
0010
0001
1000
0010
0100
0001
,
1000
0000
0100
0000
0001
0000
0010
0000
1000
0000
0000
0000
1000
0001
0010
0100
,
2000
0000
3000
0000
0010
0001
0010
0100
2000
0000
3000
0000
0100
0001
0010
0100
,
1000
0010
0100
0001
0010
0100
0010
0100
2000
0000
3000
0000
0001
0000
0001
0000
,
1000
0100
0010
0001
1000
0000
0001
0000
1000
0100
0010
0001
0010
0000
0001
0000
,
1000
0100
0010
0001
0100
0010
1000
0100
0010
0100
0010
0100
0010
0100
0010
0100
,
0220
0000
0000
0000
0000
0300
0200
0300
0002
0000
0000
0000
0000
0030
0020
0030
,
2000
0000
0000
0000
0000
3000
0023
0230
2000
0000
0000
0000
0000
0000
0000
0300
,
0002
0000
0000
0000
0000
3000
2003
3200
0020
0000
0000
0000
0000
0000
0000
0030
,
0320
0032
0023
0200
0000
0000
0030
2300
0002
0000
0000
0000
0000
0000
0000
3000
,
2000
0000
0000
0000
0000
0003
3200
0320
0002
0000
0000
0000
0000
0030
0023
0000
,
0200
0000
0000
0000
0000
0030
2300
3020
0200
0000
0000
0000
0000
0000
0000
0330
,
1000
0100
0010
0001
1000
0100
0010
0001
1000
0010
0100
0001
1000
0010
0100
0001
,
1000
0100
0010
0000
0010
0000
0000
0001
0010
0000
0000
0000
1000
0000
0000
0000
,
2200
3300
0000
0000
2020
0000
3030
0000
0220
0000
0000
0000
0330
0000
0000
0000
,
0022
0033
0000
0000
0202
0000
0303
0000
2002
0000
0000
0000
3003
0000
0000
0000
,
1100
0000
1000
0100
0010
0001
0100
0000
,
0011
0000
0001
0010
0100
1000
0010
0000
,
2020
3030
0000
0000
0022
0000
0033
0000
2002
0000
0000
0000
3003
0000
0000
0000
,
0202
0303
0000
0000
2200
0000
3300
0000
0220
0000
0000
0000
0330
0000
0000
0000
,
1000
0100
0010
0000
0001
0010
0100
1000
,
1000
0010
0100
0001
0010
0000
0110
0000
,
1001
0000
0000
0000
0000
0000
0000
0000
0000
0000
0000
0000
0000
0001
1000
0001
,
1000
0001
1000
0001
1000
0001
1000
0001
1000
0100
0010
0001
0010
0100
1000
0100
,
0010
0001
0010
0100
1000
0010
0100
0001
0100
0010
1000
0010
0100
0001
0100
0010
,
1000
0100
0010
0001
1000
0100
0010
0001
1000
0100
0010
0001
1000
0010
0100
0001
,
1000
0010
0100
0001
1000
0010
0100
0001
1000
0100
0010
0001
1000
0010
0100
0001
,
1000
0100
0010
0001
1000
0010
0100
0001
0010
0100
1000
0010
0100
0001
0010
0100
,
1000
0100
0010
0001
0100
0010
1000
0100
0010
0001
0100
0010
1000
0100
0010
0100
,
1000
0001
0010
0100
0010
0001
1000
0100
1000
0010
0100
0010
1000
0001
0100
0010
,
0100
0001
1000
0100
1000
0001
1000
0001
1000
0001
1000
0001
1000
0001
1000
0001
,
1001
0000
0000
0010
0010
0000
0000
0100
,
0100
0000
0000
0000
0000
0000
0100
0010
1000
0000
0100
0000
0010
0000
0001
0000
,
0010
0100
1000
0000
0100
0000
0001
0000
0010
0000
0000
0000
0010
0000
0000
0000
,
0020
0000
0000
0000
0030
0000
1000
0100
,
0010
0001
0100
0010
2000
0000
0000
0000
3001
0000
0000
0000
0001
0000
0010
0000
,
0100
1000
0010
0100
0002
0000
0000
0000
1003
0000
0000
0000
1000
0000
0100
0000
,
0020
0000
0031
0010
0200
0000
1300
0001
,
2002
0000
3003
0000
,
1001
0000
1000
0100
0010
0100
1000
0100
0010
0000
0010
0000
0010
0000
0010
0000
,
1010
1000
1100
0100
0110
0010
0011
0001
,
1001
0000
0001
0010
0100
0010
0001
0010
0100
0000
0100
0000
0100
0000
0100
0000
,
0101
0001
0011
0010
0110
0100
1100
1000
,
1001
0000
1000
0100
0001
0100
1000
0100
0001
0000
0100
0000
1000
0000
1000
0000
,
1100
0100
0101
0001
0011
0010
1010
1000
,
1001
0000
0001
0010
1000
0010
0001
0010
1000
0000
0010
0000
0001
0000
0001
0000
,
0011
0010
1010
1000
1100
0100
0101
0001
,
1000
0001
1000
0001
1000
0001
1000
0001
0100
0010
0100
0010
0100
0010
0100
0010
,
1000
0100
1000
0100
1000
0100
1000
0100
0010
0001
0010
0001
0010
0001
0010
0001
,
1000
0100
1000
0100
0010
0001
0010
0001
1000
0010
1000
0010
0100
0001
0100
0001
,
1000
0000
0000
0001
0000
0000
1000
0000
0000
0001
0000
0000
0100
0000
0000
0010
0000
0000
0100
0000
0000
0010
0000
0000
1000
0000
0001
0000
1000
0000
0001
0000
1000
0000
0001
0000
1000
0000
0001
0000
1000
0000
0001
0000
1000
0000
0001
0000
,
1000
0100
0010
0001
0010
0100
0010
0001
0100
0010
1000
0100
0010
0001
0010
0001
,
1000
0010
0100
0001
0100
0010
0100
0001
0010
0100
1000
0010
0100
0001
0100
0001
,
1000
0100
0010
0001
1000
0100
0010
0001
1000
0010
0100
0001
1000
0010
0100
0001
,
1000
0100
0010
0001
1000
0100
0010
0001
1000
0010
0100
0001
1000
0010
0100
0001
,
1000
0100
0010
0001
0100
0010
0100
0001
0010
0100
1000
0010
0100
0001
0100
0001
,
1000
0010
0100
0001
0010
0100
0010
0001
0100
0010
1000
0100
0010
0001
0010
0001
,
1000
0010
0100
0001
1000
0010
0100
0001
1000
0100
0010
0001
1000
0100
0010
0001
,
1000
0010
0100
0001
1000
0010
0100
0001
1000
0100
0010
0001
1000
0100
0010
0001
,
1000
0100
0010
0001
1000
0010
0100
0001
1000
0000
0000
0000
0001
1000
0001
1000
,
0001
0010
0100
1000
0001
0100
0010
1000
0001
0000
0000
0000
1000
0001
1000
0001
,
1001
0000
0000
0000
1000
0100
0010
0001
0100
0010
1000
0100
0010
0100
1000
0010
,
0100
0001
0010
0100
1000
0010
0100
0010
1000
0100
0010
0001
1000
0100
0010
0001
,
0022
0033
2020
3030
,
2002
0000
0000
0000
,
0000
0000
0000
0000
,
3003
0000
0000
0000
;
