#TITLE:Chromatic Blitz;
#SUBTITLE:;
#ARTIST:Helix Eternal;
#TITLETRANSLIT:;
#SUBTITLETRANSLIT:;
#ARTISTTRANSLIT:;
#GENRE:Hardcore;
#CREDIT:Sync by HellRazoR;
#MUSIC:Chromatic Blitz.ogg;
#BANNER:Chromatic Blitz-bn.png;
#BACKGROUND:Chromatic Blitz-bg.png;
#CDTITLE:;
#SAMPLESTART:31.259;
#SAMPLELENGTH:12.000;
#SELECTABLE:YES;
#OFFSET:-0.031;
#BPMS:0.000=190.000;
#STOPS:;
#DISPLAYBPM:190.000;
#BGCHANGES:0.000=Chromatic Blitz-bg.png=1.000=0=0=1,
32.000=In The Groove Rebirth/318_JB_HD.mpg=1.000=0=0=1,
48.000=In The Groove Rebirth/309_JB_HD.mpg=1.000=0=0=1===SlideRight==,
64.000=In The Groove Rebirth/410_JB_HD.mpg=1.000=0=0=1,
80.000=In The Groove Rebirth/1129_JumpBack.mpg=1.000=0=0=1,
92.000=Chromatic Blitz-bg.png=1.000=0=0=1,
92.750=Chromatic Blitz-bg.png=1.000=0=0=1====0^0^1^1=,
93.500=Chromatic Blitz-bg.png=1.000=0=0=1====0^1^0^1=,
94.250=Chromatic Blitz-bg.png=1.000=0=0=1====1^0^0^1=,
95.000=Chromatic Blitz-bg.png=1.000=0=0=1,
96.000=In The Groove Rebirth/263_JB_HD.mpg=1.000=0=0=1,
112.000=In The Groove Rebirth/261_JB_HD.mpg=1.000=0=0=1,
128.000=In The Groove Rebirth/877_JumpBack.mpg=1.000=0=0=1,
144.000=In The Groove Rebirth/318_JB_HD.mpg=1.000=0=0=1,
160.000=Chromatic Blitz-bg.png=1.000=0=0=1,
164.000=Chromatic Blitz-bg.png=1.000=0=0=1====1^0^0^1=,
164.500=Chromatic Blitz-bg.png=1.000=0=0=1====0^1^0^1=,
165.000=Chromatic Blitz-bg.png=1.000=0=0=1====0^0^1^1=,
165.500=Chromatic Blitz-bg.png=1.000=0=0=1====1^0^0^1=,
166.000=Chromatic Blitz-bg.png=1.000=0=0=1====0^1^0^1=,
166.500=Chromatic Blitz-bg.png=1.000=0=0=1====0^0^1^1=,
167.000=Chromatic Blitz-bg.png=1.000=0=0=1,
168.000=In The Groove Rebirth/263_JB_HD.mpg=2.000=0=0=1,
184.000=In The Groove Rebirth/1129_JumpBack.mpg=2.000=0=0=1,
200.000=In The Groove Rebirth/877_JumpBack.mpg=2.000=0=0=1,
216.000=In The Groove Rebirth/261_JB_HD.mpg=2.000=0=0=1,
232.000=In The Groove Rebirth/309_JB_HD.mpg=1.000=0=0=1=SongBgWithMovieViz====,
248.000=In The Groove Rebirth/302_JB_HD.mpg=1.000=1=0=1=SongBgWithMovieViz==CrossFade==,
259.000=Chromatic Blitz-bg.png=1.000=0=0=1====0^0^1^1=,
260.000=Chromatic Blitz-bg.png=1.000=0=0=1====0^1^0^1=,
261.000=Chromatic Blitz-bg.png=1.000=0=0=1====1^0^0^1=,
262.000=Chromatic Blitz-bg.png=1.000=0=0=1,
264.000=In The Groove Rebirth/410_JB_HD.mpg=1.000=0=0=1,
280.000=In The Groove Rebirth/318_JB_HD.mpg=1.000=0=0=1,
296.000=In The Groove Rebirth/1129_JumpBack.mpg=1.000=0=0=1,
312.000=In The Groove Rebirth/261_JB_HD.mpg=1.000=0=0=1,
328.000=Chromatic Blitz-bg.png=1.000=0=0=1,
99999.000=-nosongbg-=1.000=0=0=0=StretchNoLoop====
;
#BGCHANGES2:32.000=white flash=1.000=0=0=1,
64.000=yellow flash=1.000=0=0=1,
96.000=white flash=1.000=0=0=1,
160.000=white flash=1.000=0=0=1,
168.000=white flash=1.000=0=0=1,
232.000=white flash=0.700=0=0=1,
264.000=yellow flash=1.000=0=0=1,
328.000=white flash=0.500=0=0=1
;
#FGCHANGES:;

//--------------- dance-single - ----------------
#NOTES:
     dance-single:
     :
     Beginner:
     3:
     0,0,0,0,0:
0000
0000
0000
0000
,
0000
0000
0000
0000
,
0000
0000
0000
0000
,
0000
0000
0000
0000
,
0000
0000
0000
0000
,
0000
0000
0000
0000
,
0000
0000
0000
0000
,
0000
0000
0000
0000
,
1000
0000
0000
0100
,
0000
0000
0010
0000
,
0001
0000
0001
0000
,
1000
0000
0000
0000
,
0001
0000
0000
0010
,
0000
0000
0100
0000
,
1000
0000
1000
0000
,
0001
0000
1000
0001
,
1000
0000
0000
0000
0000
0010
0000
0000
,
0200
0000
0302
0000
,
1003
0000
0000
0000
,
0002
0000
0023
0000
,
1030
0000
0000
0000
,
0200
0300
0020
0030
,
0001
0000
0000
0000
,
0100
0000
0000
0000
,
0010
0000
0000
0000
,
1000
0000
0000
0000
,
0100
0000
0000
0000
,
1000
0000
0000
0000
,
1000
0000
0010
0000
,
0100
0000
0001
0000
,
1000
0000
0000
0000
,
0100
0000
0010
0000
,
0001
0000
0000
0000
,
1000
0000
0000
0000
,
0100
0000
0010
0000
,
0100
0000
0000
0000
,
1000
0000
0000
0000
,
0010
0000
0000
0000
,
0100
0000
0010
0000
,
1000
0000
0001
0000
,
2002
0000
0000
0000
0000
0000
0000
0000
0000
0000
0000
0000
0000
0000
0000
3003
,
1000
0000
0001
0000
,
1000
0100
1000
0100
,
0010
0001
0010
0001
,
1000
0010
1000
0010
,
0100
0001
0100
0001
,
0010
0100
0010
0100
,
1000
0001
1000
0001
,
0100
0010
0100
0010
,
1000
0001
1000
0001
,
1000
0100
1000
0010
,
0100
0001
0010
0001
,
1000
0010
1000
0100
,
0010
0001
0100
0001
,
1000
0100
1000
0010
,
0100
0001
0010
0001
,
0100
0010
1000
0100
,
1000
0010
0100
0001
,
1001
0000
0000
0000
,
0000
0000
0000
0000
,
0110
0000
0000
0000
,
2000
3200
0320
0032
,
2003
0000
0000
0000
,
3200
0000
0000
0000
,
0320
0000
0000
0000
0000
0000
0032
0003
,
2000
0000
0000
0000
0000
0000
0000
0000
3000
0000
0000
0000
0000
0000
0000
0000
2000
0000
0000
0000
0000
0000
0000
0000
0000
0000
0000
0000
3000
0000
0000
0000
2000
0000
0000
0000
0000
0000
0000
0000
0000
0000
0000
0000
0000
0000
3000
0000
2000
0000
0000
0000
0000
0000
0000
0000
0000
0000
0000
0000
0000
0000
0000
3000
,
1001
0000
0000
0100
,
0000
0000
0010
0000
,
0001
0000
0010
0000
,
0100
0000
1000
0000
,
0001
0000
0000
0100
,
0000
0000
0010
0000
,
1000
0000
0010
0000
,
0100
0000
0001
0000
,
1000
0000
0000
0100
,
0000
0000
0010
0000
,
0001
0000
0100
0000
,
0010
0000
1000
0000
,
0001
0000
0000
0010
,
0000
0000
0100
0000
,
1000
0000
0010
0000
,
0100
0000
0001
0001
,
2002
0000
0000
0000
,
0000
0000
0000
0000
,
0000
0000
0000
0000
,
0000
0000
0000
0000
,
3003
0000
0000
0000
;

//--------------- dance-single - ----------------
#NOTES:
     dance-single:
     :
     Easy:
     9:
     0,0,0,0,0:
0000
0000
0000
0000
,
0000
0000
0000
0000
,
0000
0000
0000
0000
,
0000
0000
0000
0000
,
0000
0000
0000
0000
,
0000
0000
0000
0000
,
0000
0000
0000
0000
,
0000
0000
0000
0000
,
1100
0100
0010
0001
,
0100
0010
1000
0100
,
0010
0010
0010
0010
,
0100
0001
0010
0000
0001
0010
0100
0000
,
1000
0010
0100
0001
,
0010
0100
1000
0010
,
0100
0100
0100
0100
,
0001
0010
0100
0000
1000
0010
0100
0001
,
1001
0000
0100
0000
0000
0010
0000
0000
,
2000
0000
0000
0000
0000
0000
0000
0000
0000
0000
0000
0000
0000
0000
0000
0000
0000
0000
0000
0000
0000
0000
0000
0000
0000
0000
0000
0000
0000
0000
0000
0000
0000
0000
0000
0000
0000
0000
0000
0000
0000
0000
0000
0000
0000
0000
0000
3000
2000
0000
0000
0000
0000
0000
0000
0000
0000
0000
0000
0000
0000
0000
0000
0000
0000
0000
0000
0000
0000
0000
0000
0000
0000
0000
0000
0000
0000
0000
0000
0000
0000
0000
0000
0000
0000
0000
0000
0000
0000
0000
0000
0000
0000
0000
0000
3000
2000
0000
0000
0000
0000
0000
0000
0000
0000
0000
0000
0000
0000
0000
0000
0000
0000
0000
0000
0000
0000
0000
0000
0000
0000
0000
0000
0000
0000
0000
0000
0000
0000
0000
0000
0000
0000
0000
0000
0000
0000
0000
0000
0000
0000
0000
0000
3000
2000
0000
0000
0000
0000
0000
0000
0000
0000
0000
0000
0000
0000
0000
0000
0000
0000
0000
0000
0000
0000
0000
0000
0000
0000
0000
0000
0000
0000
0000
0000
0000
0000
0000
0000
0000
0000
0000
0000
0000
0000
0000
0000
0000
0000
0000
0000
3000
,
1000
0010
0100
0001
,
2000
3020
0032
0203
,
1300
0010
0100
0001
,
1000
0100
1000
0000
0001
0100
0001
0000
,
1000
0010
0100
0001
,
1000
0000
0000
0100
0000
0000
0010
0000
,
0001
0100
0010
1000
,
1000
0100
0010
0100
,
1000
0010
0100
0010
,
1000
0000
0000
0010
0000
0000
0100
0000
,
1000
0010
0100
0010
,
1000
0100
0010
0001
,
1000
0010
0100
0001
,
1000
0100
0010
0000
0100
0010
0001
0000
,
1000
0010
0000
0100
,
0001
0000
0010
0000
,
0100
1000
0100
0100
,
0010
0000
0001
0100
0001
0000
1000
0100
,
1000
0010
0100
0001
,
0010
0100
1000
0001
,
1000
0010
0100
0010
,
1000
0100
1000
0000
0001
0100
0001
0000
,
2002
0000
0000
0000
0000
0000
0000
0000
0000
0000
0000
0000
0000
0000
0000
3003
,
1000
0100
0010
0001
,
1000
0100
1000
0010
0100
0001
0010
0001
,
1000
0010
1000
0100
0010
0001
0100
0001
,
1000
0100
1000
0010
0100
0001
0010
0001
,
0100
0010
1000
0100
1000
0010
0100
0001
,
1000
0010
1000
0100
0010
0001
0100
0001
,
0010
0100
1000
0010
1000
0100
0010
0001
,
0010
0001
0100
0010
1000
0100
1000
0001
,
0100
0001
0010
0100
1000
0010
1000
0001
,
0010
0001
0010
0001
0100
0010
1000
0100
,
1000
0010
0100
0001
0010
0001
1000
0010
,
0100
0001
0100
0001
0010
0100
1000
0010
,
1000
0100
0010
0001
0100
0001
1000
0100
,
1000
0010
1000
0001
0010
0100
0010
0001
,
1000
0010
0100
0001
0010
0100
1000
0001
,
1000
0100
1000
0001
0100
0010
0100
0001
,
1000
0100
0010
0001
0100
0010
1000
0001
,
1001
0000
0000
0000
,
0000
0000
0000
0000
,
0110
0000
0000
0000
,
2000
3200
0320
0032
,
2003
0000
0000
0000
,
3020
0000
0000
0000
,
0230
0000
0000
0000
0000
0000
0000
0000
0000
0000
0000
0000
0000
0000
0000
0000
0000
0000
0000
0000
0000
0000
0000
0000
0302
0000
0000
0000
0000
0000
0000
0003
,
0002
0000
0000
0000
0000
0000
0000
0000
0000
0000
0000
0000
0000
0000
0000
0000
0000
0000
0000
0000
0000
0000
0000
0000
0000
0000
0000
0000
0000
0000
0000
0000
0000
0000
0000
0000
0000
0000
0000
0000
0000
0000
0000
0000
0003
0000
0000
0000
0002
0000
0000
0000
0000
0000
0000
0000
0000
0000
0000
0000
0000
0000
0000
0000
0000
0000
0000
0000
0000
0000
0000
0000
0000
0000
0000
0000
0000
0000
0000
0000
0000
0000
0000
0000
0000
0000
0000
0000
0000
0000
0000
0000
0000
0003
0000
0000
0002
0000
0000
0000
0000
0000
0000
0000
0000
0000
0000
0000
0000
0000
0000
0000
0000
0000
0000
0000
0000
0000
0000
0000
0000
0000
0000
0000
0000
0000
0000
0000
0000
0000
0000
0000
0000
0000
0000
0000
0000
0000
0000
0000
0000
0000
0003
0000
0002
0000
0000
0000
0000
0000
0000
0000
0000
0000
0000
0000
0000
0000
0000
0000
0000
0000
0000
0000
0000
0000
0000
0000
0000
0000
0000
0000
0000
0000
0000
0000
0000
0000
0000
0000
0000
0000
0000
0000
0000
0000
0000
0000
0000
0000
0000
0003
,
1001
0100
0010
0001
,
0100
0010
1000
0100
,
1000
0010
0100
0001
,
0010
0001
0100
0010
1000
0100
1000
0000
,
0001
0010
0100
1000
,
0010
0100
0001
0010
,
0001
0100
0010
1000
,
0100
1000
0010
0100
0001
0010
0001
0000
,
1000
0100
0010
0100
,
1000
0010
0100
0010
,
1000
0100
0010
0001
,
1000
0100
1000
0010
0100
0001
0010
0000
,
0001
0010
0100
0010
,
0001
0100
0010
0100
,
0001
0010
0100
1000
,
0001
0010
0001
0100
0001
0010
0100
1000
,
2002
0000
0000
0000
,
0000
0000
0000
0000
,
0000
0000
0000
0000
,
0000
0000
0000
0000
,
3003
0000
0000
0000
;

//--------------- dance-single - ----------------
#NOTES:
     dance-single:
     :
     Medium:
     12:
     0,0,0,0,0:
0000
0000
0000
0000
,
0000
0000
0000
0000
,
0000
0000
0000
0000
,
0000
0000
0000
0000
,
1000
0000
0000
0100
,
0000
0000
0010
0000
,
0001
0000
0000
0000
,
1000
0000
0001
0000
1000
0100
0010
0001
,
1001
0100
0010
0100
,
1000
0010
0100
0001
,
0010
0100
0010
0100
,
1000
0010
0100
0001
,
1000
0010
0100
0010
,
1000
0100
0010
0001
,
0100
0010
0100
0010
,
1000
0000
0100
0000
0010
0001
0100
0010
,
1000
0100
0010
0001
,
1000
1000
1000
1000
1000
1000
1000
1000
,
1000
0010
0100
0001
,
2000
3200
0302
0023
,
1030
0100
0010
0100
,
1000
0100
0010
0000
0001
0010
0100
0000
,
1000
0010
0100
0001
,
1000
0100
1000
0100
1000
0100
1000
0100
,
1000
0010
0100
0001
,
0100
0010
0100
0010
,
1000
0100
0010
0100
,
1000
0000
0000
0001
0000
0000
1000
0000
,
1000
0010
0100
0010
,
1000
0100
0010
0100
,
1000
0010
0100
0001
,
1000
0100
0010
0001
1000
0100
0010
0001
,
1000
0010
0100
0010
,
0001
0010
0100
0010
,
1000
0100
0010
0100
,
0001
0100
0010
0100
,
1000
0010
0100
0001
,
0010
0100
0010
0001
,
1000
0010
0100
0010
,
1000
0100
0010
0001
,
2002
0000
0000
0000
0000
0000
0000
0000
0000
0000
0000
0000
0000
0000
0000
3003
,
2002
3003
0220
0330
,
1000
0100
1000
0100
1000
0100
1000
0100
1000
0100
1000
0100
1000
0100
1000
0100
,
1000
0100
1000
0100
1000
0100
1000
0100
1000
0100
1000
0100
1000
0100
1000
0100
,
0010
0001
0010
0001
0010
0001
0010
0001
0010
0001
0010
0001
0010
0001
0010
0001
,
0010
0001
0010
0001
0010
0001
0010
0001
0010
0001
0010
0001
0010
0001
0010
0001
,
1000
0010
1000
0010
1000
0010
1000
0010
1000
0010
1000
0010
1000
0010
1000
0010
,
1000
0010
1000
0010
1000
0010
1000
0010
1000
0010
1000
0010
1000
0010
1000
0010
,
0100
0001
0100
0001
0100
0001
0100
0001
0100
0001
0100
0001
0100
0001
0100
0001
,
0100
0001
0100
0001
0100
0001
0100
0001
0100
0001
0100
0001
0100
0001
0100
0001
,
1000
0001
1000
0001
1000
0001
1000
0001
1000
0001
1000
0001
1000
0001
1000
0001
,
1000
0001
1000
0001
1000
0001
1000
0001
1000
0001
1000
0001
1000
0001
1000
0001
,
0100
0010
0100
0010
0100
0010
0100
0010
0100
0010
0100
0010
0100
0010
0100
0010
,
0100
0010
0100
0010
0100
0010
0100
0010
0100
0010
0100
0010
0100
0010
0100
0010
,
1000
0001
1000
0001
1000
0001
1000
0001
1000
0001
1000
0001
1000
0001
1000
0001
,
1000
0001
1000
0001
1000
0001
1000
0001
1000
0001
1000
0001
1000
0001
1000
0001
,
0010
0100
0010
0100
0010
0100
0010
0100
0010
0100
0010
0100
0010
0100
0010
0100
,
0010
0100
0010
0100
0010
0100
0010
0100
0010
0100
0010
0100
0010
0100
0010
0100
,
1001
0000
0000
0000
,
0000
0000
0000
0000
,
0110
0000
0000
0000
,
2000
3200
0302
0203
2300
3020
0032
0023
,
2030
0000
0000
3200
0000
0000
0000
0000
,
0320
0032
0203
0000
,
0320
0000
0000
0000
0000
0000
0000
0000
0000
0000
0000
0000
0000
0000
0000
0000
0000
0000
0000
0000
0000
0000
0000
0000
2030
0000
0000
0000
0000
0000
0000
0000
0000
0000
0000
0000
0000
0000
0000
0000
0000
0000
0000
0000
0000
0000
0000
0000
3002
0000
0000
0000
0000
0000
0000
0000
0000
0000
0000
0000
0000
0000
0000
0003
,
0002
0000
0000
0000
0000
0000
0000
0000
0000
0000
0000
0000
0000
0000
0000
0003
0002
0000
0000
0000
0000
0000
0000
0000
0000
0000
0000
0000
0000
0000
0000
0003
0002
0000
0000
0000
0000
0000
0000
0000
0000
0000
0000
0000
0000
0000
0000
0003
0002
0000
0000
0000
0000
0000
0000
0000
0000
0000
0000
0000
0000
0000
0000
0003
,
1001
0100
0000
0001
,
0100
0000
0100
0000
,
2000
3020
0230
0302
,
1003
0010
1000
0010
1000
0010
1000
0010
,
1000
0100
0000
0001
,
0100
0000
0100
0000
,
0010
0100
1000
0001
,
1000
0100
1000
0010
0100
0001
0010
0001
,
1000
1000
0000
0100
,
0010
0000
0001
0000
,
0100
0010
0100
0010
,
1000
0100
0010
0001
1000
0010
0100
0001
,
1000
0100
0000
0001
,
0100
0000
1000
0000
,
0002
0000
0000
0000
,
0000
0000
0000
0000
0000
0000
0000
0000
1003
0100
0010
0001
1000
0010
0100
0001
,
0022
0000
0000
0000
,
0000
0000
0000
0000
,
0000
0000
0000
0000
,
0000
0000
0000
0000
,
0033
0000
0000
0000
;

//--------------- dance-single - ----------------
#NOTES:
     dance-single:
     :
     Hard:
     13:
     0,0,0,0,0:
1001
0000
0000
0110
,
0000
0000
0000
0000
1001
0000
0000
0001
,
1000
0100
0010
0001
0100
0010
1000
0000
,
0001
0010
0100
1000
,
0110
0000
0000
1001
,
0000
0000
0000
0000
0110
0000
0000
0001
,
1000
0010
0100
0001
0010
0100
1000
0001
,
0100
0010
0100
0010
0100
0001
0010
0100
1000
0100
0010
0001
1000
0100
0010
0001
,
1001
0100
0100
0110
,
0001
0000
0001
0000
1001
0000
0010
0100
,
1000
0010
0100
0001
0010
0001
0100
0000
,
0010
0000
1000
1000
1000
0001
1000
0000
,
0110
1000
1000
1001
,
0100
0000
0100
0000
0110
0000
0000
1000
,
1000
0100
0010
0001
0100
0010
1000
0001
,
1000
0100
0010
0001
1000
0010
0100
0001
,
0010
0001
0100
0000
0000
0010
0100
0000
,
1000
1000
1000
1000
1000
1000
1000
1000
,
1000
0000
0010
0000
0100
0001
0010
0100
,
4000
0400
0000
3000
0340
0004
0000
0030
4003
0040
0000
3000
0430
0004
0000
0300
,
1003
0100
0010
0000
0000
0001
0010
0100
,
1000
0100
1000
0100
1000
0000
0100
0000
0001
0100
0001
0100
0001
0000
0100
0000
,
1000
0010
0100
0001
0010
0100
1000
0001
,
1000
0000
0000
0100
0000
0000
0010
0000
0000
0001
0000
0000
0100
0000
0010
0000
,
1000
0100
0010
0000
0001
0001
1000
0010
,
0100
0000
0001
0000
1000
0100
0010
0100
,
1000
0010
0100
0010
1000
0001
0100
0000
,
0010
0000
0000
0010
0000
0000
0010
0000
0000
0010
0000
0000
0010
0000
0010
0000
,
1000
0100
0010
0001
0000
0000
1000
0010
,
0100
0001
0000
0000
0100
0010
0000
0010
,
1000
0100
0010
0001
0100
0010
1000
0001
,
1000
0100
1000
0100
0010
0001
0010
0001
1000
0010
1000
0010
0100
0001
0100
0001
,
1000
0100
0010
0000
0001
0001
0100
0010
,
0100
0001
0001
0010
0100
1000
0100
0100
,
1000
0010
0100
0001
1000
0100
0010
0000
,
0001
0010
0100
0100
0100
0001
0010
0100
,
1000
0010
0100
0010
0000
0000
1000
0100
,
0010
0100
0000
0000
1000
0010
0100
0001
,
1000
1000
0001
0001
0100
0100
0010
0010
,
1000
0100
0010
0001
1000
0010
0100
0001
,
2002
0000
0000
0000
0000
0000
0000
0000
0000
0000
0000
0000
0000
0000
0000
3003
,
1000
0100
0010
0001
0100
0010
1000
0001
,
1000
0100
1000
0010
0100
0001
0010
0001
1000
0010
1000
0100
0010
0001
0100
0001
,
1000
0100
1000
0010
0100
0001
0010
0001
0100
0010
1000
0100
1000
0010
0100
0001
,
1000
0010
1000
0100
0010
0001
0100
0001
0010
0100
1000
0010
1000
0100
0010
0001
,
0010
0001
0100
0010
1000
0100
1000
0001
0100
0001
0010
0100
1000
0010
1000
0001
,
0010
0001
0010
0001
0100
0010
1000
0100
1000
0010
0100
0001
0010
0001
1000
0010
,
0100
0001
0100
0001
0010
0100
1000
0010
1000
0100
0010
0001
0100
0001
1000
0100
,
1000
0010
1000
0001
0010
0100
0010
0001
1000
0010
0100
0001
0010
0100
1000
0001
,
1000
0100
1000
0001
0100
0010
0100
0001
1000
0100
0010
0001
0100
0010
1000
0001
,
1000
0100
0010
0100
1000
0010
0100
0001
0010
0100
0010
0100
1000
0010
0100
0001
,
1000
0010
0100
0010
1000
0100
0010
0001
0100
0010
0100
0010
1000
0100
0010
0001
,
0100
0001
0010
0001
0100
0010
1000
0100
1000
0010
0100
0001
0010
0001
1000
0100
,
0010
0001
0100
0001
0010
0100
1000
0010
1000
0100
0010
0001
0100
0001
1000
0010
,
0100
0001
0010
0100
0010
0001
0100
0010
0100
0001
0010
0100
1000
0010
0100
0001
,
0010
0001
0100
0010
0100
0001
0010
0100
0010
0001
0100
0010
1000
0100
0010
0001
,
1000
0100
1000
0010
0100
0001
0010
0001
1000
0010
1000
0100
0010
0001
0100
0001
,
1000
0100
0010
0001
0100
0010
1000
0100
0010
0001
0100
0010
1000
0100
0010
0001
,
1001
0000
0000
0000
,
0000
0000
0000
0000
,
0110
0000
0000
0000
,
1000
0100
0010
0001
1000
0010
0100
0001
,
0020
0000
0000
0230
0000
0000
0000
0000
,
2300
0000
3020
0230
0302
2003
0000
0000
,
3020
0000
0000
0000
0000
0000
0000
0000
0230
0000
0000
0000
0000
0000
0000
0000
0000
0000
0000
0000
0000
0000
0000
0000
2300
0000
0000
0000
0000
0000
0000
0000
3002
0000
0000
0000
0000
0000
0000
0000
0000
0000
0000
0000
0000
0000
0000
1003
0002
0000
0000
0000
0000
0000
0000
0000
0000
0000
0000
0000
0000
0000
0000
1003
,
0002
0000
0000
0000
0000
0000
0000
0000
0000
0000
0000
0000
0000
0000
0000
1003
0002
0000
0000
0000
0000
0000
0000
0000
0000
0000
0000
0000
0000
0000
0000
1003
0002
0000
0000
0000
0000
0000
0000
0000
0000
0000
0000
0000
0000
0000
0000
0000
0200
0000
0000
0000
0000
0000
0000
0000
0000
0000
0000
0000
0000
0000
0000
0303
,
1001
0100
0010
0001
0000
0000
1000
0010
,
0100
0000
0000
0000
0001
0010
0000
0100
,
1000
0010
0100
0001
1000
0100
0010
0001
,
1000
0100
0010
0100
1000
0100
0010
0100
,
1000
0010
0100
0001
0000
0000
1000
0100
,
0010
0000
0000
0000
0001
0100
0000
0010
,
1000
0100
0010
0001
1000
0010
0100
0001
,
1000
0010
0100
0010
1000
0010
0100
0010
,
1000
0000
0100
0000
0010
0000
0100
0000
1000
0001
1000
0001
1000
0000
0010
0000
,
0100
0000
0010
0000
1000
0001
1000
0001
1000
0000
0100
0000
0010
0000
0001
0000
,
0100
0100
0010
0010
1000
0100
0010
0001
,
1000
0100
0000
0100
0010
0000
0010
0001
0000
0001
0100
0000
0100
0010
0000
0010
,
1000
0000
0100
0000
0010
0100
0010
0100
0010
0000
0100
0000
1000
0000
0010
0000
,
0100
0010
0100
0010
0100
0000
0010
0000
1000
0000
0001
0000
0010
0100
0010
0100
,
1000
0010
0100
0001
1000
0100
0010
0001
,
0100
0010
0100
0001
0010
0100
1000
0010
1000
0100
0010
0001
0100
0010
0001
1000
,
0220
0000
0000
0000
,
0000
0000
0000
0000
,
0000
0000
0000
0000
,
0000
0000
0000
0000
,
0330
0000
0000
0000
;

//--------------- dance-single - ----------------
#NOTES:
     dance-single:
     :
     Challenge:
     15:
     0,0,0,0,0:
1001
0000
0010
0000
0101
0000
1000
0100
0000
0100
0001
0000
0110
0000
0001
0000
,
1010
0100
0001
0010
1000
0100
0010
0001
,
0100
0100
0010
0010
0100
0100
0010
0010
,
1000
0100
1000
0100
1000
0100
1000
0100
1000
0100
1000
0100
1000
0100
1000
0100
,
0010
0001
0010
0001
0010
0001
0010
0001
0010
0001
0010
0001
0010
0001
0010
0001
,
1000
0010
1000
0010
1000
0010
1000
0010
1000
0010
1000
0010
1000
0010
1000
0010
,
0100
0001
0100
0001
0100
0001
0100
0001
0100
0001
0100
0001
0100
0001
0100
0001
,
1000
0000
0000
0100
0000
0000
0010
0000
0000
0001
0000
0000
0100
0000
0000
0010
0000
0000
1000
0000
0000
0001
0000
0000
1000
0000
0100
0000
0010
0000
0100
0000
1000
0000
0100
0000
0010
0000
0001
0000
0010
0000
0100
0000
0010
0000
0001
0000
,
1001
0000
0100
0010
0100
0000
0001
0010
0100
0010
0100
1000
0010
0000
0010
0000
,
1001
0000
0100
0000
0001
0010
0100
0010
1000
0000
1000
0000
0110
0000
0001
0000
,
1010
0100
0011
1000
0110
0001
1010
0100
,
1000
0010
1000
0010
1000
0000
0010
0001
0010
0001
0010
0001
0010
0000
0100
0010
,
1000
0000
0001
0000
0100
0010
0100
0001
0010
0100
1000
0001
0100
0000
0010
0000
,
1000
0000
0100
0000
0010
0001
0010
0001
0100
0000
0100
0000
0100
0000
0010
0000
,
1000
0100
0010
0001
0100
0010
1000
0010
0100
0001
0010
0100
1000
0010
0100
0001
,
1000
0100
0010
0001
1000
0010
0100
0010
1000
0100
0001
0100
1000
0010
0001
0010
,
1000
0100
0010
0001
0100
0010
1000
0000
0100
0000
0010
0000
0001
0000
0000
0000
,
1000
0100
0010
0001
0100
0010
1000
0100
0010
0001
0100
0010
1000
0100
0010
0001
,
1000
0000
0010
0000
0110
0000
0001
0010
0100
0010
0001
0000
0010
0000
0100
0000
,
1000
0100
1000
0100
1000
0100
0010
0001
0010
0001
0010
0001
1000
0010
1000
0010
1000
0010
0100
0001
0100
0001
0100
0001
,
1000
0010
0100
0001
0010
0000
0001
0000
0110
0000
0110
0000
1000
0000
0001
0000
,
1000
0100
0001
0100
1000
0000
0110
0000
0001
0100
1000
0100
0001
0000
0110
0000
,
1000
0010
0100
0100
1000
0100
0010
0010
,
1000
0100
0010
0100
1000
0100
0010
0001
0010
0100
0010
0100
1000
0100
0010
0001
,
1000
0000
0001
0000
0100
0010
0100
0001
1000
0100
0010
0001
0100
0010
1000
0000
,
0100
0000
0010
0000
1000
0000
0001
0000
0100
0000
0100
0000
0010
0100
0010
0100
,
1000
0010
0110
0001
1000
0100
0110
0001
,
1000
0100
1000
0000
0000
0000
0100
0010
0100
0000
0000
0000
0010
0001
0010
0000
0000
0000
0001
0100
0001
0000
0000
0000
0100
0000
0000
0000
0010
0000
0100
0000
,
1000
0010
0110
0001
0110
0011
0101
0110
,
1000
0000
0010
0000
0100
0001
0100
0001
1000
0000
1000
0000
0010
0001
0100
0010
,
1000
0100
1000
0100
0010
0001
0010
0001
1000
0010
1000
0010
0100
0001
0100
0001
,
1000
0100
0010
0100
1000
0010
0100
0001
0010
0100
0010
0100
1000
0010
0100
0001
,
1001
0000
0100
0000
0011
0000
0100
0000
1000
0100
1000
0100
1000
0010
1000
0010
,
1000
0100
0001
0001
0010
0001
0100
0100
,
1000
0010
1000
0000
0001
0010
0001
0000
1000
0100
1000
0000
0001
0100
0001
0000
,
1000
0010
0100
0001
0010
0100
1000
0000
0001
0100
0010
1000
0100
0010
0001
0000
,
1000
0100
0010
0001
0010
0100
1000
0100
0010
0001
0010
0100
1000
0100
0010
0001
,
1000
0010
0100
0001
0100
0010
1000
0010
0100
0001
0100
0010
1000
0010
0100
0001
,
1000
0100
0010
0001
1000
0100
0010
0001
1000
0010
0100
0001
1000
0010
0100
0001
,
1000
0000
0000
0100
0000
0000
1000
0000
0000
0010
0000
0000
0100
0000
0000
0001
0000
0000
0010
0000
0000
0001
0000
0000
1000
0000
0010
0000
0100
0000
0010
0000
1000
0000
0010
0000
0100
0000
0001
0000
0100
0000
0010
0000
0100
0000
0001
0000
,
2002
0000
0000
0000
0000
0000
0000
0000
0000
0000
0000
0000
0000
0000
0000
3003
,
1001
0110
1001
0110
1001
0110
1001
0110
,
0001
0010
0001
0100
0010
1000
0100
1000
0001
0100
0001
0010
0100
1000
0010
1000
,
0001
0010
0001
0100
0010
1000
0100
1000
0010
0100
0001
0010
0001
0100
0010
1000
,
0001
0100
0001
0010
0100
1000
0010
1000
0100
0010
0001
0100
0001
0010
0100
1000
,
0100
1000
0010
0100
0001
0010
0001
1000
0010
1000
0100
0010
0001
0100
0001
1000
,
0100
1000
0100
1000
0010
0100
0001
0010
0001
0100
0010
1000
0100
1000
0001
0100
,
0010
1000
0010
1000
0100
0010
0001
0100
0001
0010
0100
1000
0010
1000
0001
0010
,
0001
0100
0001
1000
0100
0010
0100
1000
0001
0100
0010
1000
0100
0010
0001
1000
,
0001
0010
0001
1000
0010
0100
0010
1000
0001
0010
0100
1000
0010
0100
0001
1000
,
0001
0010
0100
0010
0001
0100
0010
1000
0100
0010
0100
0010
0001
0100
0010
1000
,
0001
0100
0010
0100
0001
0010
0100
1000
0010
0100
0010
0100
0001
0010
0100
1000
,
0010
1000
0100
1000
0010
0100
0001
0010
0001
0100
0010
1000
0100
1000
0001
0010
,
0100
1000
0010
1000
0100
0010
0001
0100
0001
0010
0100
1000
0010
1000
0001
0100
,
0010
1000
0100
0010
0100
1000
0010
0100
0010
1000
0100
0010
0001
0100
0010
1000
,
0100
1000
0010
0100
0010
1000
0100
0010
0100
1000
0010
0100
0001
0010
0100
1000
,
0001
0010
0001
0100
0010
1000
0100
1000
0001
0100
0001
0010
0100
1000
0010
1000
,
0001
0010
0100
1000
0010
0100
0001
0010
0100
1000
0010
0100
0001
0010
0100
1000
,
1001
0000
0000
0000
0000
0000
0000
0000
0110
0000
0000
0000
0000
0000
0000
0000
0011
0000
0000
0000
0000
0000
0000
0000
0110
0000
0000
0000
0000
1000
0000
0000
,
0100
0000
0000
0000
0000
0010
0000
0000
0001
0000
0000
0000
0000
0000
0000
0000
0100
0000
0000
0000
0000
0010
0000
0000
0000
0000
0000
0000
0000
0010
0000
0000
,
1001
0000
0000
0000
0000
0000
0000
0000
1000
0000
0000
0000
0000
0000
0000
0000
0110
0000
0000
0000
0000
0001
0000
0000
0010
0000
0000
0000
0000
0100
0000
0000
,
2000
0000
0020
3000
0002
0030
0020
0003
2000
0030
0200
3000
0002
0300
0200
0003
,
2300
0000
0000
3200
0000
0000
0000
0000
,
0320
0000
0032
0203
0320
2030
0000
0000
,
3020
0000
0000
0000
0000
0000
0000
0000
0230
0000
0000
0000
0000
0000
0000
0000
0000
0000
0000
0000
0000
0000
0000
0000
0302
0000
0000
0000
0000
0000
0000
0000
0023
0000
0000
0000
0000
0000
0000
0000
0000
0000
0000
0000
0000
0000
0030
0000
2200
0000
0000
0000
0000
0000
0000
0000
0000
0000
0000
0000
0000
0000
0000
3300
,
2200
0000
0000
0000
0000
0000
0000
0000
0000
0000
0000
0000
0000
0000
0000
3300
2200
0000
0000
0000
0000
0000
0000
0000
0000
0000
0000
0000
0000
0000
0000
3300
2200
0000
0000
0000
0000
0000
0000
0000
0000
0000
0000
0000
0000
0000
0000
3300
2002
0000
0000
0000
0000
0000
0000
0000
0000
0000
0000
0000
0000
0000
0000
3003
,
1000
0100
0010
0100
1000
0010
0100
0001
0010
0100
0010
0100
1000
0010
0100
0001
,
1000
0010
0100
0010
1000
0100
0010
0001
0100
0010
0100
0010
1000
0100
0010
0001
,
1000
0100
1000
0100
0010
0001
0010
0001
1000
0010
1000
0010
0100
0001
0100
0001
,
0010
0100
0010
0100
1000
0001
1000
0001
0100
0010
0100
0010
1000
0001
1000
0001
,
1000
0100
0010
0100
1000
0100
0010
0001
0010
0100
0010
0100
1000
0100
0010
0001
,
1000
0010
0100
0010
1000
0010
0100
0001
0100
0010
0100
0010
1000
0010
0100
0001
,
1000
0010
1000
0010
0100
0001
0100
0001
1000
0100
1000
0100
0010
0001
0010
0001
,
0100
0010
0100
0010
1000
0001
1000
0001
0010
0100
0010
0100
1000
0001
1000
0001
,
1000
0100
0010
0100
1000
0100
0010
0001
0100
0010
0100
0010
1000
0010
0100
0001
,
1000
0010
0100
0010
1000
0010
0100
0001
0010
0100
0010
0100
1000
0100
0010
0001
,
1000
0100
1000
0100
1000
0010
1000
0010
0100
0001
0100
0001
0010
0001
0010
0001
,
1000
0001
1000
0001
0100
0010
0100
0010
1000
0001
1000
0001
0010
0100
0010
0100
,
1000
0010
0100
0010
1000
0100
0010
0001
0010
0100
0010
0100
1000
0010
0100
0001
,
1000
0100
0010
0100
1000
0010
0100
0001
0100
0010
0100
0010
1000
0100
0010
0001
,
1000
0010
1000
0010
1000
0100
1000
0100
0010
0001
0010
0001
0100
0001
0100
0001
,
0010
0100
0010
0100
1000
0001
1000
0001
1000
0100
0010
0001
1000
0100
0010
0001
,
2002
0000
0000
0000
,
0000
0000
0000
0000
,
0000
0000
0000
0000
,
0000
0000
0000
0000
,
3003
0000
0000
0000
;
