#TITLE:Chimera;
#SUBTITLE:;
#ARTIST:YAHPP;
#TITLETRANSLIT:;
#SUBTITLETRANSLIT:;
#ARTISTTRANSLIT:;
#GENRE:;
#CREDIT:;
#MUSIC:Chimera.ogg;
#BANNER:Chimera-bn.png;
#BACKGROUND:Chimera-bg.png;
#CDTITLE:;
#SAMPLESTART:14.899;
#SAMPLELENGTH:28.286;
#SELECTABLE:YES;
#OFFSET:-0.506;
#BPMS:0.000=420.000
,3.250=210.000
,76.000=105.000
,78.000=210.000
,262.000=105.000
,264.000=210.000
,352.000=52.500
;
#STOPS:;
#DISPLAYBPM:52.500:210.000;
#BGCHANGES:;
#FGCHANGES:;

//--------------- dance-single - ----------------
#NOTES:
     dance-single:
     :
     Beginner:
     6:
     0,0,0,0,0:
0000
0000
0000
0000
,
0000
0000
0000
0000
,
0000
0000
0000
0000
,
0000
0000
0000
0000
,
0000
0000
0000
0000
,
1000
0000
0000
0000
,
1000
0000
0000
0000
,
0100
0000
0000
0000
,
0100
0000
0000
0000
,
0010
0000
0000
0000
,
0010
0000
0000
0000
,
0001
0000
0000
0000
,
0001
0000
0000
0000
,
1000
0000
0100
0000
,
1000
0000
0100
0000
,
0010
0001
0010
0001
,
0010
0001
0000
0000
,
1000
0010
1000
0010
,
1000
0010
0000
0000
,
1001
0000
1001
0000
,
1000
0000
1000
0000
,
1000
0000
1000
0000
,
0000
0000
1000
0000
,
0100
0000
0010
0000
,
0000
0000
0001
0000
,
0010
0000
0100
0000
,
0000
0000
1000
0010
,
0100
0001
1000
0000
,
0000
0000
0001
0100
,
0010
1000
0001
0000
,
0000
0000
1000
0000
,
1000
0000
0100
0000
,
0100
0000
0010
0000
,
0010
0000
0001
0000
,
0000
0000
1000
0000
,
0000
0000
0001
0000
,
0000
0000
2002
0000
,
3003
0000
0010
0010
,
0010
0010
0020
0000
,
0030
0000
0100
0100
,
0100
0100
0200
0000
,
0300
0000
1000
0000
,
0100
0000
0010
0000
,
0001
0000
1000
0000
,
0010
0000
0100
0000
,
0001
0000
1000
0000
,
0001
0000
1000
0000
,
0001
0000
1000
0000
,
0000
0000
1000
0100
,
0010
0001
1000
0010
,
0100
0001
1000
0000
,
0000
0000
1000
0000
,
0000
0000
2002
3003
,
0000
0000
2002
3003
,
0000
0000
2002
3003
,
0000
0000
2002
3003
,
0000
0000
2002
3003
,
0000
0000
0000
0000
,
0000
0000
0000
0000
,
0000
0000
1000
0000
,
0100
0000
0010
0000
,
0001
0000
1000
0100
,
0001
0100
1000
0001
,
0000
0000
0001
0100
,
1000
0100
0001
1000
,
0000
0000
1001
0000
,
1001
0000
0000
0000
,
1000
0000
0000
0000
,
0001
0000
0000
0000
,
1000
0000
0100
0000
,
0010
0000
0001
0000
,
1000
0000
0010
0000
,
0100
0000
0001
0000
,
1000
1000
1000
1000
,
1000
0000
0000
0000
,
0001
0001
0001
0001
,
0001
0000
0000
0000
,
0010
0010
0010
0010
,
0010
0000
0000
0000
,
0100
0100
0100
0100
,
0100
0000
0100
0000
,
1000
0000
1000
0000
,
0001
0000
0001
0000
,
1000
0000
0000
0000
,
1000
0100
1000
0100
0010
0001
0010
0001
,
1000
0010
1000
0010
0100
0001
0100
0001
,
1000
1000
0100
0100
0010
0010
0001
0001
,
2000
3000
0002
0003
,
2002
3003
0000
0000
;

//--------------- dance-single - ----------------
#NOTES:
     dance-single:
     :
     Easy:
     10:
     0,0,0,0,0:
0000
0000
0000
0000
,
0000
0000
0000
0000
,
0000
0000
0000
0000
,
0000
0000
0000
0000
,
0000
0000
0000
0000
,
1000
0000
0100
0000
,
0010
0000
0001
0000
,
1000
0000
0010
0000
,
0100
0000
0001
0000
,
1000
0000
1000
0000
,
0001
0000
0001
0000
,
0010
0000
0010
0000
,
0100
0000
0100
0000
,
1000
0100
0010
0001
,
1000
0010
0100
0001
,
1000
0100
1000
0100
0010
0001
0010
0001
,
2000
0002
0000
3003
,
1000
0010
1000
0010
0100
0001
0100
0001
,
2000
0002
0000
3003
,
1001
0000
1001
0000
,
1000
0000
0100
0000
,
0010
0000
0001
0000
,
0000
1000
1000
0000
,
0100
0000
0010
0000
,
0000
0001
0001
0000
,
0010
0000
0100
0000
,
0000
0000
1000
0000
1000
0100
0010
0001
,
1000
0010
0100
0001
1000
0000
0000
0000
,
0000
0000
0001
0010
0100
0000
1000
0001
,
0100
0010
1000
0001
1000
0000
0000
0000
,
0000
1000
1000
1000
,
0100
0100
0010
0010
,
0001
0001
1000
1000
,
0010
0010
0200
0000
,
0302
0000
2003
0000
,
3200
0000
0320
0000
,
0032
0000
2003
0000
,
0000
3000
0010
0010
,
0010
0010
0020
0000
,
0000
0030
0100
0100
,
0100
0100
0200
0000
,
0000
0300
1000
1000
,
0100
0100
0010
0010
,
0001
0001
1000
1000
,
0010
0010
0200
0000
,
0302
0000
2003
0000
,
3200
0000
0320
0000
,
0032
0000
2003
0000
,
0000
0000
3000
0000
1000
0100
1000
0010
,
0100
0001
0010
0100
1000
0100
0010
0001
,
0100
0010
1000
0100
1000
0000
1000
0000
,
0100
0100
0010
0010
,
0001
0001
2002
3003
,
0000
0000
2002
3003
,
0000
0000
2002
3003
,
0000
0000
2002
3003
,
0000
0000
2002
3003
,
0000
0000
2002
3003
,
0000
0000
2002
3003
,
0000
0000
1000
0100
,
0010
0001
1000
0010
,
0100
0000
0001
0000
1000
0100
0001
0100
,
1000
0100
0001
0100
2000
0000
0002
0000
,
0000
0000
3003
0000
0001
0010
1000
0010
,
0001
0010
1000
0010
0002
0000
2000
0000
,
0000
3003
1001
0000
,
2002
3003
2200
3300
,
0022
0033
2020
3030
,
0202
0303
0000
0000
,
2000
0000
3200
0000
,
0320
0000
0030
0000
,
0002
0000
0023
0000
,
0230
0000
0300
0000
,
1000
1000
0001
0001
1000
0100
0010
0001
,
1000
0000
0000
0000
0000
0000
0001
0001
,
1000
1000
0001
0100
0010
1000
0100
0010
,
0001
0000
0000
0000
0000
0000
1000
0001
,
1000
1000
1000
0000
0001
0001
0001
0000
,
1000
1000
1000
0000
0100
0100
0100
0000
,
0010
0010
0010
0000
0001
0001
0001
0000
,
2000
0000
3020
0000
,
0230
0000
0302
0000
,
0023
0000
0230
0000
,
2300
0000
3000
0000
,
1000
0100
1000
0100
1000
0100
1000
0100
0010
0001
0010
0001
0010
0001
0010
0001
,
1000
0010
1000
0010
1000
0010
1000
0010
0100
0001
0100
0001
0100
0001
0100
0001
,
1000
0100
0010
0001
,
2000
3000
0002
0003
,
2002
0000
3003
0000
;

//--------------- dance-single - ----------------
#NOTES:
     dance-single:
     :
     Medium:
     13:
     0,0,0,0,0:
0000
0000
0000
0000
,
0000
0000
0000
0000
,
0000
0000
0000
0000
,
0000
0000
0000
0000
,
0000
0000
0000
0000
,
1000
0100
0010
0001
,
1000
1000
0001
0001
,
1000
0010
0100
0001
,
1000
1000
0001
0001
,
1000
0100
1000
0000
0001
0100
0001
0000
,
1000
1000
0010
0010
,
0100
0100
0001
0001
,
1000
0100
0010
0001
,
1000
0100
1000
0100
0010
0001
0010
0001
,
1000
0010
1000
0010
0100
0001
0100
0001
,
1000
0100
0001
0100
1000
0010
0001
0010
,
2000
0002
0000
3003
,
0001
0010
1000
0010
0001
0100
1000
0100
,
0002
2000
0000
3003
,
1001
1000
0001
1000
1001
0000
0001
0000
,
1001
1000
1001
0001
,
1001
0000
1000
0000
1001
0001
1001
1000
,
1001
0000
0001
0000
1000
0001
1000
0001
1000
0000
0100
0000
0010
0000
0001
0000
,
1000
0010
0100
0001
1000
0000
1000
0000
,
1000
0000
1000
0000
0001
0010
0100
1000
,
0001
0100
0010
1000
0001
0000
0001
0000
,
0001
0000
0000
0000
1000
0000
0001
0000
1000
0100
1000
0100
0010
0001
0010
0001
,
1000
0010
1000
0010
0100
0001
0100
0001
2000
0000
0000
0000
0000
0000
0000
0000
,
0000
0000
0000
0000
3001
0000
1000
0000
0001
0000
1000
0000
1000
0010
1000
0010
,
0100
0001
0100
0001
0010
0100
0010
0100
2000
0000
0000
0000
0000
0000
0000
0000
,
0000
3000
1000
0001
1000
1000
1000
0000
,
0001
0001
0001
0000
1000
1000
1000
1000
,
0100
0100
0100
0100
0010
0010
0010
0010
,
0001
0001
0001
0001
2000
0000
0000
0000
,
3200
0000
0320
0000
,
0032
0000
2003
0000
,
3002
0003
2002
0000
,
0000
3003
2000
0000
3010
0010
0010
0010
,
0010
0010
0010
0010
0020
0000
0000
0000
,
0000
0030
0002
0000
0103
0100
0100
0100
,
0100
0100
0100
0100
0200
0000
0000
0000
,
0000
0300
2000
3000
1000
0000
1000
0000
,
0001
0001
1000
0100
,
0010
0001
1000
0010
,
0100
0001
2200
3300
,
0022
0033
2020
3030
,
0202
0303
2002
3003
,
0220
0330
2002
3003
,
1000
0000
0001
0000
1000
0000
0001
0000
1000
0100
1000
0100
0010
0001
0010
0001
,
1000
0100
0010
0001
1000
0010
0100
0001
1000
0010
1000
0010
0100
0001
0100
0001
,
1000
0010
0100
0001
1000
0100
0010
0001
1000
0000
0000
0000
1000
0000
0000
0000
,
0001
0001
0100
0100
,
0010
0010
2002
3003
,
0100
0100
2020
3030
,
0010
0010
0202
0303
,
0010
0010
2200
3300
,
0100
0100
0022
0033
,
0000
0000
2002
3003
,
0220
0330
2002
3003
,
0220
0330
1000
0100
,
0010
0001
1000
1000
,
0001
0000
0000
0000
0001
0000
0000
0000
1000
0100
1000
0100
1000
0100
1000
0100
,
1000
0100
1000
0100
1000
0100
1000
0100
2000
0000
0000
0000
0002
0000
0000
0000
,
0000
0000
0000
0000
3003
0000
0000
0000
0001
0010
0001
0010
0001
0010
0001
0010
,
0001
0010
0001
0010
0001
0010
0001
0010
0002
0000
0000
0000
2000
0000
0000
0000
,
0000
0000
3003
0000
1001
0001
1000
0001
,
1001
1000
1010
0010
,
0110
0100
0101
0001
,
0011
0010
0110
0100
,
1100
0000
0100
0000
0010
0000
0001
0010
1000
0000
0010
0000
0100
0000
0001
0100
,
1000
0100
0010
0001
1000
0010
0100
0001
,
1000
0000
0010
0000
0100
0000
0001
0010
1000
0000
0100
0000
0010
0000
0001
0100
,
1000
0100
0010
0001
1000
0010
0100
0002
,
0013
0010
0010
0010
0010
0010
0010
0010
,
0020
0000
0000
0000
0000
0030
2000
0000
,
3100
0100
0100
0100
0100
0100
0100
0100
,
0200
0000
0000
0000
0000
0300
1000
0001
,
1000
0100
1000
0000
0001
0010
0001
0000
,
1000
0100
0010
0001
1000
0010
0100
0001
,
1000
0100
0010
0001
1000
0010
0100
0001
,
2000
0000
3200
0000
,
0320
0000
0032
0000
,
0203
0000
0320
0000
,
2030
0000
3000
0000
,
1000
0100
1000
0010
0100
0001
0010
0100
1000
0100
0010
0001
0100
0010
1000
0100
,
1000
0010
1000
0100
0010
0001
0100
0010
1000
0010
0100
0001
0010
0100
1000
0010
,
1000
0100
0010
0001
1000
0010
0100
0001
,
2000
3000
0002
0003
,
2002
0000
0003
0000
,
3000
0000
0000
0000
;

//--------------- dance-single - ----------------
#NOTES:
     dance-single:
     :
     Hard:
     15:
     0,0,0,0,0:
0000
0000
0000
0000
,
0000
0000
0000
0000
,
2000
3200
0320
0032
,
2003
0000
0000
0000
,
3002
0000
0023
0000
0230
0000
2300
3000
,
1000
0100
0010
0001
1000
0010
0100
0001
,
1000
0100
0001
0100
1000
0010
0001
0010
,
1000
0001
0100
0100
0001
1000
0100
0100
,
1000
0001
0010
0010
0001
1000
0010
0010
,
1002
1000
1000
1003
2010
0010
0010
3010
,
0120
0130
0201
0301
1002
1000
1000
1003
,
1001
0100
0001
0010
1000
0010
0001
0100
,
1000
0100
1000
0100
0010
0001
0010
0001
,
1000
0100
0010
0001
1000
0010
0100
0010
,
1000
0010
0100
0001
1000
0100
0010
0100
,
1000
0100
0001
0100
1000
0010
0001
0010
,
1000
0100
0002
0000
0000
0000
0000
0000
,
1003
0010
0001
0010
1000
0100
0001
0100
,
1000
0010
0002
0000
0010
0100
1003
0100
,
1001
0110
0110
0110
1001
0100
0010
0001
,
1001
0010
0100
1000
1001
0001
0010
0100
,
1001
1000
0100
0010
1000
0100
0010
0001
,
1000
0000
0010
0000
1000
0100
0010
0100
1000
0000
0100
0000
0001
0000
1000
0000
,
0010
0001
1000
0100
0001
1000
0010
0001
,
1000
1000
0001
0001
0001
0010
1000
0001
,
0100
1000
0001
0010
1000
0001
0100
1000
,
0001
0000
0001
0000
1000
0001
1000
0001
1000
0100
1000
0100
0010
0001
0010
0001
,
1000
0010
1000
0010
0100
0001
0100
0001
2000
0000
0001
0000
0001
0000
0001
0000
,
0001
0000
3001
0000
1000
0000
0100
0000
0001
0000
0100
0000
1000
0010
1000
0010
,
0100
0001
0100
0001
0100
0010
0100
0010
2000
0000
0001
0000
0001
0000
0001
0000
,
0001
0000
3001
0000
1000
0100
0001
0100
1000
0000
1000
0000
1000
0000
1000
0000
,
0001
0001
0001
0001
1000
1000
0100
0100
,
0010
0010
0001
0001
1000
1000
0010
0010
,
0100
0100
0001
0001
1002
1000
1000
1003
,
2010
0010
0010
3010
0021
0001
0001
0031
,
0102
0100
0100
0103
1200
1000
1000
1300
,
2001
0000
0000
0001
0000
0000
0001
0000
0000
3001
0000
0000
1000
0000
0001
0000
1000
0000
0001
0000
1000
0000
0001
0000
,
1000
0000
0000
0000
1000
0100
1000
0100
0010
0000
0010
0000
0010
0000
0010
0000
,
0010
0010
0010
0010
0020
0000
0000
0000
,
0000
0000
0030
0000
0001
0010
0001
0010
0100
0000
0100
0000
0100
0000
0100
0000
,
0100
0100
0100
0100
0200
0000
0000
0000
,
0000
0000
0300
0000
1000
0010
0001
0010
1000
0000
1000
0000
1000
0000
1000
0000
,
0001
0001
0001
0001
1000
1000
0010
0010
,
0100
0100
0001
0001
1000
1000
0100
0100
,
0010
0010
0001
0001
1002
1000
1000
1003
,
2100
0100
0100
3100
0201
0001
0001
0301
,
0012
0010
0010
0013
1020
1000
1000
1030
,
2001
0001
0001
3001
2002
0000
0000
3003
,
1000
0001
1000
0001
1000
0001
1000
0001
1000
0100
0010
0001
1000
0001
0100
0010
,
1000
0001
1000
0010
0100
0001
1000
0001
0010
0100
1000
0001
1000
0100
0001
0100
,
1000
0001
0100
1000
0100
0001
0010
0100
1100
0000
0000
0000
1000
0000
0100
0000
,
0010
0001
1000
0010
0100
0000
0022
0033
,
2020
3030
0220
0330
2002
3003
0000
0000
,
2200
3300
0220
0330
2020
3030
0000
0000
,
0022
0033
0220
0330
0202
0303
0000
0000
,
2200
3300
2020
3030
0220
0330
0000
0000
,
0022
0033
2020
3030
2002
3003
2000
0000
,
3200
0320
0032
2003
,
3020
0230
0302
0023
,
0230
0000
2300
3000
1001
0010
0100
1000
,
0010
0100
0001
0100
1000
0100
0010
0001
,
1000
0000
0010
0000
0100
0000
0001
0000
1000
0100
0010
0001
1000
0100
0010
0001
,
1000
0100
0010
0001
1000
0100
0010
0001
2000
0000
0001
0000
0002
0000
0003
0000
,
0010
0000
0010
0000
0010
0000
3010
0000
0001
0100
0010
1000
0001
0100
0010
1000
,
0001
0100
0010
1000
0001
0100
0010
1000
0002
0000
1000
0000
2000
0000
3003
0000
,
0001
0010
1000
0100
1001
0110
0110
0110
,
1001
0100
0100
0100
1001
0010
0010
0010
,
0110
1000
1000
1000
0110
0001
0001
0001
,
1001
0000
1000
0000
1001
0000
0001
0000
1001
0000
1000
0000
1000
0010
0001
0010
,
1000
0000
0000
0001
0000
0000
1000
0000
0000
0020
2030
3002
0023
0000
0000
0130
0000
0000
0001
0000
0000
0200
0302
2003
,
3200
0301
0010
0100
1000
0001
1000
0001
,
1000
0000
0000
0100
0000
0000
0001
0000
0000
0020
0230
2300
3200
0000
0000
0310
0000
0000
0001
0000
0000
0200
0320
0032
,
0023
0000
0130
0000
1000
0000
0001
0000
1000
0000
0001
0000
1000
0001
1000
0001
,
0010
0000
0010
0000
0010
0000
0010
0000
1000
0010
0100
0001
1000
0010
0100
0001
,
2000
0000
0100
0000
0001
0000
0010
0000
0001
0000
3100
0000
1000
0001
1000
0001
,
0100
0000
0100
0000
1000
0100
0010
0001
1000
0100
0010
0001
1000
0010
0100
0001
,
2000
0000
0100
0000
0010
0000
0001
0000
0010
0000
3100
0000
1000
0010
0001
0100
,
1000
1000
1000
1000
0001
0001
0001
0001
,
1000
1000
0100
0100
0001
0001
0100
0100
,
1000
1000
0010
0010
0001
0001
0010
0010
,
1020
1000
1000
1030
2100
0100
0100
3100
,
0210
0010
0010
0310
0021
0001
0001
0031
,
0102
0100
0100
0103
0210
0010
0010
0310
,
1002
1000
1000
1003
1000
0100
0010
0001
,
1000
0100
1000
0100
1000
0100
0010
0001
0010
0001
0010
0001
1000
0010
1000
0010
1000
0010
0100
0001
0100
0001
0100
0001
,
1000
0100
0010
0001
0010
0100
1000
0100
0010
0001
0010
0100
1000
0010
0100
0001
0100
0010
1000
0010
0100
0001
0100
0010
,
1000
0100
0010
0001
1000
0010
0100
0001
,
2020
3030
0022
0033
,
2022
0030
0003
3000
;

//--------------- dance-single - ----------------
#NOTES:
     dance-single:
     :
     Challenge:
     18:
     0,0,0,0,0:
0000
0000
0000
0000
,
0000
0000
0000
0000
,
0000
0000
0000
0000
,
0000
0000
0000
0000
,
0000
0000
0000
0000
,
1000
0100
0010
1000
0010
0001
0100
0010
,
1000
0100
0001
0100
1000
0001
0010
0001
,
1000
0100
0010
0000
0001
0000
0010
0000
1000
0100
0010
0000
0001
0000
0010
0000
,
1000
0000
0000
0100
0000
0000
0010
0000
0000
0001
0000
0000
1000
0000
0000
0001
0000
0000
1000
0100
0010
0001
0010
0100
,
1000
0001
0010
0010
1001
0100
0001
0001
,
1100
0001
1010
0100
0011
1000
0010
0010
,
1000
0100
0001
1000
0010
0001
1000
0100
,
0001
1000
0010
0001
1000
0100
0001
0010
,
1000
0100
0010
1000
0010
0001
1000
0100
,
0001
0100
0010
0001
1000
0010
0100
0001
,
1000
0100
0001
0100
1000
0000
1000
0000
1000
0010
0001
0010
1000
0000
1000
0000
,
1000
0100
0001
0010
1000
1000
0100
0100
,
0001
0010
1000
0010
0001
0000
0001
0000
0001
0100
1000
0100
0001
0000
0001
0000
,
1000
0010
0001
0100
1000
1000
0010
0010
,
1001
1100
0101
0110
1001
0100
0001
0010
,
1010
0001
0010
0100
0101
0010
0001
0100
,
1100
0100
1000
0010
0011
1000
0100
0100
,
0100
0000
0100
0000
0100
0010
0100
0010
0110
0000
0001
0000
1000
0000
0010
0000
,
0001
0100
1000
0000
0001
0000
0010
0000
1000
0100
0001
0000
0010
0000
0100
0000
,
1000
0000
0001
0000
0010
0000
0010
0000
1000
0000
0100
0000
0001
0010
1000
0000
,
0001
0000
0100
0000
1000
0010
0001
0000
0100
0000
0010
0000
1000
0000
0001
0000
,
0010
0100
0010
0100
1000
0100
0001
0100
1000
0100
0010
1000
0010
0001
1000
0100
,
0001
0100
0010
0001
1000
0100
0001
0100
2000
0000
0001
0000
0010
0000
0010
0000
,
0010
0000
3010
0000
0001
0010
1000
0010
0001
0100
1000
0100
0001
0010
0100
0001
,
0100
1000
0001
0010
1000
0010
0100
1000
0002
0000
1000
0000
0100
0000
0100
0000
,
0100
0000
0000
0000
0000
0000
0103
0000
0000
0000
0000
0000
1000
0000
0000
0010
0000
0000
0001
0000
0000
0010
0000
0000
1000
0000
0100
0000
0000
0000
1000
0000
0100
0000
0000
0000
1000
0000
0100
0000
0000
0000
1001
0000
0000
0000
0000
0000
,
0001
0100
0000
0001
0100
0000
0001
0100
0000
1001
0000
0000
1000
0010
0000
1000
0010
0000
1000
0000
0000
0100
0000
0000
,
0001
0100
1000
0000
0001
0010
1000
0000
0010
0000
0001
0000
0001
0000
0010
0000
,
1000
0010
0001
0000
1000
0100
0001
0000
1001
0000
0001
0000
0010
0000
0010
0000
,
1001
0001
0100
0100
1001
1000
0010
0010
,
1001
1000
0100
0100
1001
0010
0001
0100
,
1000
0000
0000
0100
0000
0000
0001
0000
0000
0100
0000
0000
0010
0000
0100
0000
0010
0000
0100
0000
0010
0000
0100
0000
,
0010
0000
0100
0000
1000
0100
0001
0010
0100
0000
0100
0000
0100
0000
0100
0000
,
0100
0100
0100
0100
0200
0000
0000
0000
,
0300
0000
0000
0000
0001
0010
1000
0100
0010
0000
0010
0000
0010
0000
0010
0000
,
0010
0010
0010
0010
0020
0000
0000
0000
,
0030
0000
0000
0000
1000
0100
0001
0010
1000
0000
1000
0000
1000
0000
1000
0000
,
0010
0010
0010
0010
0001
0001
0100
0100
,
1000
1000
0100
0100
0001
0001
0010
0010
,
1000
1000
0010
0010
0102
0100
0100
0103
,
2100
0100
0100
3100
0012
0010
0010
0013
,
2010
0010
0010
3010
0201
0001
0001
0301
,
1200
1000
1000
1300
2002
3000
1003
0001
,
1000
0000
0000
0001
0000
0000
1000
0000
0000
0001
0000
0000
1000
0000
0000
0001
0000
0000
1000
0000
0000
0001
0000
0000
1000
0000
0100
0000
0010
0000
0100
0000
1000
0000
0010
0000
0100
0000
0001
0000
0010
0000
1000
0000
0100
0000
1000
0000
,
0010
0001
0100
0010
1000
0100
0010
0100
1000
0010
0100
0010
1000
0100
0010
0001
0010
1000
0010
0001
0100
0010
0100
0001
,
0010
0100
0010
0001
0100
0010
1000
0100
1000
0001
0100
0001
2000
0000
0000
3000
0000
0000
0001
0000
0000
0010
0000
0000
,
1000
0100
0010
0001
2002
3003
0022
0033
,
2020
3030
0220
0330
2022
3033
0000
0000
,
2200
3300
0202
0303
2202
3303
0000
0000
,
2200
3300
2020
3030
2220
3330
0000
0000
,
0022
0033
0202
0303
0222
0333
0000
0000
,
2002
3003
0220
0330
2222
3333
2000
0000
,
3200
0302
0203
2300
,
3002
0203
2300
3200
,
0302
0000
2003
3000
1001
0010
1000
0100
,
0010
0001
0100
1000
0010
0100
0001
0010
,
1000
0000
0100
0000
0010
0000
0001
0000
1000
0100
0001
0100
1000
0100
0001
0100
,
1000
0100
0001
0100
1000
0100
0001
0100
2000
0000
0001
0000
3002
0000
0000
0000
,
1003
0000
0010
0000
0001
0000
0100
0000
0001
0010
1000
0010
0001
0010
1000
0010
,
0001
0010
1000
0010
0001
0010
1000
0010
0002
0000
1000
0000
2003
0000
0000
0000
,
3001
0100
1000
0010
1001
1010
0011
0110
,
1001
0100
0001
0100
1001
0010
1000
0010
,
1001
0010
0001
0010
1001
0100
1000
0100
,
1001
0000
0100
0000
0100
0000
0100
0000
0010
0000
0010
0000
0100
0010
0100
0010
,
0110
0000
0000
0010
0000
0000
0001
0000
0000
2000
3020
2030
3200
0000
0000
0310
0000
0000
1000
0000
0000
0002
0023
0032
,
0203
1300
0001
0100
0010
0010
0010
0010
,
1001
0000
0000
0001
0000
0000
0100
0000
0000
0020
2030
3002
0023
0000
0000
1030
0000
0000
0010
0000
0000
0200
2300
3002
,
0203
0000
0310
0000
0001
0000
0100
0000
0010
0100
0010
0100
1000
0010
0100
0001
,
0010
0000
0010
0000
0010
0000
0010
0000
1000
0100
0001
0100
1000
0010
0001
0010
,
2000
0000
0001
0000
0100
0000
0100
0000
0100
0000
3100
0000
0010
0100
1000
0010
,
0100
0000
0100
0000
0001
0010
1000
0010
0001
0100
1000
0100
0001
0010
1000
0010
,
0001
0000
0100
0000
1000
0000
0010
0000
0100
0000
0100
0000
1000
0001
1000
0001
,
1000
0000
1000
0000
1000
0100
0001
0000
0010
0000
0010
0000
0001
0010
1000
0000
,
0100
0100
0001
0001
0010
0010
1000
1000
,
0010
0010
0001
0001
0100
0100
1000
1000
,
0120
0001
0100
0130
0210
1000
0010
0310
,
0120
1000
0001
0031
0210
0001
1000
1300
,
0120
0100
0001
0031
0210
0010
1000
1300
,
2002
0000
3003
0000
1000
0001
1000
0001
1000
0001
1000
0001
1000
0001
1000
0001
,
1000
0010
0100
0010
1000
0100
0010
0001
0100
0010
0100
0001
1000
0100
1000
0001
0100
0001
1000
0100
0010
0100
1000
0010
,
0100
0001
0010
0100
0010
0001
1000
0010
1000
0001
0010
0001
1000
0100
0001
0100
1000
0001
0100
1000
0100
0001
0010
0100
,
1000
0100
1000
0010
0100
0001
0010
0100
1000
0100
0010
0001
0100
0010
1000
0100
,
2220
3330
0202
0303
,
2222
0300
0030
0003
,
3000
0000
0000
0000
;
