#TITLE:CODE-;
#SUBTITLE:2;
#ARTIST:HEXA;
#TITLETRANSLIT:;
#SUBTITLETRANSLIT:;
#ARTISTTRANSLIT:;
#GENRE:;
#CREDIT:;
#MUSIC:CODE 2.ogg;
#BANNER:CODE 2-bn.png;
#BACKGROUND:CODE 2-bg.png;
#CDTITLE:;
#SAMPLESTART:7.344;
#SAMPLELENGTH:12.387;
#SELECTABLE:YES;
#OFFSET:-0.376;
#BPMS:0.000=155.000;
#STOPS:;
#BGCHANGES:;
#FGCHANGES:;

//--------------- dance-single - ----------------
#NOTES:
     dance-single:
     :
     Beginner:
     6:
     0,0,0,0,0:
0000
0000
0000
0000
,
0000
0000
0000
0000
,
0000
0000
0000
0000
,
0000
0000
1001
0001
,
1000
0100
0010
0001
1001
0000
0000
0000
,
1001
0000
0110
0000
,
0110
0000
1010
0000
,
1010
0000
0011
0000
,
0011
0000
1001
0000
,
1001
0000
0110
0000
,
0110
0000
1100
0000
,
1100
0000
0101
0000
,
0101
0000
1001
0000
,
1001
0000
0110
0000
,
0110
0000
0011
0000
,
0011
0000
1010
0000
,
1010
0000
1001
0000
,
1001
0000
0110
0000
,
0110
0000
0101
0000
,
0101
0000
1100
0000
,
1100
0000
1001
0000
,
0000
1001
0000
0000
,
2002
3003
1001
0000
,
0000
1001
0000
0000
,
1001
0000
1001
0000
,
0000
1001
0000
0000
,
2002
3003
1001
0000
,
0000
1001
0000
0000
,
1001
0000
2002
0000
,
0000
0000
0000
0000
,
0000
3003
2002
0000
,
0000
0000
0000
0000
,
0000
3003
2002
0000
,
0000
0000
0000
0000
,
0000
3003
2002
0000
,
0000
0000
0000
0000
,
0000
3003
1000
0000
,
0100
0000
1000
0000
,
0100
0000
1000
0000
,
0100
0000
1000
0000
,
0100
0000
0010
0000
,
0001
0000
0010
0000
,
0001
0000
0010
0000
,
0001
0000
0010
0000
,
0001
0000
1000
0000
,
0010
0000
1000
0000
,
0010
0000
1000
0000
,
0010
0000
1000
0000
,
0010
0000
0100
0000
,
0001
0000
0100
0000
,
0001
0000
0100
0000
,
0001
0000
0000
0000
1001
0000
0001
0001
,
1000
0010
0100
0001
1001
0000
0000
0000
,
0110
0000
1010
0000
,
0011
0000
1001
0000
,
0110
0000
1100
0000
,
0101
0000
1001
0000
,
0110
0000
0011
0000
,
1010
0000
1001
0000
,
0110
0000
0101
0000
,
1100
0000
0110
0000
,
1001
0000
1100
0000
,
0101
0000
0110
0000
,
1001
0000
1010
0000
,
0011
0000
0110
0000
,
1001
0000
0011
0000
,
1010
0000
0110
0000
,
1001
0000
0101
0000
,
1100
0000
0000
0000
1001
0000
0000
0001
,
0000
0000
1001
0000
0000
1000
0000
0000
,
2002
3003
2002
3003
1001
0000
0000
1000
,
0000
0000
1001
0000
0000
0001
0000
0000
,
1001
0000
1001
0000
1001
0000
0000
0100
,
0000
0000
1001
0000
0000
0010
0000
0000
,
2002
3003
2002
3003
1001
0000
0000
0010
,
0000
0000
1001
0000
0000
0100
0000
0000
,
1001
0010
0100
0010
1001
0000
0000
0000
;

//--------------- dance-single - ----------------
#NOTES:
     dance-single:
     :
     Easy:
     10:
     0,0,0,0,0:
0000
0000
0000
0000
,
0000
0000
0000
0000
,
0000
0000
0000
0000
,
0000
0000
0000
0000
0000
0000
0000
0000
0000
0000
0000
0000
1001
0000
0000
0001
1000
0001
1000
0000
0000
0001
0000
0000
,
1000
0100
1000
0100
0010
0001
0010
0001
1001
0000
0000
0000
1000
0000
0000
0000
,
1001
1000
1001
1000
,
1001
1000
0110
0100
,
0110
0100
0110
0100
,
0110
0100
1001
0001
,
1001
0001
1001
0001
,
1001
0001
0110
0010
,
0110
0010
0110
0010
,
0110
0000
0020
0030
1001
0000
1000
0000
,
1001
0001
1001
1000
,
1001
0001
0110
0100
,
0110
0010
0110
0100
,
0110
0010
1001
0001
,
1001
1000
1001
0001
,
1001
1000
0110
0100
,
0110
0010
0110
0100
,
0110
0000
0010
0000
1001
0000
0000
1001
,
0000
0000
1001
0000
0000
1001
0000
0000
,
2002
3003
2002
3003
1001
0000
0000
1001
,
0000
0000
1001
0000
0000
1001
0000
0000
,
1001
0000
1001
0000
1001
0000
0000
1001
,
0000
0000
1001
0000
0000
1001
0000
0000
,
2002
3003
2002
3003
1001
0000
0000
1001
,
0000
0000
1001
0000
0000
1001
0000
0000
,
1001
1001
2002
3003
,
2002
3003
2002
3003
,
2002
3003
2002
3003
,
2002
3003
2002
3003
,
2002
3003
2002
3003
,
2002
3003
2002
3003
,
2002
3003
2002
3003
,
2002
3003
2002
3003
,
2002
3003
1000
0100
,
1000
0100
0010
0001
,
0010
0001
1000
0010
,
1000
0010
0100
0001
,
0100
0001
1000
0001
,
1000
0001
0100
0010
,
0100
0010
1000
0001
,
1000
0001
0010
0100
,
0010
0100
1000
0100
,
0010
0001
1000
0010
,
0100
0001
1000
0100
,
0010
0001
1000
0010
,
0100
0001
1000
0001
,
0100
0010
1000
0001
,
0010
0100
1000
0100
,
0010
0000
0000
0000
0000
0000
0001
0000
0000
0000
0000
0000
1001
0000
0000
0001
1000
0001
1000
0000
0000
0001
0000
0000
,
1000
0010
1000
0010
0100
0001
0100
0001
1001
0000
0000
0000
1001
0000
0000
0000
,
1001
1001
0110
0110
,
0110
0110
1010
1010
,
1010
1010
0101
0101
,
0101
0101
1001
1001
,
1001
1001
0110
0110
,
0110
0110
1100
1100
,
1100
1100
0011
0011
,
0011
0011
1001
1001
,
0110
0110
1010
1010
,
0011
0011
1001
1001
,
0110
0110
1100
1100
,
0101
0101
1001
0110
,
1001
0110
1010
0011
,
1010
0011
1001
0110
,
1001
0110
1100
0101
,
1100
0000
0000
0000
0101
0000
0000
0000
1100
0000
0000
0100
0000
0000
1000
0000
,
0000
0100
0000
0000
1000
0000
0000
0100
0000
0000
1000
0000
0000
0100
0000
0000
,
1100
0000
0000
0000
1001
0000
0000
0000
0101
0000
0000
0100
0000
0000
0001
0000
,
0000
0100
0000
0000
0001
0000
0000
0100
0000
0000
0001
0000
0000
0100
0000
0000
,
0101
0000
0000
0000
0110
0000
0000
0000
0011
0000
0000
0010
0000
0000
0001
0000
,
0000
0010
0000
0000
0001
0000
0000
0010
0000
0000
0001
0000
0000
0010
0000
0000
,
0011
0000
0000
0000
0110
0000
0000
0000
1010
0000
0000
0010
0000
0000
1000
0000
,
0000
0010
0000
0000
1000
0000
0000
0010
0000
0000
1000
0000
0000
0010
0000
0000
,
1001
0001
1000
0001
1001
1000
0001
1000
1001
0000
0000
0000
0000
0000
0000
0000
;

//--------------- dance-single - ----------------
#NOTES:
     dance-single:
     :
     Medium:
     12:
     0,0,0,0,0:
0000
0000
0000
0000
,
0000
0000
0000
0000
,
0000
0000
0000
0000
,
0000
0000
0000
0000
0000
0000
0000
0000
0000
0000
0000
0000
0000
0000
0000
0000
1001
0000
0000
0000
0001
1000
0001
0000
1000
0000
0000
0000
0001
0000
0000
0000
,
1000
0100
1000
0100
1000
0100
0010
0001
0010
0001
0010
0001
1001
0000
0000
0000
0000
0000
1001
0000
0000
0000
0000
0000
,
1001
1001
0110
0110
,
0110
0110
1010
1010
,
1010
1010
0011
0011
,
0011
0011
1100
1100
,
1100
1100
0101
0101
,
0101
0101
0110
0110
,
0110
0110
1001
1001
,
1001
0000
2002
3003
1001
0000
1001
0000
,
0110
0110
1010
1010
,
0011
0011
1100
1100
,
0101
0101
0110
0110
,
1001
1001
1100
1100
,
0101
0101
0011
0011
,
1010
1010
1001
0110
,
1001
0000
0110
0000
1001
0010
1000
0100
,
0010
0000
0001
0000
2002
0000
3003
0000
1100
0000
0000
0100
0000
0000
1000
0000
,
0000
0100
0000
0000
1100
0000
0000
1000
0000
0000
0100
0000
0000
1000
0000
0000
,
2200
0000
3300
0000
2002
0000
3003
0000
0101
0000
0000
0001
0000
0000
0100
0000
,
0000
0001
0000
0000
0101
0000
0000
0100
0000
0000
0001
0000
0000
0100
0000
0000
,
0201
0000
0301
0000
1002
0000
1003
0000
1010
0000
0000
1000
0000
0000
0010
0000
,
0000
1000
0000
0000
1010
0000
0000
0010
0000
0000
1000
0000
0000
0010
0000
0000
,
2020
0000
3030
0000
2002
0000
3003
0000
0011
0000
0000
0001
0000
0000
0010
0000
,
0000
0001
0000
0000
0011
0000
0000
0010
0000
0000
0001
0000
0000
0010
0000
0000
,
0021
0031
1002
1003
2002
0000
3003
0000
,
2002
3003
2002
3003
,
2002
3003
0220
0330
,
0220
0330
0220
0330
,
0220
0330
2002
3003
,
2002
3003
2002
3003
,
2002
3003
0220
0330
,
0220
0330
0220
0330
,
0220
0000
0000
0000
0330
0000
0000
0000
1000
0000
0000
0100
0000
0000
1000
0000
,
0100
0000
0000
0010
0000
0000
0100
0000
0010
0000
0000
0001
0000
0000
0010
0000
,
0001
0000
0000
1000
0000
0000
0001
0000
1000
0000
0000
0010
0000
0000
1000
0000
,
0010
0000
0000
0100
0000
0000
0010
0000
0100
0000
0000
0001
0000
0000
0100
0000
,
0001
0000
0000
1000
0000
0000
0001
0000
1000
0000
0000
0010
0000
0000
1000
0000
,
0010
0000
0000
0100
0000
0000
0010
0000
0100
0000
0000
0001
0000
0000
0100
0000
,
0001
0000
0000
1000
0000
0000
0001
0000
1000
0000
0000
0100
0000
0000
1000
0000
,
0100
0000
0000
0010
0000
0000
0100
0000
0010
0000
0000
0001
0000
0000
0010
0000
,
0001
0000
0000
1000
0000
0000
0001
0000
1000
0000
0000
0100
0000
0000
0010
0000
,
0001
0000
0000
0100
0000
0000
0010
0000
1000
0000
0000
0010
0000
0000
0100
0000
,
0001
0000
0000
0010
0000
0000
0100
0000
1000
0000
0000
0100
0000
0000
0010
0000
,
0001
0000
0000
0010
0000
0000
0100
0000
1000
0000
0000
0010
0000
0000
0100
0000
,
0001
0000
0000
0100
0000
0000
0010
0000
1000
0000
0000
0010
0000
0000
0100
0000
,
0001
0000
0000
0100
0000
0000
0010
0000
1000
0000
0000
0100
0000
0000
0010
0000
,
0001
0000
0000
0010
0000
0000
0100
0000
1000
0000
0000
0001
0000
0000
1000
0000
,
0001
0000
0000
0000
0000
0000
1000
0000
0000
0000
0000
0000
0001
0000
0000
0000
1001
0000
0000
0000
0001
1000
0001
0000
1000
0000
0000
0000
0001
0000
0000
0000
,
1000
0000
0010
0000
1000
0000
0010
0000
1000
0000
0010
0000
0100
0000
0001
0000
0100
0000
0001
0000
0100
0000
0001
0000
1001
0000
0000
0000
0000
0000
0000
0000
0000
0000
0000
0000
1000
0000
0000
0001
0000
0000
0000
0000
0000
0000
0000
0000
,
1001
0000
0000
0000
0100
0010
0000
0000
1001
0000
0000
0000
0001
1000
0000
0000
,
1001
0000
0000
0000
0010
0100
0000
0000
1001
0000
0000
0000
1000
0100
0000
0000
,
1001
0000
0000
0000
0100
0001
0000
0000
1001
0000
0000
0000
0001
0010
0000
0000
,
1001
0000
0000
0000
0010
1000
0000
0000
1001
0000
0000
0000
1000
0010
0000
0000
,
1001
0000
0000
0000
0010
0001
0000
0000
1001
0000
0000
0000
0001
0100
0000
0000
,
1001
0000
0000
0000
0100
1000
0000
0000
1001
0000
0000
0000
0100
0010
0000
0000
,
1001
0000
0000
0000
0001
1000
0000
0000
1001
0000
1001
0000
1001
0000
1001
0000
,
1001
0000
1001
0000
1001
0000
1001
0000
1001
0000
1000
0001
0000
1000
0001
0000
,
1001
0000
0100
0010
0000
0100
0010
0000
1001
0000
0001
1000
0000
0001
1000
0000
,
1001
0000
0010
0100
0000
0010
0100
0000
1001
0000
1000
0100
0000
1000
0100
0000
,
1001
0000
0100
0001
0000
0100
0001
0000
1001
0000
0001
0010
0000
0001
0010
0000
,
1001
0000
0010
1000
0000
0010
1000
0000
1001
0000
1000
0010
0000
1000
0010
0000
,
1001
0000
0010
0001
0000
0010
0001
0000
1001
0000
0001
0100
0000
0001
0100
0000
,
1001
0000
0100
1000
0000
0100
1000
0000
1001
0000
0100
0010
0000
0100
0010
0000
,
1001
0000
0001
1000
0000
0001
1000
0000
1001
0000
0001
0000
1000
0000
0000
0000
,
2002
0000
0000
0000
3003
0000
0000
0000
1100
0000
0000
0100
0000
0000
1000
0000
,
0000
0100
0000
0000
0101
0000
0000
0100
0000
0000
0001
0000
0000
0100
0000
0000
,
0202
0000
0303
0000
2002
0000
3003
0000
0011
0000
0000
0010
0000
0000
0001
0000
,
0000
0010
0000
0000
1010
0000
0000
0010
0000
0000
1000
0000
0000
0010
0000
0000
,
1020
0000
1030
0000
2001
0000
3001
0000
1100
0000
0000
1100
0000
0000
1100
0000
,
0000
1100
0000
0000
0101
0000
0000
0101
0000
0000
0101
0000
0000
0101
0000
0000
,
2002
0000
3003
0000
0220
0000
0330
0000
0011
0000
0000
0011
0000
0000
0011
0000
,
0000
0011
0000
0000
1010
0000
0000
1010
0000
0000
1010
0000
0000
1010
0000
0000
,
1001
0000
0100
0010
1001
0000
0010
0100
1001
0000
0000
0000
0000
0000
0000
0000
;

//--------------- dance-single - ----------------
#NOTES:
     dance-single:
     :
     Hard:
     13:
     0,0,0,0,0:
0000
0000
0000
0000
,
0000
0000
0000
0000
,
0000
0000
0000
0000
,
0000
0000
0000
0000
0000
0000
0000
0000
0000
0000
0000
0000
0000
0000
0000
0000
0000
0000
0000
0000
0000
0000
0000
0000
1001
0000
0000
0000
0000
0000
1000
0001
1000
0001
0000
0000
1000
0000
0000
0000
0000
0000
0001
0000
0000
0000
0000
0000
,
1000
0000
0100
0000
1000
0000
0100
0000
1000
0000
0100
0000
0010
0000
0001
0000
0010
0000
0001
0000
0010
0000
0001
0000
1001
0000
0000
0000
0000
0000
0000
0000
0000
0000
0000
0000
0010
0000
0000
0010
0000
0000
0000
0000
0000
0000
0000
0000
,
1001
0000
0000
0000
0100
0100
0000
0000
1001
0000
0000
0000
0001
0001
0000
0000
,
1001
0000
0000
0000
1000
1000
0000
0000
0110
0000
0000
0000
0010
0010
0000
0000
,
0110
0000
0000
0000
0100
0100
0000
0000
0110
0000
0000
0000
0001
0001
0000
0000
,
0110
0000
1000
0100
0010
0001
0000
0000
1001
0000
0000
0000
1000
0100
0000
0000
,
1001
0000
0000
0000
0100
0010
0000
0000
1001
0000
0000
0000
0010
0001
0000
0000
,
1001
0000
0000
0000
0001
1000
0000
0000
1001
0000
0000
0000
1000
0010
0000
0000
,
1001
0000
0000
0000
0010
0100
0000
0000
1001
0000
0001
0100
0010
1000
0000
0000
,
1001
0000
0110
0000
2002
0000
3003
0000
1001
0000
0000
0000
1000
0100
0000
0000
,
0110
0000
0000
0000
0010
0001
0000
0000
1001
0000
0000
0000
1000
0010
0000
0000
,
0110
0000
0000
0000
0100
0001
0000
0000
1001
0000
0000
0000
1000
0100
0000
0000
,
0101
0000
0000
0000
0001
0010
0000
0000
1010
0000
0000
0000
1000
0010
0000
0000
,
0011
0000
0000
0000
0001
0100
0000
0000
1100
0000
0000
0000
1000
0100
0000
0000
,
1100
0000
0000
0000
0100
0010
0000
0000
0110
0000
0000
0000
0010
0001
0000
0000
,
0011
0000
0000
0000
0001
1000
0000
0000
1001
0000
0000
0000
0010
0100
0000
0000
,
0110
0000
0110
0000
1001
0001
0000
0000
1001
0000
0110
0000
1000
0100
0010
0000
,
0001
0100
0010
0000
1000
0001
0000
0000
1100
0000
0000
1100
0000
0000
1100
0000
,
0000
1100
0000
0000
1100
0000
0000
1100
0000
0000
1100
0000
0000
1100
0000
0000
,
2200
0000
3300
0000
2200
0000
3300
0000
0101
0000
0000
0101
0000
0000
0101
0000
,
0000
0101
0000
0000
0101
0000
0000
0101
0000
0000
0101
0000
0000
0101
0000
0000
,
0101
0000
0101
0000
0101
0000
0101
0000
0011
0000
0000
0011
0000
0000
0011
0000
,
0000
0011
0000
0000
0011
0000
0000
0011
0000
0000
0011
0000
0000
0011
0000
0000
,
0022
0000
0033
0000
0022
0000
0033
0000
1010
0000
0000
1010
0000
0000
1010
0000
,
0000
1010
0000
0000
1010
0000
0000
1010
0000
0000
1010
0000
0000
1010
0000
0000
,
1010
0000
0000
0000
1010
0000
0000
0000
1010
0000
0000
0000
1010
0000
0000
0000
2002
0000
0000
0000
0000
0000
0000
3003
1001
0000
0000
0000
0000
0000
0000
0000
,
2002
0000
0000
0000
0000
0000
0000
3003
1001
0000
0000
0000
0000
0000
0000
0000
0220
0000
0000
0000
0000
0000
0000
0330
0110
0000
0000
0000
0000
0000
0000
0000
,
0220
0000
0000
0000
0000
0000
0000
0330
0110
0000
0000
0000
0000
0000
0000
0000
2002
0000
0000
0000
0000
0000
0000
3003
1001
0000
0000
0000
0000
0000
0000
0000
,
2002
0000
0000
0000
0000
0000
0000
3003
1001
0000
0000
0000
0000
0000
0000
0000
0220
0000
0000
0000
0000
0000
0000
0330
0110
0000
0000
0000
0000
0000
0000
0000
,
0220
0000
0000
0000
0000
0000
0000
0330
0110
0000
0000
0000
0000
0000
0000
0000
2002
0000
0000
0000
0000
0000
0000
3003
1001
0000
0000
0000
0000
0000
0000
0000
,
2002
0000
0000
0000
0000
0000
0000
3003
1001
0000
0000
0000
0000
0000
0000
0000
0220
0000
0000
0000
0000
0000
0000
0330
0110
0000
0000
0000
0000
0000
0000
0000
,
0220
0000
0000
0000
0000
0000
0000
0330
0110
0000
0000
0000
0000
0000
0000
0000
2002
0000
0000
0000
0000
0000
0000
3003
1001
0000
0000
0000
0000
0000
0000
0000
,
2002
0000
0000
0000
0000
0000
0000
3003
1001
0000
0000
0000
0000
0000
0000
0000
0220
0000
0000
0000
0000
0000
0000
0330
0110
0000
0000
0000
0000
0000
0000
0000
,
0220
0000
0000
0000
0000
0000
0000
0330
0110
0000
0000
0000
0000
0000
0000
0000
2000
0000
0000
0000
3100
0000
1000
0000
0000
0000
0100
0000
1000
0000
0000
0000
,
0200
0000
0310
0100
0000
0010
0100
0000
0020
0000
0031
0010
0000
0001
0010
0000
,
0002
0000
0103
0001
0000
0100
0001
0000
0200
0000
0310
0100
0000
0010
0100
0000
,
0020
0000
1030
0010
0000
1000
0010
0000
2000
0000
3001
1000
0000
0001
1000
0000
,
0002
0000
1003
0001
0000
1000
0001
0000
2000
0000
3010
1000
0000
0010
1000
0000
,
0020
0000
0130
0010
0000
0100
0010
0000
0200
0000
0301
0100
0000
0001
0100
0000
,
0002
0000
0013
0001
0000
0010
0001
0000
0020
0000
0130
0010
0000
0100
0010
0000
,
0200
0000
1300
0100
0000
1000
0100
0000
2000
0000
3001
1000
0000
0001
1000
0000
,
0002
0000
1003
0001
0000
1000
0001
0000
2000
0000
3100
1000
0000
0100
1000
0000
,
0200
0000
0310
0100
0000
0010
0100
0000
0020
0000
0031
0010
0000
0001
0010
0000
,
0002
0000
1003
0001
0000
1000
0001
0000
2000
0000
3010
1000
0000
0010
1000
0000
,
0020
0000
0130
0010
0000
0100
0010
0000
0200
0000
0301
0100
0000
0001
0100
0000
,
0002
0000
1003
0001
0000
1000
0001
0000
2000
0000
3010
1000
0000
0010
1000
0000
,
0020
0000
0130
0010
0000
0100
0010
0000
0200
0000
0301
0100
0000
0001
0100
0000
,
0002
0000
1003
0001
0000
1000
0001
0000
2000
0000
3100
1000
0000
0100
1000
0000
,
0200
0000
0000
0000
0000
0000
0301
0000
0000
0100
0000
0000
0000
0000
0000
0001
0000
0000
0100
0000
0000
0000
0000
0000
1001
0000
0000
0000
0000
0000
1000
0001
1000
0001
0000
0000
1000
0000
0000
0000
0000
0000
0001
0000
0000
0000
0000
0000
,
1000
0000
0010
0000
1000
0000
0010
0000
1000
0000
0010
0000
0100
0000
0001
0000
0100
0000
0001
0000
0100
0000
0001
0000
1001
0000
0000
0000
0000
0000
0000
0000
0000
0000
0000
0000
1100
0000
0000
1100
0000
0000
0000
0000
0000
0000
0000
0000
,
1001
0000
0000
0000
0011
0011
0000
0000
1001
0000
0000
0000
1010
1010
0000
0000
,
1001
0000
0000
0000
0101
0101
0000
0000
0110
0000
0000
0000
1100
1100
0000
0000
,
0110
0000
0000
0000
0011
0011
0000
0000
0110
0000
0000
0000
1010
1010
0000
0000
,
0110
0000
0000
0000
0101
0101
0000
0000
1001
0000
0000
0000
0110
0110
0000
0000
,
1010
0000
0000
0000
0101
0101
0000
0000
1100
0000
0000
0000
0011
0011
0000
0000
,
0110
0000
0000
0000
1001
1001
0000
0000
0101
0000
0000
0000
1010
1010
0000
0000
,
0011
0000
0000
0000
1100
1100
0000
0000
1001
0000
0000
0000
0110
0110
0000
0000
,
0110
0000
0000
0000
1001
1001
0000
0000
1001
0000
0000
0000
1100
0101
0000
0000
,
1001
0000
0000
0000
1010
0011
0000
0000
1001
0000
0000
0000
0011
1010
0000
0000
,
1001
0000
0000
0000
0101
1100
0000
0000
0110
0000
0000
0000
1010
0011
0000
0000
,
0110
0000
0000
0000
1100
0101
0000
0000
0110
0000
0000
0000
0101
1100
0000
0000
,
0110
0000
0000
0000
0011
1010
0000
0000
1001
0000
0000
0000
1100
0110
0000
0000
,
1001
0000
0000
0000
1010
0110
0000
0000
1001
0000
0000
0000
0011
0110
0000
0000
,
1001
0000
0000
0000
0101
0110
0000
0000
0110
0000
0000
0000
1100
1001
0000
0000
,
0110
0000
0000
0000
1010
1001
0000
0000
0110
0000
0000
0000
0011
1001
0000
0000
,
0110
0000
0000
0000
0101
1001
0000
0000
1100
0000
0000
1100
0000
0000
1100
0000
,
0000
1100
0000
0000
0101
0000
0000
0101
0000
0000
0101
0000
0000
0101
0000
0000
,
2002
0000
3003
0000
2002
0000
3003
0000
1010
0000
0000
1010
0000
0000
1010
0000
,
0000
1010
0000
0000
0011
0000
0000
0011
0000
0000
0011
0000
0000
0011
0000
0000
,
0110
0000
0110
0000
0110
0000
0110
0000
1100
0000
0000
0101
0000
0000
0011
0000
,
0000
1010
0000
0000
1100
0000
0000
1010
0000
0000
0011
0000
0000
0101
0000
0000
,
0220
0000
0330
0000
2002
0000
3003
0000
1001
0000
0000
0110
0000
0000
1010
0000
,
0000
0011
0000
0000
0101
0000
0000
1100
0000
0000
1001
0000
1001
0000
1001
0000
,
1001
0000
0000
0010
0100
0010
1001
0000
0000
0100
0010
0100
1001
0000
0000
0000
0000
0000
0000
0000
0000
0000
0000
0000
;

//--------------- dance-single - ----------------
#NOTES:
     dance-single:
     :
     Challenge:
     16:
     0,0,0,0,0:
0000
0000
0000
0000
,
0000
0000
0000
0000
,
0000
0000
0000
0000
,
0000
0000
0000
0000
0000
0000
0000
0000
0000
0000
0000
0000
0000
0000
0000
0000
0000
0000
0000
0000
0000
0000
0000
0000
1001
0000
0000
0000
0000
0000
0001
1000
0001
1000
0000
0000
0001
0000
0000
0000
0000
0000
0100
0000
0000
0010
0000
0000
,
1000
0100
1000
0100
1000
0100
1000
0100
0010
0001
0010
0001
0010
0001
0010
0001
1001
0000
0000
0000
0000
0000
0000
0000
1010
0000
1010
0000
0000
0000
0000
0000
,
1001
0000
0000
0000
0011
0011
0000
0000
1001
0000
0000
0000
1100
1100
0000
0000
,
1001
0000
0000
0000
0101
0101
0000
0000
0110
0000
0000
0000
1100
1100
0000
0000
,
0110
0000
0000
0000
0101
0101
0000
0000
0110
0000
0000
0000
1010
1010
0000
0000
,
0110
0000
0001
0010
1000
0100
0000
0000
1001
0000
0000
0000
1010
1010
0000
0000
,
0110
0000
0000
0000
0011
0011
0000
0000
1001
0000
0000
0000
0101
0101
0000
0000
,
0110
0000
0000
0000
1100
1100
0000
0000
1001
0000
0000
0000
0110
0110
0000
0000
,
0110
0000
0000
0000
0000
0000
0000
0000
0000
0000
0000
0000
0000
0000
0000
0000
0000
0000
0000
0000
0000
0000
0000
0000
1001
0000
0000
0000
0000
0000
1001
0000
0000
0000
0000
0000
0000
0000
0000
0000
0000
0000
0000
0000
0000
0000
0000
0000
1001
0000
0000
0000
0000
0000
0001
0000
0000
0000
0000
0000
1000
0000
0000
0000
0100
0000
0000
0000
0010
0000
0000
0000
0001
0000
0000
0010
0000
0000
0001
0000
0000
0010
0000
0000
0001
0000
0000
0010
0000
0000
0001
0000
0000
0010
0000
0000
,
0011
0000
0110
0000
2020
0000
3030
0000
1001
0000
0000
0000
1100
1100
0000
0000
,
1100
0000
0000
0000
0110
0110
0000
0000
0110
0000
0000
0000
0101
0101
0000
0000
,
0101
0000
0000
0000
1001
1001
0000
0000
1001
0000
0000
0000
0011
0011
0000
0000
,
0011
0000
0000
0000
0110
0110
0000
0000
0110
0000
0000
0000
1010
1010
0000
0000
,
1010
0000
0000
0000
1001
1001
0000
0000
1001
0000
0000
0000
1100
1100
0000
0000
,
0101
0000
0000
0000
1010
1010
0000
0000
0011
0000
0000
0000
0110
0110
0000
0000
,
1001
0000
0000
0000
1001
1001
0000
0000
1100
0000
0000
0000
0101
0101
0000
0000
,
1010
0000
1010
0000
0011
0011
0000
0000
1001
0000
0110
0000
1000
0001
1000
0100
,
0010
0001
0010
0100
1000
1000
0000
0000
2200
0000
3300
1100
0000
0000
0101
0000
,
0000
0101
0000
0000
2020
0000
3030
1010
0000
0000
0011
0000
0000
0011
0000
0000
,
2002
0000
3003
0000
0220
0000
0330
0000
2020
0000
3030
1010
0000
0000
0011
0000
,
0000
0011
0000
0000
2200
0000
3300
1100
0000
0000
0101
0000
0000
0101
0000
0000
,
1001
0000
1001
0000
0110
0000
0110
0000
2200
0000
3300
0101
0000
0000
0011
0000
,
0000
1010
0000
0000
2200
0000
3300
1010
0000
0000
0011
0000
0000
0101
0000
0000
,
2200
0000
3300
0000
0220
0000
0330
0000
2020
0000
3030
0011
0000
0000
0101
0000
,
0000
1100
0000
0000
0220
0000
0330
0001
1001
0000
1000
0100
1100
0000
0010
0001
,
0101
0000
0011
0000
1010
0000
1100
0000
1001
0000
0000
0000
0110
0000
0010
0100
,
0010
0001
0000
0000
1001
0000
0000
0000
0110
0000
0010
0000
1001
0000
0000
0000
,
0110
0000
0000
0000
1001
0000
0000
0000
0110
0000
0000
0000
1001
0000
0001
0010
,
0100
1000
0000
0000
0110
0000
0000
0000
1001
0000
0000
0000
0110
0000
0000
0000
,
1001
0010
0110
0000
1001
0000
0110
0000
,
1001
0110
1001
0110
,
1001
0000
0110
0000
1001
0011
1010
0101
,
1100
1000
0100
0001
0100
1000
0010
0001
0110
0000
1010
0000
0000
0011
0000
0000
,
1100
0000
0101
0000
0110
0000
0000
0000
1001
0000
1000
0100
0000
1000
0100
0000
,
1001
0000
0001
0010
0000
0001
0010
0000
1001
0000
1000
0010
0000
1000
0010
0000
,
1001
0000
0001
0100
0000
0001
0100
0000
1001
0000
1000
0100
0000
1000
0100
0000
,
1001
0000
0001
0100
0000
0001
0100
0000
1001
0000
1000
0010
0000
1000
0010
0000
,
1001
0000
0001
0010
0000
0001
0010
0000
1001
0000
1000
0100
0000
1000
0100
0000
,
0110
0000
0001
0100
0000
0001
0100
0000
1100
0000
1000
0010
0000
1000
0010
0000
,
0101
0000
0001
0010
0000
0001
0010
0000
1010
0000
1000
0100
0000
1000
0100
0000
,
0011
0000
0001
0100
0000
0001
0100
0000
0110
0000
1000
0010
0000
1000
0010
0000
,
1001
0000
0001
0010
0000
0001
0010
0000
1001
0000
1000
0100
0010
0100
1000
0000
,
1001
0000
0001
0010
0100
0010
0001
0000
1001
0000
1000
0010
0100
0010
1000
0000
,
1001
0000
0001
0100
0010
0100
0001
0000
1001
0000
1000
0100
0010
0100
1000
0000
,
1001
0000
0001
0100
0010
0100
0001
0000
1001
0000
1000
0010
0100
0010
1000
0000
,
1001
0000
0001
0010
0100
0010
0001
0000
1001
0000
1000
0100
0001
0100
1000
0000
,
1001
0000
0001
0100
1000
0100
0001
0000
1001
0000
1000
0010
0001
0010
1000
0000
,
1001
0000
0001
0010
1000
0010
0001
0000
1000
0100
1000
0100
0010
0001
0010
0001
,
1000
0000
0000
0010
0000
0000
1000
0000
0000
0010
0000
0000
0100
0000
0000
0001
0000
0000
0100
0000
0000
0001
0000
0000
1001
0000
0000
0000
0000
0000
1000
0001
1000
0001
0000
0000
1000
0000
0000
0000
0000
0000
0010
0000
0000
0100
0000
0000
,
1000
0010
1000
0010
1000
0010
1000
0010
0100
0001
0100
0001
0100
0001
0100
0001
1001
0000
0000
0000
1000
0000
0100
0000
1100
0000
1100
0000
0000
0000
0000
0000
,
1001
0000
0001
0010
0011
0011
0000
0000
1001
0000
1000
0010
1010
1010
0000
0000
,
1001
0000
0001
0100
0101
0101
0000
0000
1001
0000
1000
0100
1100
1100
0000
0000
,
1001
0000
0001
0100
0101
0101
0000
0000
1001
0000
1000
0010
1010
1010
0000
0000
,
1001
0000
0001
0010
0011
0011
0000
0000
0110
0000
1000
0010
1010
1010
0000
0000
,
0110
0000
0001
0010
0011
0011
0000
0000
0110
0000
1000
0100
1100
1100
0000
0000
,
0110
0000
0001
0100
0101
0101
0000
0000
1001
0000
1000
0100
0101
0101
0000
0000
,
1001
0000
0001
0100
1100
1100
0000
0000
1001
0000
0011
0000
1010
0000
1100
0000
,
0101
0000
0110
0000
1001
0000
0110
0000
1001
0000
1000
0100
0110
0110
0000
0000
,
1001
0000
0001
0010
0110
0110
0000
0000
1001
0000
1000
0010
0110
0110
0000
0000
,
1001
0000
0001
0100
0110
0110
0000
0000
1001
0000
1000
0100
1100
1100
0000
0000
,
1001
0000
1000
0100
0110
0110
0000
0000
1001
0000
1000
0100
0101
0101
0000
0000
,
1001
0000
1000
0100
1001
1001
0000
0000
1001
0000
1000
0010
1010
1010
0000
0000
,
1001
0000
1000
0010
0110
0110
0000
0000
1001
0000
1000
0010
0011
0011
0000
0000
,
1001
0000
1000
0010
1001
1001
0000
0000
1001
0000
1000
0100
0101
0101
0000
0000
,
1001
0000
1000
0010
0011
0011
0000
0000
1001
0000
0001
0010
1010
1010
0000
0000
,
1001
0000
0001
0100
1100
1100
0000
0000
2020
0000
3030
0011
0000
0000
0110
0000
,
0000
1001
0000
0000
2200
0000
3300
0101
0000
0000
0110
0000
0000
1001
0000
0000
,
0220
0000
0330
0000
2002
0000
3003
0000
2200
0000
3300
0110
0000
0000
0101
0000
,
0000
1001
0000
0000
2020
0000
3030
0110
0000
0000
0011
0000
0000
1001
0000
0000
,
1100
0000
0101
0000
0011
0000
1010
0000
2002
0000
3003
0110
0000
0000
1010
0000
,
0000
0101
0000
0000
2002
0000
3003
0110
0000
0000
1100
0000
0000
0011
0000
0000
,
2002
0000
3003
0000
0220
0000
0330
0000
1100
0100
0000
1000
1100
0000
0011
0001
,
0000
0010
0011
0000
1010
0010
0000
1000
1010
0000
0101
0001
0000
0100
0101
0000
,
1001
0000
0001
0000
1000
0100
0010
0001
1001
0000
1000
0000
0001
0010
0100
1000
1001
0000
0000
0000
0000
0000
0000
0000
0000
0000
0000
0000
0000
0000
0000
0000
;
