#TITLE:CODE-;
#SUBTITLE:1;
#ARTIST:HEXA;
#TITLETRANSLIT:;
#SUBTITLETRANSLIT:;
#ARTISTTRANSLIT:;
#GENRE:;
#CREDIT:;
#MUSIC:CODE 1.ogg;
#BANNER:CODE 1-bn.png;
#BACKGROUND:CODE 1-bg.png;
#CDTITLE:;
#SAMPLESTART:21.892;
#SAMPLELENGTH:13.241;
#SELECTABLE:YES;
#OFFSET:-0.375;
#BPMS:0.000=145.000;
#STOPS:;
#BGCHANGES:;
#FGCHANGES:;

//--------------- dance-single - ----------------
#NOTES:
     dance-single:
     :
     Beginner:
     4:
     0,0,0,0,0:
0000
0000
0000
0000
,
0000
0000
0000
0000
,
0000
0000
0000
0000
,
0000
0000
0000
0000
,
0000
0000
1000
0001
,
1001
0000
0000
0000
,
1001
0000
0000
0000
,
1001
0000
0000
0000
,
1001
0000
0000
0000
,
1001
0000
0000
0000
,
1001
0000
0000
0000
,
1001
0000
0000
0000
,
1001
0000
0001
1000
,
1001
0000
0000
0000
,
1001
0000
0000
0000
,
1001
0000
0000
0000
,
1001
0000
0000
0000
,
1001
0000
0000
0000
,
1001
0000
0000
0000
,
1001
0000
0000
0000
,
1001
0000
0000
0000
,
1001
0000
0000
0000
,
1001
0000
0000
0000
,
1001
0000
0000
0000
,
1001
0000
0000
0000
,
1001
0000
0000
0000
,
1001
0000
0000
0000
,
1001
0000
0000
0000
,
1001
0000
0000
0000
,
1001
0000
0000
0000
,
0000
0000
0000
0000
,
0000
0000
0000
0000
,
0000
0000
0000
0000
,
0000
0000
0000
0000
,
0000
0000
0000
0000
,
0000
0000
0000
0000
,
0000
0000
0000
0000
,
0000
0000
0000
0000
,
0000
0000
0000
0000
,
0000
0000
0000
0000
,
0000
0000
0000
0000
,
0000
0000
0000
0000
,
0000
0000
0000
0000
,
0000
0000
0000
0000
,
0000
0000
1000
0001
,
1001
0000
0000
0000
,
1001
0000
0000
0000
,
1001
0000
0000
0000
,
1001
0000
0000
0000
,
0110
0000
0000
0000
,
0110
0000
0000
0000
,
0110
0000
0000
0000
,
0110
0000
0000
0000
,
1010
0000
0000
0000
,
1010
0000
0000
0000
,
0011
0000
0000
0000
,
0011
0000
0000
0000
,
1100
0000
0000
0000
,
1100
0000
0000
0000
,
0101
0000
0000
0000
,
0101
0000
0000
0000
,
1001
0000
0000
0000
,
0000
0000
0000
0000
,
0000
0000
0000
0000
,
0000
0000
0000
0000
,
0000
0000
0000
0000
,
0000
0000
0000
0000
,
0000
0000
0000
0000
,
1000
0100
0010
0001
0100
0010
1000
0001
,
1001
0000
0000
0000
;

//--------------- dance-single - ----------------
#NOTES:
     dance-single:
     :
     Easy:
     8:
     0,0,0,0,0:
0000
0000
0000
0000
,
0000
0000
0000
0000
,
0000
0000
0000
0000
,
0000
0000
0000
0000
,
0000
0000
0000
0000
0000
0000
0000
0000
2000
0200
3000
0300
0002
0200
0003
0300
,
1001
0100
0010
0001
,
0010
0100
1000
0000
,
1001
0001
0010
0100
,
1000
0000
0100
0000
0010
0010
0001
0001
,
1001
0010
0100
0001
,
0100
0010
1000
0000
,
1001
0000
0001
0000
,
1000
0000
0000
0000
0001
0000
0000
0000
2000
0020
3000
0030
0002
0020
0003
0030
,
1001
0000
1000
0000
,
0100
0000
0010
0000
,
0001
0000
1000
0000
,
0010
0000
0000
0000
0100
0100
0100
0100
,
0001
0000
0010
0000
,
0100
0000
1000
0000
,
0010
0000
0100
0000
,
0001
0000
0000
0000
0000
0000
1000
1000
,
1000
0000
0100
0000
,
0010
0000
0001
0000
,
1000
0000
0010
0000
,
0100
0000
0001
0000
,
1000
0000
0000
0000
0100
0000
0100
0100
,
0010
0000
0000
0000
0001
0001
0001
0001
,
1000
0000
0000
1000
0000
0000
1000
0000
1000
0000
0000
1000
0000
0000
1000
0000
,
1000
0010
1000
0000
0001
0010
0001
0000
1000
0000
0001
0000
1000
0000
1000
0001
,
1000
0000
0000
0000
,
0000
0000
0000
0000
,
0000
0000
0000
0000
,
0000
0000
0000
0000
,
0000
0000
0000
0000
,
0000
0000
0000
0000
,
0000
0000
0000
0000
,
0000
0000
0000
0000
,
0000
0000
0000
0000
,
0000
0000
0000
0000
,
0000
0000
0000
0000
,
0000
0000
0000
0000
,
0000
0000
0000
0000
,
0000
0000
0000
0000
,
0000
0000
0000
0000
,
0000
0000
0000
0000
0000
0000
0000
0000
2000
0200
3000
0300
0002
0020
0003
0030
,
1001
1000
0100
0100
,
0010
0010
0001
0001
,
1000
1000
0010
0010
,
0100
0100
0001
0001
,
1000
1000
0100
0100
,
0010
0010
0001
0001
,
1000
1000
0010
0010
,
0100
0100
0001
0001
,
1001
1001
1001
1001
,
0110
0110
0110
0110
,
1010
1010
1010
1010
,
0101
0000
0000
0000
0101
0000
0000
0000
0101
0000
0000
0101
0000
0000
0101
0000
,
1001
1001
0110
0110
,
0011
0011
1100
1100
,
1010
1010
0101
0101
,
1000
1000
0100
0100
0010
0010
0001
0001
,
1001
0000
0000
0000
,
0000
0000
0000
0000
,
0000
0000
0000
0000
,
0000
0000
0000
0000
,
0000
0000
0000
0000
,
0000
0000
0000
0000
,
0000
0000
0000
0000
,
1000
0100
0010
0001
0100
0010
1000
0001
1000
0000
0001
0000
1000
0010
0100
0001
,
1001
0000
0000
0000
;

//--------------- dance-single - ----------------
#NOTES:
     dance-single:
     :
     Medium:
     10:
     0,0,0,0,0:
0000
0000
0000
0000
,
0000
0000
0000
0000
,
0000
0000
0000
0000
,
0000
0000
0000
0000
,
0000
0000
0000
0000
0000
0000
0000
0000
0000
0000
0000
0000
2000
0200
0000
0000
3000
0300
0002
0200
0000
0000
0003
0300
,
1002
1000
1000
1003
,
2001
0000
0000
0000
0001
0000
0000
0000
3002
0000
0000
0003
0000
0000
0000
0000
,
1002
0100
0100
0103
,
2001
0000
3010
0000
0110
0010
0110
0100
,
1002
1000
1000
1003
,
2001
0000
0000
0000
0010
0000
0000
0000
3020
0000
0000
0030
0000
0000
0000
0000
,
1001
0000
1001
0000
,
1001
0000
0000
0001
0000
0000
1001
0000
0000
1000
0000
0000
2000
0020
0000
0000
3000
0030
0002
0020
0000
0000
0003
0030
,
1001
1000
1001
0001
,
1001
0001
1001
1000
,
1001
0100
1001
0010
,
1001
0000
0110
0000
1001
1001
0110
0110
,
1001
0001
1001
1000
,
1001
1000
1001
0001
,
1001
0000
0010
0000
1001
0000
0100
0100
,
2002
0000
0000
0000
3003
0000
1001
1001
,
1001
0100
1001
0010
,
1001
0010
1001
0100
,
1001
1000
1001
0001
,
1001
0010
0100
0010
1001
0100
0010
0100
,
1001
0000
0010
0000
1001
0000
0100
0100
,
1001
0000
0100
0000
1001
0010
1001
0100
,
1001
0000
0000
1001
0000
0000
1001
0000
1001
0000
0000
1001
0000
0000
1001
0000
,
1000
0100
1000
0000
0001
0100
0001
0000
1000
0000
0001
0000
1000
0001
1000
0001
,
1000
0000
0000
0000
,
0000
0000
0000
0000
,
0000
0000
0000
0000
,
0000
0000
0000
0000
,
0000
0000
0000
0000
,
0000
0000
0000
0000
,
0000
0000
0000
0000
,
0000
0000
0000
0000
,
0000
0000
0000
0000
,
0000
0000
0000
0000
,
0000
0000
0000
0000
,
0000
0000
0000
0000
,
1000
0100
1000
0100
,
0010
0001
0010
0001
,
1000
0010
1000
0010
,
1000
0000
0000
0000
0000
0000
0000
0000
0000
0000
0000
0000
2000
0200
0000
0000
3000
0300
0002
0020
0000
0000
0003
0030
,
1001
1000
1001
0001
,
1001
1000
1001
0001
,
1001
1000
1001
0001
,
1001
0000
1000
0000
1001
1001
0110
0110
,
1001
0001
1001
1000
,
1001
0001
1001
1000
,
1001
0001
1001
1000
,
1001
0001
2002
3003
,
1001
1001
1001
1001
,
1001
1001
1001
1001
,
0110
0110
0110
0110
,
0110
0000
0000
0000
0110
0000
0000
0000
0110
0000
0000
0110
0000
0000
0110
0000
,
1001
1001
1001
1001
,
1001
1001
1001
1001
,
1001
1001
1001
1001
1001
1001
1001
1001
,
1000
0100
0010
0001
1000
0010
0100
0001
,
1000
0000
0000
0000
,
0000
0000
0000
0000
,
0000
0000
0000
0000
,
0000
0000
0000
0000
,
0000
0000
0000
0000
,
0000
0000
0000
0000
,
0000
0000
0000
0000
,
1000
0100
0010
0100
0001
0100
0010
0100
1000
0100
0001
0100
1000
0010
0100
0001
,
1001
0000
0000
0000
;

//--------------- dance-single - ----------------
#NOTES:
     dance-single:
     :
     Hard:
     11:
     0,0,0,0,0:
0000
0000
0000
0000
,
0000
0000
0000
0000
,
0000
0000
0000
0000
,
0000
0000
0000
0000
,
0000
0000
0000
0000
0000
0000
0000
0000
0000
0000
0000
0000
1000
0100
1000
0000
0000
0000
0001
0100
0001
0000
0000
0000
,
1001
1001
1001
1001
,
1001
1001
1001
0000
,
1001
1001
1001
1001
,
1001
0000
1001
0000
1010
0011
0101
1100
,
1001
1001
1001
1001
,
1001
1001
1001
0000
,
1001
0000
0110
0000
,
1010
0000
0000
0000
0000
0000
0011
0000
0000
0000
0000
0000
0101
0000
0000
0000
0000
0000
1100
0000
0000
0100
0000
0000
1000
0000
0010
0000
1000
0000
0000
0000
0000
0000
0000
0000
0001
0000
0010
0000
0001
0000
0000
0000
0000
0000
0000
0000
,
1001
0100
0010
0001
1001
0010
0100
1000
,
1001
1000
0100
0010
1001
0001
0010
0100
,
1001
0010
0100
0001
1001
0100
0010
1000
,
1001
1000
0010
0100
1100
0101
0011
1010
,
1001
0100
0010
0100
1001
0010
0100
0010
,
1001
0010
0100
0010
1001
0100
0010
0100
,
1001
1000
0010
1000
1001
0001
0010
0001
,
1001
0000
0000
0000
0000
0000
1001
0110
,
1001
1000
0100
1000
1001
0001
0100
0001
,
1001
0010
1000
0010
1001
0010
0001
0010
,
1001
0100
1000
0100
1001
0100
0001
0100
,
1001
0000
0100
0000
0010
0100
0010
0000
1001
0000
0010
0000
0100
0010
0100
0000
,
1001
1000
0001
1000
1001
0001
1001
0110
,
1001
0000
0001
0000
1000
0000
0001
0000
0011
0000
1010
0000
1100
0000
0101
0001
,
1001
0000
0000
0110
0000
0000
1001
0000
1001
0000
0000
0110
0000
0000
1001
0001
,
1000
0000
0100
0000
1000
0000
0100
0000
0000
0000
0000
0000
0001
0000
0100
0000
0001
0000
0100
0000
0000
0000
0000
0000
1000
0000
0100
0000
0000
0000
0001
0000
0010
0000
0000
0000
1000
0000
0000
0001
0000
0000
1000
0000
0001
0000
1000
0000
,
0002
0000
0000
0000
,
0000
0000
0000
0000
,
0000
0000
0000
0000
,
0000
0000
0000
0000
,
0000
0000
0000
0000
,
0000
0000
0000
0000
,
0000
0000
0000
0000
,
0000
0000
0000
0000
,
0003
0000
0000
0000
,
0000
0000
0000
0000
,
0000
0000
0000
0000
,
0000
0000
0000
0000
,
1000
0100
1000
0100
0010
0001
0010
0001
,
1000
0010
1000
0010
0100
0001
0100
0001
,
1000
0000
0000
0000
,
1001
0000
0000
0000
0000
0000
0000
0000
0000
0000
0000
0000
1000
0010
1000
0000
0000
0000
0001
0010
0001
0000
0000
0000
,
1001
1001
1001
1001
,
0110
0110
0110
0110
,
1010
1010
1010
1010
,
0101
0000
0101
0000
0101
0011
1010
1100
,
1001
1001
1001
1001
,
0110
0110
0110
0110
,
1100
0000
0000
0000
1100
0000
0000
0000
1100
0000
0000
0000
1100
0000
1000
0001
,
1001
0000
0010
0000
0100
0010
0100
0000
2002
0000
0000
0000
3003
0000
0000
0000
,
1001
0110
1001
0110
,
1010
0011
1010
0011
,
1100
0101
1100
0101
,
1001
0000
0000
0000
0110
0000
0000
0000
1001
0000
0000
0110
0000
0000
1001
0000
,
1001
0110
1010
0011
,
1001
0110
1100
0101
,
1001
1001
1001
1001
0110
0110
0110
0110
,
1000
0100
0010
0001
1000
0010
0100
0001
,
1000
0000
0000
0000
,
0000
0000
0000
0000
,
0000
0000
0000
0000
,
0000
0000
0000
0000
,
0000
0000
0000
0000
,
0000
0000
0000
0000
,
0000
0000
0000
0000
,
1000
0000
0100
0000
0010
0000
0001
0000
0000
0000
0000
0000
0001
0000
0100
0000
0010
0000
1000
0000
0000
0000
0000
0000
1000
0000
0100
0000
0000
0000
0001
0000
0010
0000
0000
0000
1000
0000
0000
0001
0000
0000
1000
0000
0001
0000
0010
0000
,
0110
0000
0000
0000
;

//--------------- dance-single - ----------------
#NOTES:
     dance-single:
     :
     Challenge:
     12:
     0,0,0,0,0:
0000
0000
0000
0000
,
0000
0000
0000
0000
,
0000
0000
0000
0000
,
0000
0000
0000
0000
,
0000
0000
0000
0000
0000
0000
0000
0000
0000
0000
0000
0000
1000
0100
1000
0100
1000
0000
0001
0010
0001
0010
0001
0000
,
1001
0000
0000
0100
0010
0000
0000
0000
1001
0000
0000
0100
0010
0000
0000
0000
,
1001
0000
0000
0010
0100
0000
0000
0000
1001
0000
0000
0010
0100
0000
0000
0000
,
1001
0000
0000
0100
0010
0000
0000
0000
1001
0000
0000
0010
0100
0000
0000
0000
,
1001
0000
0000
0100
0010
0000
0000
0000
1001
0000
0110
0000
1001
0000
0110
0000
,
1001
0000
0000
0010
0100
0000
0000
0000
1001
0000
0000
0100
0010
0000
0000
0000
,
1001
0000
0000
0010
0100
0000
0000
0000
1001
0000
0000
0100
0010
0000
0000
0010
,
0001
0000
0000
0010
0100
0000
0000
0100
1000
0000
0000
0100
0010
0000
0000
0001
,
0101
0000
0000
0110
0000
0000
1100
0000
0000
1001
0000
0000
1000
0010
1000
0010
1000
0000
0001
0100
0001
0100
0001
0000
,
1001
0000
0000
1000
0100
0000
0000
0100
0010
0000
0000
0010
0001
0000
0000
0001
,
1000
0000
0000
1000
0010
0000
0000
0010
0100
0000
0000
0100
0001
0000
0000
0001
,
1000
0000
0000
1000
0100
0000
0000
0100
0001
0000
0000
0001
0010
0000
0000
0010
,
1000
0000
0000
1000
0001
0000
0000
0001
1001
0000
0011
0000
0110
0000
1010
0000
,
1001
0000
0000
0001
0010
0000
0000
0010
0100
0000
0000
0100
1000
0000
0000
1000
,
0001
0000
0000
0001
0100
0000
0000
0100
0010
0000
0000
0010
1000
0000
0000
1000
,
0001
0000
0000
0001
0010
0000
0000
0010
1000
0000
0000
1000
0100
0000
0000
0100
,
0002
0000
0000
0000
0000
0000
0000
0003
0200
0000
0000
0000
0000
0000
0000
0300
2000
0000
0000
0000
0000
0000
0000
3000
0110
0000
0000
0000
0110
0000
0000
0000
,
1001
0000
0000
1000
0010
0000
0000
0010
0100
0000
0000
0100
0001
0000
0000
0001
,
1000
0000
0000
1000
0100
0000
0000
0100
0001
0000
0000
0001
0010
0000
0000
0010
,
1000
0000
0000
1000
0100
0000
0000
0100
0010
0000
0000
0010
0001
0000
0000
0001
,
1000
0000
0000
0001
0000
0000
1000
0001
1000
0001
0000
0000
1000
0000
0000
0010
0000
0000
0100
0010
0100
0010
0000
0000
,
1001
0000
0000
0001
0100
0000
0000
0100
0010
0000
0000
0010
1000
0000
0000
1000
,
0001
0000
0000
0001
0010
0000
0000
0010
1000
0000
0000
1000
0100
0000
0000
0100
,
0001
0000
0000
0001
0010
0000
0000
0010
0100
0000
0000
0100
1000
0000
0000
1000
,
0001
0010
0001
0010
0001
0000
0000
0000
1000
0010
1000
0010
1000
0000
0000
0000
0001
0100
0001
0000
1000
0100
1000
0000
0010
0000
0001
0000
1000
0001
1000
0001
,
2000
0000
0000
3000
0000
0000
0000
0000
0200
0000
0000
0300
0000
0000
0000
0000
,
0020
0000
0000
0030
0000
0000
0000
0000
0002
0000
0000
0003
0000
0000
0000
0000
,
2000
0000
0000
3000
0000
0000
0000
0000
0020
0000
0000
0030
0000
0000
0000
0000
,
0200
0000
0000
0300
0000
0000
0000
0000
0002
0000
0000
0003
0000
0000
0000
0000
,
2000
0000
0000
3000
0000
0000
0000
0000
0200
0000
0000
0300
0000
0000
0000
0000
,
0020
0000
0000
0030
0000
0000
0000
0000
0002
0000
0000
0003
0000
0000
0000
0000
,
2000
0000
0000
3000
0000
0000
0000
0000
0020
0000
0000
0030
0000
0000
0000
0000
,
0200
0000
0000
0300
0000
0000
0000
0000
0002
0000
0000
0003
0000
0000
0000
0000
,
2000
0000
0000
3000
0000
0000
0000
0000
0200
0000
0000
0300
0000
0000
0000
0000
,
0020
0000
0000
0030
0000
0000
0000
0000
0002
0000
0000
0003
0000
0000
0000
0000
,
2000
0000
0000
3000
0000
0000
0000
0000
0020
0000
0000
0030
0000
0000
0000
0000
,
0200
0000
0000
0300
0000
0000
0000
0000
0002
0000
0000
0003
0000
0000
0000
0000
,
1000
0100
1000
0100
1000
0100
1000
0100
0010
0001
0010
0001
0010
0001
0010
0001
,
1000
0010
1000
0010
1000
0010
1000
0010
0100
0001
0100
0001
0100
0001
0100
0001
,
1000
0001
1000
0001
1000
0001
1000
0001
0100
0010
0100
0010
0100
0010
0100
0010
,
1000
0000
0000
0000
0000
0000
0001
0000
0000
0000
0000
0000
1000
0100
1000
0100
1000
0000
0001
0100
0001
0100
0001
0000
,
1001
0000
0000
1000
0100
0000
0000
0100
0001
0000
0000
0001
0010
0000
0000
0010
,
1000
0000
0000
1000
0010
0000
0000
0010
0001
0000
0000
0001
0100
0000
0000
0100
,
1000
0000
0000
1000
0100
0000
0000
0100
0001
0000
0000
0001
0010
0000
0000
0010
,
1000
0000
0000
1000
0001
0000
0000
0001
1001
0000
1100
0000
0110
0000
0101
0000
,
1001
0000
0000
1000
0010
0000
0000
0010
0001
0000
0000
0001
0100
0000
0000
0100
,
1000
0000
0000
1000
0100
0000
0000
0100
0001
0000
0000
0001
0010
0000
0000
0010
,
1000
0000
0000
1000
0010
0000
0000
0010
0001
0000
0000
0001
0100
0000
0100
0010
,
1001
0000
0000
1000
0100
0000
0000
0001
0100
0000
0000
1000
0001
0000
0000
0000
,
1001
0000
0000
1000
0200
0000
0000
0001
1000
0000
0000
1000
0001
0000
0000
0001
,
1000
0000
0000
1000
0001
0000
0000
0001
1000
0000
0000
1000
0001
0000
0000
0001
,
1300
0000
0000
0001
0020
0000
0000
1000
0001
0000
0000
0001
1000
0000
0000
1000
,
0001
0000
0000
0001
1000
0000
0030
1000
1001
0000
0000
1001
0000
0000
1001
0000
,
1001
0000
0000
0001
0020
0000
0000
0001
1000
0000
0000
1000
0001
0000
0000
0001
,
1000
0000
0000
1000
0001
0000
0000
0001
1000
0000
0000
1000
0001
0000
0030
0001
,
1001
1010
0110
0011
1001
0101
0110
1100
,
1000
0100
1000
0100
0010
0001
0010
0001
1000
0010
1000
0010
0100
0001
0100
0001
,
1001
0000
0000
1000
0100
0000
0000
0100
0010
0000
0000
0010
0001
0000
0000
0001
,
1000
0000
0000
1000
0010
0000
0000
0010
0100
0000
0000
0100
0001
0000
0000
0001
,
1000
0000
0000
1000
0100
0000
0000
0100
0010
0000
0000
0010
0001
0000
0000
0001
,
1000
0000
0000
1000
0010
0000
0000
0010
0100
0000
0000
0100
0001
0000
0000
0001
,
1000
0000
0000
0000
,
0000
0000
0000
0000
,
0000
0000
0000
0000
,
1000
0100
0010
0100
1000
0000
0100
0000
0001
0100
0010
0100
0001
0000
0100
0000
1000
0010
0100
0000
0001
0010
0100
0000
1000
0000
0001
0000
1000
0100
0010
0001
,
2002
3003
0000
0000
0000
0000
0000
0000
;
