#TITLE:Buoyant Anew;
#SUBTITLE:;
#ARTIST:Raxxo;
#TITLETRANSLIT:;
#SUBTITLETRANSLIT:;
#ARTISTTRANSLIT:;
#GENRE:;
#CREDIT:;
#MUSIC:Buoyant Anew.ogg;
#BANNER:Buoyant Anew-bn.png;
#BACKGROUND:Buoyant Anew-bg.png;
#CDTITLE:;
#SAMPLESTART:16.274;
#SAMPLELENGTH:8.000;
#SELECTABLE:YES;
#OFFSET:-0.274;
#BPMS:0.000=60.000;
#STOPS:;
#BGCHANGES:;
#FGCHANGES:;

//--------------- dance-single - ----------------
#NOTES:
     dance-single:
     :
     Beginner:
     1:
     0,0,0,0,0:
0000
0000
0000
0000
,
0000
0000
0000
0000
,
1000
0000
0100
0000
,
0010
0000
0001
0000
,
1000
0000
0000
0000
,
0001
0000
0000
0000
,
1000
0000
0000
0000
,
0001
0000
0000
0000
,
1000
0000
0100
0000
,
0010
0000
0001
0000
,
1000
0000
0000
0000
,
0001
0000
0000
0000
,
1000
0000
0010
0000
,
0100
0000
0001
0000
,
1000
0000
0010
0000
,
0100
0000
0001
0000
,
1000
0000
0000
0000
,
0001
0000
0000
0000
0000
0000
0000
1000
;

//--------------- dance-single - ----------------
#NOTES:
     dance-single:
     :
     Easy:
     1:
     0,0,0,0,0:
0000
0000
0000
0000
,
0000
0000
0000
0000
,
1000
0100
1000
0100
,
0010
0001
0010
0001
,
1000
0010
1000
0010
,
0100
0001
0100
0001
,
1000
0100
1000
0100
,
0010
0001
0010
0001
,
1000
0010
1000
0010
,
0100
0001
0100
0001
,
1000
0000
0000
0000
,
0001
0000
0000
0000
,
1000
0100
0010
0001
,
1000
0010
0100
0001
,
1000
0010
1000
0010
,
0100
0001
0100
0001
,
1000
0100
1000
0100
,
0010
0000
0001
0000
0010
0000
0001
1000
;

//--------------- dance-single - ----------------
#NOTES:
     dance-single:
     :
     Medium:
     2:
     0,0,0,0,0:
0000
0000
0000
0000
,
0000
0000
0000
0000
,
1000
0100
0010
0001
,
1000
0010
0100
0001
,
1000
0100
0010
0001
1000
0010
0100
0001
,
1000
0100
0010
0001
1000
0010
0100
0001
,
1000
0100
0010
0100
1000
0010
0100
0010
,
1000
0100
0010
0100
1000
0010
0100
0010
,
1000
0100
0010
0000
0001
0100
0010
0000
,
1000
0100
0010
0001
0100
0010
1000
0001
,
1000
0000
0001
0000
,
1000
0000
0001
0000
,
1000
0010
0100
0001
,
1000
0100
0010
0001
,
1000
0010
0100
0000
0001
0010
0100
0000
,
1000
0010
0100
0001
0010
0100
1000
0001
,
1000
0100
0010
0001
,
1000
0000
0010
0000
0100
0000
0001
1000
;

//--------------- dance-single - ----------------
#NOTES:
     dance-single:
     :
     Hard:
     6:
     0,0,0,0,0:
0000
0000
0000
0000
,
0000
0000
0000
0000
,
1000
0000
0100
0000
0000
0000
0100
0000
0010
0000
0000
0000
0010
0000
0001
0000
0000
0000
1000
0000
0000
0001
0000
0000
,
1000
0000
0010
0000
0000
0000
0010
0000
0100
0000
0000
0000
0100
0000
0001
0000
0000
0000
1000
0100
0010
0001
0010
0100
,
1000
1000
0100
0100
0010
0010
0001
0001
,
1000
1000
0010
0010
0100
0100
0001
0001
,
1000
0100
0010
0001
1000
0010
0100
0001
,
1000
0000
0000
0100
0000
0000
0010
0000
0000
0100
0000
0000
1000
0000
0000
0010
0000
0000
0100
0000
0000
0010
0000
0010
,
1000
0000
0000
0100
0000
0000
0010
0000
0000
0010
0000
0010
0001
0000
0000
0100
0000
0000
0010
0000
0000
0010
0000
0010
,
1000
0000
0000
0100
0000
0000
0010
0000
0000
0100
0000
0100
1000
0000
0000
0010
0000
0000
0100
0000
0000
0010
0000
0010
,
1000
0001
1000
0001
,
1000
0001
1000
0001
,
1000
0000
0100
0000
0000
0000
0100
0000
0010
0000
0000
0000
0010
0000
0001
0000
0000
0000
1000
0000
0000
0001
0000
0000
,
1000
0000
0010
0000
0000
0000
0010
0000
0100
0000
0000
0000
0100
0000
0001
0000
0000
0000
1000
0010
0100
0001
0100
0010
,
1000
0000
0000
0100
0000
0000
0010
0000
0000
0010
0000
0010
0001
0000
0000
0100
0000
0000
0010
0000
0000
0010
0000
0010
,
1000
0000
0000
0100
0000
0000
0010
0000
0000
0001
0000
0001
0100
0000
0000
0010
0000
0000
1000
0000
0000
0001
0000
0001
,
1000
0000
1000
0100
0010
0001
1000
0000
1000
0010
0100
0001
1000
0000
1000
0100
0010
0100
1000
0010
0100
0001
0000
0000
,
1000
0000
1000
0001
0010
0100
1000
0000
1000
0001
0100
0010
1000
0000
1000
0010
0100
0010
1000
0100
0010
0001
0000
0000
;

//--------------- dance-single - ----------------
#NOTES:
     dance-single:
     :
     Challenge:
     8:
     0,0,0,0,0:
0000
0000
0000
0000
,
0000
0000
0000
0000
,
1000
0000
0100
0000
0000
0010
0001
0000
0010
0000
0000
0100
1000
0000
0100
0000
0000
0010
0001
0000
0010
0100
0000
1000
,
0001
0000
0100
0000
0000
0010
1000
0000
0010
0000
0000
0100
0001
0000
0100
0000
0000
0010
1000
0100
0010
0001
0100
0010
,
1000
0000
0001
0010
0001
0010
0001
0000
1000
0010
1000
0010
1000
0000
0001
0100
0001
0100
0001
1000
0001
1000
0000
1000
,
0001
0000
1000
0100
1000
0100
1000
0000
0001
0100
0001
0100
0001
0000
1000
0010
1000
0010
1000
0001
1000
0001
0000
0001
,
1000
0000
0100
0010
0001
0010
0100
0000
0010
0100
1000
0100
0010
0000
0001
1000
0001
1000
0001
0010
0100
1000
0000
1000
,
0001
0000
0010
1000
0100
1000
0010
0000
0100
0001
0010
0001
0100
0000
1000
0001
1000
0001
1000
0100
0010
0001
0000
0001
,
1000
0000
0100
0010
0001
0010
0100
0000
0000
0000
0000
1000
0001
0000
0010
0100
1000
0100
0010
0000
0000
0000
0000
0001
,
1000
0000
0100
0001
0010
0001
0100
0000
0000
0010
0000
1000
0001
0000
0010
1000
0100
1000
0010
0000
0000
0100
0000
0001
,
1000
0000
0000
0000
0000
0100
0010
0000
0000
0000
0000
0000
0001
0000
0000
0000
0000
0010
0100
0000
0000
1000
0000
1000
,
0001
0000
0000
0000
0000
0001
0010
0000
0010
0100
0000
0100
1000
0000
0000
0000
0000
1000
0100
0000
0100
0010
0001
1000
,
0001
0000
0010
0000
0000
0100
1000
0000
0001
0000
0000
0010
0100
0000
1000
0000
0000
0001
0100
0000
0010
1000
0000
0001
,
0100
0000
0010
0000
0000
1000
0100
0000
0010
0000
0000
0001
1000
0000
0010
0000
0000
0100
0001
0010
0100
1000
0010
0100
,
0001
0000
1000
0100
0001
0100
1000
0000
0000
0000
0000
0010
1000
0000
0001
0010
1000
0010
0001
0000
0000
0000
0000
1000
,
0100
0000
0001
0100
1000
0100
0001
0000
0000
0010
0000
0001
0010
0000
1000
0010
0001
0010
1000
0000
0000
0100
0000
0001
,
1000
0000
0001
0010
0001
0010
0001
0000
1000
0010
1000
0010
1000
0000
0001
0100
0001
0100
0001
1000
0001
1000
0000
1000
,
0001
0000
1000
0100
1000
0100
1000
0000
0010
0100
0010
0100
0010
0000
1000
0001
1000
0001
0100
0010
0100
0010
0000
0000
;

//--------------- dance-single - overcharted ----------------
#NOTES:
     dance-single:
     overcharted:
     Edit:
     9:
     0,0,0,0,0:
0000
0000
0000
0000
,
0000
0000
0000
0000
,
1000
0000
0100
0000
0000
0100
0010
0000
0001
0000
0000
0001
1000
0000
0010
0000
0000
0010
0100
0000
0100
0001
0000
0001
,
1000
0000
0100
0000
0000
0100
0001
0000
0010
0000
0000
0010
1000
0000
0010
0000
0000
0010
0001
0100
1000
0010
0100
0001
,
1000
0100
1000
0100
1000
0100
0010
0001
0010
0001
0010
0001
1000
0010
1000
0010
1000
0010
0100
0001
0100
0001
0100
0001
,
1000
0100
1000
0100
1000
0100
0010
0001
0010
0001
0010
0001
1000
0010
1000
0010
1000
0010
0100
0001
0100
0001
0100
0001
,
1000
0100
0010
0001
0010
0100
1000
0010
0100
0001
0100
0010
1000
0100
0010
0001
0100
0010
1000
0010
0100
0001
0010
0100
,
1000
0010
0100
0001
0100
0010
1000
0100
0010
0001
0010
0100
1000
0010
0100
0001
0010
0100
1000
0100
0010
0001
0100
0010
,
1000
0000
1000
0001
0010
0100
1000
0000
0000
0000
0000
1000
0001
0000
0001
1000
0100
0010
0001
0000
0000
0000
0000
0001
,
1000
0000
1000
0001
0100
0010
1000
0000
0000
0001
0000
1000
0001
0000
0001
1000
0010
0100
0001
0000
0000
1000
0000
0001
,
1000
0000
1000
0100
0000
0100
0010
0000
0010
0001
0000
0001
1000
0000
1000
0010
0000
0010
0100
0000
0100
0001
0000
0001
,
1000
0000
1000
0100
0000
0100
0010
0000
0010
0001
0000
0001
1000
0000
1000
0010
0000
0010
0100
0000
0100
0001
0100
0001
,
1000
0100
1000
0100
1000
0100
0010
0001
0010
0001
0010
0001
1000
0010
1000
0010
1000
0010
0100
0001
0100
0001
0100
0001
,
1000
0100
1000
0100
1000
0100
0010
0001
0010
0001
0010
0001
1000
0010
1000
0010
1000
0010
0100
0001
0100
0001
0100
0001
,
1000
0100
0010
0001
0100
0010
1000
0010
0100
0001
0010
0100
1000
0010
0100
0001
0010
0100
1000
0100
0010
0001
0100
0010
,
1000
0100
0010
0100
1000
0010
0100
0010
1000
0100
0010
0001
1000
0010
0100
0010
1000
0100
0010
0100
1000
0010
0100
0001
,
1000
0100
1000
0100
1000
0100
0010
0001
0010
0001
0010
0001
1000
0001
1000
0001
1000
0001
0010
0100
0010
0100
0010
0100
,
1000
0010
1000
0010
1000
0010
0100
0001
0100
0001
0100
0001
0100
0010
0100
0010
0100
0010
1000
0001
1000
0001
0000
0000
;
