#TITLE:Brainpower;
#SUBTITLE:(Rock Band Ver.);
#ARTIST:Freezepop;
#TITLETRANSLIT:;
#SUBTITLETRANSLIT:;
#ARTISTTRANSLIT:;
#GENRE:;
#CREDIT:;
#MUSIC:Brainpower.ogg;
#BANNER:;
#BACKGROUND:;
#CDTITLE:;
#SAMPLESTART:44.770;
#SAMPLELENGTH:10.105;
#SELECTABLE:YES;
#OFFSET:-0.244;
#BPMS:0.000=190.000;
#STOPS:;
#BGCHANGES:;
#FGCHANGES:;

//--------------- dance-single - ----------------
#NOTES:
     dance-single:
     :
     Beginner:
     1:
     0,0,0,0,0:
0000
0000
0000
0000
,
0000
0000
0000
0000
,
0000
0000
0000
0000
,
0000
0000
0000
0000
,
0000
0000
0000
0000
,
0000
0000
0000
0000
,
0000
0000
0000
0000
,
0000
1000
0000
0000
,
0000
0000
0000
0000
,
0000
0001
0000
0000
,
0000
0000
0000
0000
,
0000
0100
0000
0000
,
0000
0000
0000
0000
,
0000
0010
0000
0000
,
0000
0000
0000
0000
,
0000
1000
0000
0000
,
0000
0100
0000
0000
,
0000
0010
0000
0000
,
0000
0001
0000
0000
,
0000
1000
0000
0000
,
0000
0000
0000
0000
,
0000
1000
0000
0000
,
0000
0000
0000
0000
,
0000
1000
0000
0000
,
0000
0000
0000
0000
,
0000
1000
0000
0000
,
0000
0000
0000
0000
,
0000
0001
0000
0000
,
0000
0000
0000
0000
,
0000
0001
0000
0000
,
0000
0000
0000
0000
,
0000
0001
0000
0000
,
0000
0000
0000
0000
,
0000
0001
0000
0000
,
0000
0000
0000
0000
,
0000
1000
0000
0000
,
0000
0000
0000
0000
,
0000
0100
0000
0000
,
0000
0000
0000
0000
,
0000
0010
0000
0000
,
0000
0000
0000
0000
,
0000
0001
0000
0000
,
0000
0000
0000
0000
,
0000
1000
0000
0000
,
0000
0000
0000
0000
,
0000
0010
0000
0000
,
0000
0000
0000
0000
,
0000
0100
0000
0000
,
0000
0000
0000
0000
,
0000
0001
0000
0000
,
0000
0000
0000
0000
,
0000
1000
0000
0000
,
0000
0000
0000
0000
,
0000
0000
0000
0000
,
0000
1000
0000
0100
,
0000
0010
0000
0001
,
0000
1000
0000
0010
,
0000
0100
0000
0001
,
0000
1000
0000
0001
,
0000
1000
0000
0000
,
0000
0000
0000
0000
,
0000
1000
0000
0000
,
0000
0000
0000
0000
,
0000
0001
0000
0000
,
0000
0000
0000
0000
,
0000
0001
0000
0000
,
0000
0000
0000
0000
,
0000
1000
0000
0000
,
0000
0000
0000
0000
,
0000
0010
0000
0000
,
0000
0000
0000
0000
,
0000
0100
0000
0000
,
0000
0000
0000
0000
,
0000
0001
0000
0000
,
0000
0000
0000
0000
,
0000
1000
0000
0000
,
0000
0100
0000
0000
,
0000
0010
0000
0000
,
0000
0001
0000
0000
,
0000
1000
0000
0000
,
0000
0010
0000
0000
,
0000
0100
0000
0000
,
0000
0001
0000
0000
,
0000
1000
0000
0000
,
0000
0100
0000
0000
0000
0000
0000
0000
,
0000
0010
0000
0000
0000
0000
0000
0000
,
0000
0001
0000
0000
0000
0000
0000
0000
,
0000
1000
0000
0000
0000
0000
0000
0000
,
0000
0010
0000
0000
0000
0000
0000
0000
,
0000
0100
0000
0000
0000
0000
0000
0000
,
0000
0001
0000
0000
0000
0000
0000
0000
,
0000
0010
0000
0000
,
0000
0010
0000
0000
,
0000
0010
0000
0000
,
0000
0010
0000
0000
,
0000
0010
0000
0000
,
0000
0010
0000
0000
,
0000
0010
0000
0000
,
0000
2002
0000
0000
,
0000
0000
0000
3003
;

//--------------- dance-single - ----------------
#NOTES:
     dance-single:
     :
     Easy:
     3:
     0,0,0,0,0:
0000
0000
0000
0000
,
0000
0000
0000
0000
,
0000
0000
0000
0000
,
0000
0000
0000
0000
,
0000
0000
0000
0000
,
0000
0000
0000
0000
,
0000
0000
0000
0000
,
0000
1000
0000
0100
,
0000
0010
0000
0001
,
0000
1000
0000
0010
,
0000
0100
0000
0001
,
0000
1000
0000
0000
,
0000
1000
0000
0000
,
0000
0001
0000
0000
,
0000
0001
0000
0000
,
0000
0100
0000
0000
,
0000
0100
0000
0000
,
0000
0010
0000
0000
,
0000
0010
0000
0010
,
0000
1000
0000
0000
,
0000
0100
0000
0000
,
0000
0010
0000
0000
,
0000
0001
0000
0000
,
0000
1000
0000
0000
,
0000
0010
0000
0000
,
0000
0100
0000
0000
,
0000
0001
0000
0000
,
0000
1000
0000
0100
,
0000
0010
0000
0001
,
0000
1000
0000
0010
,
0000
0100
0000
0001
,
0000
1000
0000
0000
,
0000
0001
0000
0000
,
0000
1000
0000
0000
,
0000
0001
0000
0000
,
0000
1000
0000
0000
,
0000
0100
0000
0000
,
0000
0010
0000
0000
,
0000
0001
0000
0000
,
0000
1000
0000
0000
,
0000
0010
0000
0000
,
0000
0100
0000
0000
,
0000
0001
0000
0000
,
0000
1000
0000
0000
,
0000
0100
0000
0000
,
0000
0010
0000
0000
,
0000
0001
0000
0000
,
0000
1000
0000
0000
,
0000
0010
0000
0000
,
0000
0100
0000
0000
,
0000
0001
0000
0000
,
0000
1000
0000
0000
,
0000
1000
0000
0000
,
0000
1000
0000
0000
,
0000
1000
0100
1000
,
0010
0100
0001
0010
,
0100
1000
0100
0010
,
0001
0100
0010
1000
,
0100
0000
1000
0000
0001
0000
1000
0001
,
1000
0001
1000
0000
0000
0000
1000
0000
,
0000
0100
0000
0100
,
0000
0010
0000
0010
,
0000
0001
0000
0001
,
0000
1000
0000
0000
,
0000
0001
0000
0000
,
0000
1000
0000
0000
,
0000
1001
0000
0000
,
0000
0001
0000
0000
,
0000
0010
0000
0000
,
0000
0100
0000
0000
,
0000
1000
0000
0000
,
0000
0001
0000
0000
,
0000
0100
0000
0000
,
0000
0010
0000
0000
,
0000
1000
0000
0000
,
0000
0000
0001
0000
0000
0001
0000
0000
,
0000
0000
0100
0000
0000
0100
0000
0000
,
0000
0000
0010
0000
0000
0010
0000
0000
,
0000
0000
1000
0000
0000
1000
0000
0000
,
0000
0000
0001
0000
0000
0001
0000
0000
,
0000
0000
0010
0000
0000
0010
0000
0000
,
0000
0000
0100
0000
0000
0100
0000
0000
,
0000
1000
0000
0000
,
0000
1000
0000
0000
,
0000
0100
0000
0000
0010
0000
0000
0000
,
0000
0001
0000
0000
0010
0000
0000
0000
,
0000
0100
0000
0000
1000
0000
0000
0000
,
0000
0010
0000
0000
0100
0000
0000
0000
,
0000
0001
0000
0000
0010
0000
0000
0000
,
0000
0100
0000
0000
1000
0000
0000
0000
,
0000
0010
0000
0000
0100
0000
0000
0000
,
0000
0000
0020
0030
0000
0000
0000
0000
,
0000
0020
0000
0030
,
0000
0000
0020
0030
0000
0000
0000
0000
,
0000
0020
0000
0000
,
0030
0000
0020
0030
0000
0000
0000
0000
,
0000
0000
0020
0030
0000
0000
0000
0000
,
0000
0000
0020
0030
0000
0000
0000
0000
,
0000
2002
0000
0000
,
0000
0000
0000
3003
;

//--------------- dance-single - ----------------
#NOTES:
     dance-single:
     :
     Medium:
     5:
     0,0,0,0,0:
0000
0000
0000
0000
,
0000
0000
0000
0000
,
0000
0000
0000
0000
,
0000
0000
0000
0000
,
0000
0000
0000
0000
,
0000
0000
0000
0000
,
0000
0000
0000
0000
,
0000
1000
0000
1000
,
0000
1000
0000
1000
,
0000
1000
0000
1000
,
0000
1000
0000
1000
,
0000
0001
0000
0001
,
0000
0001
0000
0001
,
0000
0001
0000
0001
,
0000
0001
0000
0001
,
0000
0100
0000
0100
,
0000
0010
0000
0010
,
0000
0100
0000
0100
,
0000
0010
0000
0010
,
0000
1000
0100
0010
,
0001
1000
0010
0100
,
0001
1000
0100
0010
,
0001
1000
0010
0100
,
0001
1000
1000
0001
,
0001
0100
0100
0010
,
0010
1000
0100
0010
,
0001
1000
0000
0000
,
0000
0001
0001
0010
,
0010
0100
0100
1000
,
1000
0001
0001
0100
,
0100
0010
0010
1000
,
1000
0001
0010
0100
,
1000
0001
0100
0010
,
1000
0001
1000
0010
,
0100
0001
0000
0000
,
0000
1000
0000
0000
,
0000
0100
0000
0000
,
0000
0010
0000
0000
,
0000
0001
0000
0000
,
0000
1000
0000
0000
,
0000
0010
0000
0000
,
0000
0100
0000
0000
,
0000
0001
0000
0000
,
0000
1000
0000
0000
,
0000
0100
0000
0000
,
0000
0010
0000
0000
,
0000
0001
0000
0000
,
0000
1000
0000
0000
,
0000
0001
0000
0000
,
0000
1000
0000
0000
,
0000
0001
0000
0000
,
0000
1000
0000
1000
,
0000
1000
0000
1000
,
0000
1000
0000
1000
,
0000
0000
1000
0000
0100
0000
1000
0100
,
1000
0000
0001
0000
0010
0000
0001
0010
,
0001
0000
1000
0000
0010
0000
1000
0010
,
1000
0000
0001
0000
0100
0000
0001
0100
,
0001
0000
1000
0000
0100
0000
0010
0001
,
1000
0010
1000
0000
0000
0000
1000
0000
,
0000
0001
0000
0001
,
0000
0100
0000
0100
,
0000
0010
0000
0010
,
0000
1000
0000
0000
,
0000
0001
0000
0000
,
0000
1000
0000
0000
,
0000
1001
0000
0000
,
0000
1000
0000
0000
,
0000
0100
0000
0000
,
0000
0010
0000
0000
,
0000
0001
0000
0000
,
0000
0000
1000
0000
0000
1000
0000
0000
,
0000
0000
0100
0000
0000
0100
0000
0000
,
0000
0000
0010
0000
0000
0010
0000
0000
,
0000
0000
0001
0000
0000
0001
0000
0000
,
0000
0000
1000
0000
0000
1000
0000
0000
,
1000
0000
0100
0000
0000
0100
0000
0000
,
0100
0000
0010
0000
0000
0010
0000
0000
,
0010
0000
0001
0000
0000
0001
0000
0000
,
0001
1000
0000
0000
,
0000
0100
0000
0000
,
0000
0010
0000
0000
,
0000
0001
0000
0000
,
0000
1001
1000
0100
,
0000
0010
0000
0000
0001
0000
0010
0000
,
0000
0100
0000
0000
1000
0000
0010
0000
,
0000
0100
0000
0000
0001
0000
0100
0000
,
0000
0010
0000
0000
1000
0000
0100
0000
,
0000
0010
0000
0000
0001
0000
0100
0000
,
0000
0010
0000
0000
1000
0000
0010
0000
,
0000
0100
0000
0000
0001
0000
0010
0000
,
0000
0000
0010
0010
0000
0000
0000
0000
,
0000
0000
0010
0010
0000
0000
0000
0000
,
0000
0000
0010
0010
0000
0000
0000
0000
,
0000
0000
0010
0010
0000
0000
0000
0000
,
0000
0000
0010
0010
0000
0000
0000
0000
,
0000
0000
0010
0010
0000
0000
0000
0000
,
0000
0000
0010
0010
0000
0000
0000
0000
,
0000
2002
0000
0000
,
0000
0000
0000
3003
;

//--------------- dance-single - ----------------
#NOTES:
     dance-single:
     :
     Hard:
     7:
     0,0,0,0,0:
0000
0000
0000
0000
,
0000
0000
0000
0000
,
0000
0000
0000
0000
,
0000
1000
0000
1000
,
0000
1000
0000
1000
,
0000
1000
0000
1000
,
0000
1000
0000
1000
,
0000
0000
1000
0100
1000
0000
0001
0100
,
0001
0000
1000
0100
1000
0000
0001
0100
,
0001
0000
1000
0010
1000
0000
0001
0010
,
0001
0000
1000
0010
1000
0000
0001
0010
,
0001
0000
1000
0100
0010
0000
0100
0010
,
0001
0000
0001
0010
0100
0000
0010
0100
,
1000
0000
1000
0010
0100
0000
0100
0001
,
0010
0000
0001
0100
0010
0000
0010
1000
,
0100
0000
1000
0100
0010
0000
0100
0001
,
0010
0000
0001
0010
0100
0000
0010
1000
,
0100
0000
1000
0010
0100
0000
0100
0010
,
0001
0000
0001
0100
0010
0000
0010
0100
,
1000
1000
0100
0010
,
0001
1000
0100
0010
,
0001
1000
0010
0100
,
0001
1000
0010
0100
,
0001
1000
0100
0010
,
0001
1000
0010
0100
,
0001
1000
0001
1000
,
0001
0100
0010
0100
,
0010
1000
0010
0100
,
0001
1000
0010
0100
,
0001
1000
0100
0010
,
0001
1000
0100
0010
,
0001
1000
0010
0100
,
0001
1000
0100
0010
,
0001
1000
0001
1000
,
0001
0100
0000
0000
,
0000
1001
0000
0000
,
0000
0110
0000
0000
,
0000
1010
0000
0000
,
0000
0101
0000
0000
,
0000
0110
0000
0000
,
0000
1100
0000
0000
,
0000
0011
0000
0000
,
0000
1001
0000
0000
,
0000
1000
0000
1000
,
0000
0100
0000
0100
,
0000
0010
0000
0010
,
0000
0001
0000
0001
,
0000
0000
1000
0000
0000
1000
0000
0000
,
0000
0000
0100
0000
0000
0100
0000
0000
,
0000
0000
0010
0000
0000
0010
0000
0000
,
0000
0001
0000
0000
,
0000
1000
0000
1000
,
0000
1000
0000
1000
,
0000
1000
0000
1000
,
0000
0000
1000
0100
0010
0001
0100
0010
,
0100
0001
0010
0100
1000
0010
0100
0010
,
1000
0100
0010
0001
1000
0010
0100
0001
,
0010
0100
0010
0001
0100
0010
1000
0100
,
0010
0100
1000
0010
0100
0001
1000
0100
,
0010
0001
1000
0000
0000
0000
1000
0000
,
0000
0001
0000
0001
,
0000
0100
0000
0100
,
0000
0010
0000
0010
,
0000
1000
0000
0000
,
0000
0001
0000
0000
,
0000
0100
0000
0010
,
0000
1001
0000
0000
,
0000
0000
1000
0000
0000
1000
0000
0000
,
0000
0000
0100
0000
0000
0100
0000
0000
,
0000
0000
0010
0000
0000
0010
0000
0000
,
0000
0000
0001
0000
0000
0001
0000
0000
,
0000
0000
1000
0000
0000
1000
0000
0000
,
1000
0000
0100
0000
0000
0100
0000
0000
,
0100
0000
0010
0000
0000
0010
0000
0000
,
0010
0000
0001
0000
0000
0001
0000
0000
,
0001
0000
1000
0000
0000
1000
0000
0000
,
1000
1000
0100
0000
0000
0100
0000
0000
,
0100
0100
0010
0000
0000
0010
0000
0000
,
0010
0010
0001
0000
0000
0001
0000
0000
,
0001
0001
1000
0000
0000
1000
0000
0000
,
0000
0000
0100
0000
0000
0100
0000
0000
,
0000
0000
0010
0000
0000
0010
0000
0000
,
0000
0000
0001
0000
0000
0001
0000
0000
,
0000
0000
2002
3003
0002
0000
0023
0230
,
0000
2300
0000
0000
3002
0000
0203
0320
,
0000
2030
0000
3000
2000
0000
3200
0320
,
0000
0032
0000
0000
2003
0000
3020
0230
,
0000
0302
0000
0000
2003
0000
3200
0320
,
0000
0032
0000
0003
0002
0000
0023
0230
,
0000
2300
0000
3000
2000
0000
3020
0230
,
0000
0302
0000
0003
0002
0000
0203
0320
,
0030
0000
0010
0020
0000
0030
0000
0000
,
0000
0000
0010
0020
0000
0000
0030
0000
,
0000
0000
0010
0020
0030
0000
0000
0000
,
0000
0000
0010
0020
0000
0000
0000
0030
,
0000
0000
0010
0020
0030
0000
0000
0000
,
0000
0000
0010
0020
0030
0000
0000
0000
,
0000
0000
0010
0020
0030
0000
0000
0000
,
0000
2002
0000
0000
,
0000
0000
0000
3003
;

//--------------- dance-single - ----------------
#NOTES:
     dance-single:
     :
     Challenge:
     12:
     0,0,0,0,0:
0000
0000
0000
0000
,
0000
0000
0000
0000
,
0000
0000
0000
0000
,
0000
0000
0000
0000
,
0000
0000
0000
0000
,
0000
0000
0000
0000
,
0000
0000
0000
0000
,
0000
0000
1000
0100
0010
0001
1000
0100
,
0010
0001
1000
0010
0100
0001
1000
0010
,
0100
0001
1000
0100
0010
0001
1000
0100
,
0010
0001
1000
0010
0100
0001
1000
0010
,
0100
0001
1000
0100
0010
0001
1000
0010
,
0100
0001
1000
0100
0010
0001
1000
0010
,
0100
0001
1000
0100
0010
0001
1000
0010
,
0100
0001
1000
0100
0010
0001
1000
0010
,
0100
0001
1000
0100
0010
0001
1000
0010
,
0100
0001
1000
0100
0010
0001
1000
0010
,
0100
0001
1000
0100
0010
0001
1000
0010
,
0100
0001
1000
0100
0010
0001
1000
0010
,
0100
0001
1000
0100
1000
0100
1000
0100
,
1000
0100
1000
0100
1000
0100
1000
0100
,
0010
0001
1000
0100
1000
0100
1000
0100
,
1000
0100
1000
0100
1000
0100
1000
0100
,
0010
0001
1000
0100
1000
0100
1000
0100
,
0010
0001
1000
0100
1000
0100
1000
0100
,
0010
0001
1000
0100
1000
0100
1000
0100
,
0010
0001
1000
0100
0010
0001
1000
0100
,
0010
0001
1000
0010
1000
0010
1000
0010
,
1000
0010
1000
0010
1000
0010
1000
0010
,
0100
0001
1000
0010
1000
0010
1000
0010
,
1000
0010
1000
0010
1000
0010
1000
0010
,
0100
0001
1000
0010
1000
0010
1000
0010
,
0100
0001
1000
0010
1000
0010
1000
0010
,
0100
0001
1000
0010
1000
0010
1000
0010
,
0100
0001
2000
0000
0000
0000
3000
0110
,
0000
0200
0000
0300
,
0100
1000
0020
0000
0030
0020
0000
0030
,
0010
0100
0002
0000
0003
0002
0000
0000
,
0003
0000
1000
0100
0010
0100
1000
0100
,
0010
0001
0200
0000
0300
0200
0000
0300
,
0100
0000
0020
0000
0030
0020
0000
0030
,
0010
0001
2000
0000
3000
2000
0000
0000
,
0000
3000
0100
1000
0100
0010
0100
1000
,
0100
0010
0002
0000
0003
0002
0000
0003
,
0001
0010
0200
0000
0300
0200
0000
0300
,
0100
1000
0020
0000
0030
0020
0000
0000
,
0000
0030
0001
0010
0100
0010
0001
0010
,
0100
1000
2000
0000
3000
2000
0000
3000
,
1000
0000
0200
0000
0300
0200
0000
0300
,
0100
0001
0020
0000
0030
0020
0000
0000
,
0000
0030
0002
0000
0000
0000
0003
0000
,
0000
0000
1000
0010
1000
0010
1000
0100
,
1000
0100
1000
0010
1000
0010
1000
0100
,
1000
0100
1000
0010
1000
0010
1000
0100
,
1000
0000
0100
0000
1000
0100
0010
0001
0100
0010
0100
0001
0010
0100
1000
0010
,
0100
0010
1000
0100
0010
0001
1000
0010
0100
0001
0010
0100
0010
0001
0100
0010
,
1000
0100
0010
0100
1000
0010
0100
0001
1000
0100
0010
0100
1000
0010
0100
0001
,
0010
0100
1000
0001
0100
0010
0100
0001
0010
0100
1000
0100
0010
0001
1000
0100
,
1000
0001
0010
0100
1000
0001
0100
0001
1000
0010
0100
0001
1000
0010
1000
0001
,
0100
0010
1000
0100
1000
0000
0100
0000
1000
0000
0100
0000
1000
0000
0100
0000
,
1000
0100
1000
0100
1000
0100
1000
0100
,
0010
0001
1000
0010
1000
0010
1000
0010
,
1000
0010
1000
0010
1000
0010
1000
0010
,
0100
0001
1000
0100
1000
0100
1000
0100
,
0010
0001
1000
0010
1000
0010
1000
0010
,
0100
0001
1000
0100
0010
0001
1000
0010
,
0100
0001
2000
0000
0000
0000
3000
0110
,
0000
0020
0000
0030
,
0010
0001
0200
0000
0300
0200
0000
0300
,
0100
0010
2000
0000
3000
2000
0000
0000
,
3000
0000
0001
0010
0100
0010
0001
0010
,
0100
1000
0020
0000
0030
0020
0000
0030
,
0010
0000
0200
0000
0300
0200
0000
0300
,
0100
1000
0002
0000
0003
0002
0000
0000
,
0000
0003
0010
0001
0010
0100
0010
0001
,
0010
0100
2000
0000
3000
2000
0000
3000
,
1000
0100
0020
0000
0030
0020
0000
0030
,
0010
0001
0200
0000
0300
0200
0000
0000
,
0000
0300
1000
0100
0010
0100
1000
0100
,
0010
0001
0002
0000
0003
0002
0000
0003
,
0001
0000
0020
0000
0030
0020
0000
0030
,
0010
1000
0200
0000
0300
0200
0000
0000
,
0000
0300
2000
0000
0000
0000
3000
0000
,
0000
0000
2002
3003
2000
0000
3200
0320
,
0000
0032
0000
0000
2003
0000
3020
0230
,
0000
0302
0000
0003
0002
0000
0023
0230
,
0000
2300
0000
0000
3002
0000
0203
0320
,
0000
2030
0000
3000
2000
0000
3200
0320
,
0000
0032
0000
0003
0002
0000
0023
0230
,
0000
2300
0000
3000
2000
0000
3020
0230
,
0000
0302
0000
0003
0002
0000
0203
0320
,
0000
0000
0030
0000
0020
0030
0020
0000
0000
0000
0030
0000
0000
0000
0000
0000
,
0000
0000
0000
0000
0020
0030
0020
0000
0000
0000
0000
0000
0000
0000
0030
0000
,
0000
0000
0000
0000
0020
0030
0020
0000
0030
0000
0000
0000
0000
0000
0000
0000
,
0000
0000
0000
0000
0020
0030
0020
0000
0000
0000
0000
0000
0000
0000
0000
0000
,
0030
0000
0000
0000
0020
0030
0020
0000
0030
0000
0000
0000
0000
0000
0000
0000
,
0000
0000
0000
0000
0020
0030
0020
0000
0030
0000
0000
0000
0000
0000
0000
0000
,
0000
0000
0000
0000
0020
0030
0020
0000
0030
0000
0000
0000
0000
0000
0000
0000
,
0000
2002
0000
0000
,
0000
0000
0000
3003
;

//--------------- dance-single - ----------------
#NOTES:
     dance-single:
     :
     Edit:
     16:
     0,0,0,0,0:
0000
0000
0000
0000
,
0000
0000
0000
0000
,
0000
0000
0000
0000
,
0000
0000
0000
0000
,
0000
0000
0000
0000
,
0000
0000
0000
0000
,
0000
0000
0000
0000
,
0000
0000
1000
0100
0010
0001
1000
0100
,
0010
0001
1000
0010
0100
0001
1000
0010
,
0100
0001
1000
0100
0010
0001
1000
0100
,
0010
0001
1000
0010
0100
0001
1000
0010
,
0100
0001
1000
0100
0010
0001
1000
0010
,
0100
0001
1000
0100
0010
0001
1000
0010
,
0100
0001
1000
0100
0010
0001
1000
0010
,
0100
0001
1000
0100
0010
0001
1000
0010
,
0100
0001
1000
0100
0010
0001
1000
0010
,
0100
0001
1000
0100
0010
0001
1000
0010
,
0100
0001
1000
0100
0010
0001
1000
0010
,
0100
0001
1000
0100
0010
0001
1000
0010
,
0100
0001
1000
0100
1000
0100
1000
0100
,
1000
0100
1000
0100
1000
0100
1000
0100
,
0010
0001
1000
0100
1000
0100
1000
0100
,
1000
0100
1000
0100
1000
0100
1000
0100
,
0010
0001
1000
0100
1000
0100
1000
0100
,
0010
0001
1000
0100
1000
0100
1000
0100
,
0010
0001
1000
0100
1000
0100
1000
0100
,
0010
0001
1000
0100
0010
0001
1000
0100
,
0010
0001
1000
0010
1000
0010
1000
0010
,
1000
0010
1000
0010
1000
0010
1000
0010
,
0100
0001
1000
0010
1000
0010
1000
0010
,
1000
0010
1000
0010
1000
0010
1000
0010
,
0100
0001
1000
0010
1000
0010
1000
0010
,
0100
0001
1000
0010
1000
0010
1000
0010
,
0100
0001
1000
0010
1000
0010
1000
0010
,
0100
0001
2000
0000
0000
0000
3000
0110
,
0000
0200
0000
0300
,
0100
1000
0020
0000
0030
0020
0000
0030
,
0010
0100
0002
0000
0003
0002
0000
0000
,
0003
0000
1000
0100
0010
0100
1000
0100
,
0010
0001
0200
0000
0300
0200
0000
0300
,
0100
0000
0020
0000
0030
0020
0000
0030
,
0010
0001
2000
0000
3000
2000
0000
0000
,
0000
3000
0100
1000
0100
0010
0100
1000
,
0100
0010
0002
0000
0003
0002
0000
0003
,
0001
0010
0200
0000
0300
0200
0000
0300
,
0100
1000
0020
0000
0030
0020
0000
0000
,
0000
0030
0001
0010
0100
0010
0001
0010
,
0100
1000
2000
0000
3000
2000
0000
3000
,
1000
0000
0200
0000
0300
0200
0000
0300
,
0100
0001
0020
0000
0030
0020
0000
0000
,
0000
0030
0002
0000
0000
0000
0003
0000
,
0000
0000
1000
0010
1000
0010
1000
0100
,
1000
0100
1000
0010
1000
0010
1000
0100
,
1000
0100
1000
0010
1000
0010
1000
0100
,
1000
0000
0000
0100
0000
0000
1000
0100
1000
0100
1000
0100
0010
0001
0010
0001
0010
0001
1000
0010
1000
0010
1000
0010
,
0100
0001
0100
0001
0100
0001
1000
0010
1000
0010
1000
0010
0100
0001
0100
0001
0100
0001
1000
0100
1000
0100
1000
0100
,
0010
0001
0010
0001
0010
0001
1000
0100
1000
0100
1000
0100
1000
0010
1000
0010
1000
0010
0100
0001
0100
0001
0100
0001
,
0010
0001
0010
0001
0010
0001
1000
0010
1000
0010
1000
0010
1000
0100
1000
0100
1000
0100
0010
0001
0010
0001
0010
0001
,
0100
0001
0100
0001
0100
0001
1000
0100
0010
0001
0010
0100
1000
0100
0010
0001
0100
0010
1000
0010
0100
0001
0100
0010
,
1000
0010
0100
0001
0010
0100
1000
0000
0000
0100
0000
0000
1000
0000
0000
0100
0000
0000
1000
0000
0000
0100
0000
0000
,
1000
0100
1000
0100
1000
0100
1000
0100
,
0010
0001
1000
0010
1000
0010
1000
0010
,
1000
0010
1000
0010
1000
0010
1000
0010
,
0100
0001
1000
0100
1000
0100
1000
0100
,
0010
0001
1000
0010
1000
0010
1000
0010
,
0100
0001
1000
0100
0010
0001
1000
0010
,
0100
0001
2000
0000
0000
0000
3000
0110
,
0000
0020
0000
0030
,
0010
0001
0200
0000
0300
0200
0000
0300
,
0100
0010
2000
0000
3000
2000
0000
0000
,
3000
0000
0001
0010
0100
0010
0001
0010
,
0100
1000
0020
0000
0030
0020
0000
0030
,
0010
0000
0200
0000
0300
0200
0000
0300
,
0100
1000
0002
0000
0003
0002
0000
0000
,
0000
0003
0010
0001
0010
0100
0010
0001
,
0010
0100
2000
0000
3000
2000
0000
3000
,
1000
0100
0020
0000
0030
0020
0000
0030
,
0010
0001
0200
0000
0300
0200
0000
0000
,
0000
0300
1000
0100
0010
0100
1000
0100
,
0010
0001
0002
0000
0003
0002
0000
0003
,
0001
0000
0020
0000
0030
0020
0000
0030
,
0010
1000
0200
0000
0300
0200
0000
0000
,
0000
0300
2000
0000
0000
0000
3000
0000
,
0000
0000
2002
3003
2000
0000
3200
0320
,
0000
0032
0000
0000
2003
0000
3020
0230
,
0000
0302
0000
0003
0002
0000
0023
0230
,
0000
2300
0000
0000
3002
0000
0203
0320
,
0000
2030
0000
3000
2000
0000
3200
0320
,
0000
0032
0000
0003
0002
0000
0023
0230
,
0000
2300
0000
3000
2000
0000
3020
0230
,
0000
0302
0000
0003
0002
0000
0203
0320
,
0000
0000
0030
0000
0020
0030
0020
0000
0000
0000
0030
0000
0000
0000
0000
0000
,
0000
0000
0000
0000
0020
0030
0020
0000
0000
0000
0000
0000
0000
0000
0030
0000
,
0000
0000
0000
0000
0020
0030
0020
0000
0030
0000
0000
0000
0000
0000
0000
0000
,
0000
0000
0000
0000
0020
0030
0020
0000
0000
0000
0000
0000
0000
0000
0030
0000
,
0000
0000
0000
0000
0020
0030
0020
0000
0030
0000
0000
0000
0000
0000
0000
0000
,
0000
0000
0000
0000
0020
0030
0020
0000
0030
0000
0000
0000
0000
0000
0000
0000
,
0000
0000
0000
0000
0020
0030
0020
0000
0030
0000
0000
0000
0000
0000
0000
0000
,
0000
2002
0000
0000
,
0000
0000
0000
3003
;
