#TITLE:Biometrics Warrior;
#SUBTITLE:;
#ARTIST:GUHROOVY fw. NO+CHIN;
#TITLETRANSLIT:;
#SUBTITLETRANSLIT:;
#ARTISTTRANSLIT:;
#GENRE:;
#CREDIT:;
#MUSIC:Biometrics Warrior.ogg;
#BANNER:;
#BACKGROUND:;
#CDTITLE:;
#SAMPLESTART:2.188;
#SAMPLELENGTH:26.791;
#SELECTABLE:YES;
#OFFSET:-0.514;
#BPMS:0.000=107.500
,67.000=215.000
,131.000=107.500
,179.000=215.000
,291.000=107.500
,299.000=53.750
;
#STOPS:;
#DISPLAYBPM:107.499796:214.999594;
#BGCHANGES:-0.514=Biometrics Warrior.avi=1.000=1=0=0=StretchNoLoop==CrossFade==,
99999.000=-nosongbg-=1.000=0=0=0=StretchNoLoop====
;
#FGCHANGES:;

//--------------- dance-single - ----------------
#NOTES:
     dance-single:
     :
     Beginner:
     3:
     0,0,0,0,0:
0000
0000
0000
0000
,
0000
0000
0000
0000
,
0000
0000
0000
0000
,
0000
0000
0000
0000
,
0000
0000
0000
1000
,
0000
0000
0000
0100
,
0000
0000
0000
0010
,
0000
0000
0000
0001
,
0000
0000
0000
1000
,
0000
0000
0000
0010
,
0000
0000
0000
0100
,
0000
0000
0000
0001
,
0000
0000
0000
1000
,
0000
0100
0000
0010
,
0000
0001
0000
1000
,
0000
0010
0000
0100
,
0000
0001
0000
1000
,
0000
0100
0000
0010
,
0000
0001
0000
1000
,
0000
0010
0000
0100
,
0000
0001
0000
1000
,
0000
0100
0000
0010
,
0000
0100
0000
1000
,
0000
0010
0000
0100
,
0000
0010
0000
1000
,
0000
0010
0000
0100
,
0000
0001
0000
1000
,
0000
0100
0000
0010
,
0000
0001
0000
1000
,
0000
0010
0000
0100
,
0000
0010
0000
1000
,
0000
0100
0000
0010
,
0000
0100
0000
1000
,
0000
0000
0000
0010
,
0000
0000
0000
0100
,
0000
0000
0000
0001
,
0000
0000
0000
1000
,
0000
0000
0000
0100
,
0000
0000
0000
0010
,
0000
0000
0000
0001
,
0000
0000
0000
1000
,
0000
0000
0000
0001
,
0000
0000
0000
1000
,
0000
0010
0000
0100
,
0000
0001
0000
1000
,
0000
0100
0000
0010
,
0000
0001
0000
1000
,
0000
0010
0000
0100
,
0000
0010
0000
1000
,
0000
0010
0000
0100
,
0000
0001
0000
1000
,
0000
0100
0000
0010
,
0000
0100
0000
1000
,
0000
0010
0000
0100
,
0000
0001
0000
1000
,
0000
0100
0000
0010
,
0000
0100
0000
1000
,
0000
0100
0000
0010
,
0000
0001
0000
1000
,
0000
0010
0000
0100
,
0000
0010
0000
1000
,
0000
1001
0000
0000
,
0000
0000
0000
0001
,
0000
1001
0000
0000
,
0000
0000
0000
1000
,
0000
0100
0000
0010
,
0000
0001
0000
1000
,
0100
0001
0100
1000
,
0010
0001
0010
1000
,
0000
0000
0000
0100
,
0000
0000
0000
0010
,
0000
0000
0000
0001
,
0000
0000
0000
1000
,
0000
0000
0000
0001
,
0000
0000
0000
1001
;

//--------------- dance-single - ----------------
#NOTES:
     dance-single:
     :
     Easy:
     9:
     0,0,0,0,0:
0000
0000
0000
0000
,
0000
0000
0000
0000
,
0000
0000
0000
0000
,
0000
0000
0000
0000
,
0000
0000
0000
1000
,
0000
0100
0000
0010
,
0000
0001
0000
1000
,
0000
0010
0000
0100
,
0000
0001
0000
1000
,
0000
0100
0000
0010
,
0000
0100
0000
1000
,
0000
0010
0000
0100
,
0000
0010
0000
1000
,
0100
0010
0001
1000
,
0010
0100
0001
1000
,
0100
0010
0100
1000
,
0010
0000
0100
0000
0010
0000
1000
0100
,
1000
0000
0001
0100
0001
0000
1000
0010
,
1000
0000
0001
0010
0001
0000
1000
0000
,
0100
0000
0010
0000
0001
0000
1000
0100
,
1000
0100
0010
0001
0010
0001
1000
0000
,
0100
0010
0100
1000
,
0010
0100
0010
1000
,
0100
0001
0100
1000
,
0010
0000
0001
0000
0010
0000
1000
0010
,
1000
0000
0001
0010
0001
0000
1000
0100
,
1000
0000
0001
0100
0001
0000
1000
0000
,
0010
0000
0100
0000
0001
0000
1000
0010
,
1000
0010
0100
0001
0100
0001
1000
0000
,
0010
0100
0010
1000
,
0100
0010
0100
1000
,
0010
0001
0010
1000
,
0100
0001
0100
1000
,
0000
0100
0000
0010
,
0000
0001
0000
1000
,
0000
0010
0000
0100
,
0000
0001
0000
1000
,
0000
0100
0000
0010
,
0000
0100
0000
1000
,
0000
0010
0000
0100
,
0000
0010
0000
1000
,
0000
0000
0000
0001
,
0000
0000
0000
1000
,
0000
0100
0000
0010
,
0000
0000
0001
0000
0000
0000
1000
0100
,
1000
0000
1000
0010
0100
0000
0001
0100
,
0001
0000
0001
0010
0100
0000
1000
0000
,
0100
0000
0010
0000
0001
0000
1000
0010
,
1000
0010
0100
0001
0100
0001
1000
0000
,
0100
0001
0100
1000
,
0010
0100
0010
1000
,
0100
0010
0100
1000
,
0010
0000
0001
0000
0010
0000
1000
0010
,
1000
0000
1000
0100
0010
0000
0001
0010
,
0001
0000
0001
0100
0010
0000
1000
0000
,
0010
0000
0100
0000
0001
0000
1000
0100
,
1000
0100
0010
0001
0010
0001
1000
0000
,
0010
0001
0010
1000
,
0100
0010
0100
1000
,
0010
0100
0010
1000
,
0100
0001
0100
1000
,
0001
1001
0000
0000
,
0000
0000
0000
0001
,
1000
1001
0000
0000
,
0000
0000
0000
1000
,
0100
0010
0001
1000
,
0010
0000
0100
0000
0001
0000
1000
0100
,
0010
0100
1000
0010
0100
0010
1000
0100
,
0001
0100
1000
0010
0001
0010
1000
0000
,
0000
0000
0000
0100
,
0000
0000
0000
0010
,
0000
0000
0000
0001
,
0000
0000
0000
1000
,
0000
0010
0000
0100
,
0000
0001
0000
1001
;

//--------------- dance-single - ----------------
#NOTES:
     dance-single:
     :
     Medium:
     11:
     0,0,0,0,0:
0000
0000
0000
0000
,
0000
0000
0000
0000
,
0000
0000
0000
0000
,
0000
0000
0000
0000
,
0000
0000
0000
1000
,
0100
0010
0001
1000
,
0010
0100
0001
1000
,
0100
0001
0100
1000
,
0010
0001
0010
1000
,
0010
0100
0010
1000
,
0100
0010
0100
1000
,
0001
0100
0010
1000
,
0001
0000
0010
0000
0100
0000
1000
0100
,
0010
0100
1000
0010
0100
0010
1000
0100
,
0010
0001
1000
0010
0100
0001
1000
0100
,
0010
0100
1000
0010
0100
0010
1000
0000
,
0001
0000
0100
0010
1000
0000
1000
0100
,
0010
0100
1000
0010
0100
0010
1000
0100
,
0001
0100
1000
0100
0001
0100
1000
0010
,
0100
0000
0001
0000
1000
0000
0100
0000
0010
0000
0001
0000
1000
0100
1000
0000
,
0001
0100
0001
0000
1000
0010
1000
0000
0001
0010
0001
0000
1000
0000
0100
0000
,
1000
0010
0100
0001
0010
0100
0010
0001
,
0100
0010
1000
0100
1000
0001
1000
0010
,
1000
0100
0010
0001
0100
0010
0100
0001
,
0010
0100
1000
0010
1000
0001
1000
0010
,
0100
0010
1000
0100
0010
0100
1000
0010
,
0001
0010
1000
0010
0001
0010
1000
0100
,
0010
0000
0001
0000
1000
0000
0010
0000
0100
0000
0001
0000
1000
0010
1000
0000
,
0001
0010
0001
0000
1000
0100
1000
0000
0001
0100
0001
0000
1000
0000
0010
0000
,
1000
0100
0010
0001
0100
0010
0100
0001
,
0010
0100
1000
0010
1000
0001
1000
0100
,
1000
0010
0100
0001
0010
0100
0010
0001
,
0100
0010
1000
0100
1000
0001
1000
0000
,
0010
0100
0001
1000
,
0100
0010
0001
1000
,
0010
0001
0010
1000
,
0100
0001
0100
1000
,
0100
0010
0100
1000
,
0010
0100
0010
1000
,
0001
0010
0100
1000
,
0001
0100
0010
1000
,
0000
0000
0000
0001
,
0000
0000
0000
1000
,
0000
0010
0000
0100
,
0000
0000
0001
0000
0000
0000
1000
0100
,
0001
0100
1000
0010
0100
0010
1000
0100
,
0010
0001
1000
0010
0100
0001
1000
0100
,
0001
0000
0100
0000
1000
0000
0100
0000
0010
0000
0100
0000
1000
0010
1000
0000
,
0001
0010
0001
0000
1000
0100
1000
0000
0001
0100
0001
0000
1000
0000
0100
0000
,
1000
0100
0010
0001
0100
0010
0100
0001
,
0010
0100
1000
0100
1000
0001
1000
0010
,
1000
0010
0100
0001
0010
0100
0010
0001
,
0100
0010
1000
0010
1000
0001
1000
0010
,
0001
0010
1000
0100
0010
0100
1000
0010
,
0100
0001
1000
0100
0010
0001
1000
0010
,
0001
0000
0010
0000
1000
0000
0010
0000
0100
0000
0010
0000
1000
0100
1000
0000
,
0001
0100
0001
0000
1000
0010
1000
0000
0001
0010
0001
0000
1000
0000
0010
0000
,
1000
0010
0100
0001
0010
0100
0010
0001
,
0100
0010
1000
0010
1000
0001
1000
0100
,
1000
0100
0010
0001
0100
0010
0100
0001
,
0010
0100
1000
0100
1000
0001
1000
0100
,
0010
0001
1001
0000
0000
0000
0000
0000
,
0000
0000
0000
0000
0000
0000
0001
0100
,
0010
1000
1001
0000
0000
0000
0000
0000
,
0000
0000
0000
0000
0000
0000
1000
0100
,
0001
0100
1000
0100
0001
0100
1000
0010
,
0001
0000
0010
0000
1000
0000
0010
0000
0001
0000
0010
0000
1000
0100
1000
0000
,
0001
0100
0001
0000
1000
0010
1000
0000
0001
0010
0001
0000
1000
0100
0010
0001
,
1000
0100
0010
0001
1000
0010
0100
0001
1000
0010
0100
0001
1000
0000
0000
0000
,
0000
0100
0000
0010
,
0000
0001
0000
1000
,
0000
0010
0000
0100
,
0000
0001
0000
1000
,
0000
0100
0000
0010
,
0000
0001
0000
1001
;

//--------------- dance-single - ----------------
#NOTES:
     dance-single:
     :
     Hard:
     13:
     0,0,0,0,0:
0000
0000
0000
0000
,
0000
0000
0000
0000
,
0000
0000
0000
0000
,
0000
0000
0000
0000
,
0000
0000
0000
0000
0000
0000
1000
0100
,
0010
0100
1000
0010
0100
0010
1000
0100
,
0010
0001
1000
0010
0100
0001
1000
0010
,
0100
0010
1000
0100
0010
0100
1000
0010
,
0100
0001
1000
0100
0010
0001
1000
0100
,
0010
0100
1000
0010
0100
0001
1000
0010
,
0100
0010
1000
0100
0010
0001
1000
0010
,
0100
0010
1000
0010
0100
0001
1000
0100
,
0010
0000
0100
0000
1000
0000
0100
0000
0010
0000
0001
0000
1000
0100
0010
0001
,
0100
0010
0100
0010
0100
0000
0010
0000
1000
0000
0010
0000
0100
0000
0001
0000
0010
0100
0010
0100
0010
0000
0100
0000
1000
0000
0010
0000
0001
0000
0010
0000
,
1000
0100
0010
0001
1000
0100
0001
0100
0010
0001
1000
0100
0010
1000
0010
0001
,
1000
0010
0100
0001
1000
0100
0010
0001
1000
0010
0100
0010
1000
0100
0010
0100
,
1000
0000
0001
0000
0100
0000
0010
0000
1000
0100
1000
0000
0001
0100
0001
0000
1000
0001
1000
0000
0001
0000
0000
0000
1000
0000
0000
0000
0100
0000
0000
0000
,
0010
0100
1000
0010
0100
0010
1000
0100
,
0001
0100
1000
0010
0001
0010
1000
0100
,
0010
0000
0001
0000
1000
0000
0010
0000
0100
0000
0001
0000
1000
0100
1000
0100
,
0010
0001
0010
0001
1000
0010
1000
0010
0100
0001
0100
0001
1000
0000
0010
0000
,
0100
0010
1000
0100
0010
0100
1000
0010
,
0001
0010
1000
0100
0001
0100
1000
0010
,
0100
0000
0001
0000
1000
0000
0100
0000
0010
0000
0001
0000
1000
0010
1000
0010
,
0100
0001
0100
0001
1000
0100
1000
0100
0010
0001
0010
0001
1000
0000
0010
0000
,
0001
0010
1000
0100
0010
0100
1000
0010
,
0100
0010
1000
0100
0001
0100
1000
0010
,
0100
0000
0001
0000
1000
0000
0100
0000
0010
0000
0001
0000
1000
0100
1000
0100
,
0010
0001
0010
0001
1000
0010
1000
0010
0100
0001
0100
0001
1000
0000
0100
0000
,
0001
0100
1000
0010
0100
0010
1000
0100
,
0010
0100
1000
0010
0001
0010
1000
0100
,
0010
0000
0001
0000
1000
0000
0010
0000
0100
0000
0001
0000
1000
0010
1000
0010
,
0100
0001
0100
0001
1000
0100
1000
0100
0010
0001
0010
0001
1000
0000
0100
0000
,
0010
0001
1000
0010
0100
0010
1000
0100
,
0010
0001
1000
0010
0100
0010
1000
0010
,
0100
0001
1000
0100
0010
0100
1000
0010
,
0100
0001
1000
0100
0010
0100
1000
0010
,
0001
0010
1000
0100
0001
0100
1000
0010
,
0001
0010
1000
0100
0001
0100
1000
0010
,
0001
0010
1000
0100
0001
0100
1000
0010
,
0001
0010
1000
0100
0001
0100
1000
0000
,
0100
0010
0001
1000
,
0010
0100
0001
1000
,
0100
0000
0010
0000
0001
0000
1000
1000
,
0001
0001
0100
0100
0010
0010
1000
0100
,
0010
0000
0001
0000
1000
0000
0010
0000
0100
0000
0001
0000
1000
0010
1000
0010
,
0100
0001
0100
0001
1000
0100
1000
0100
0010
0001
0010
0001
1000
0000
0010
0000
,
0100
0000
0001
0000
1000
0000
0100
0000
0010
0000
0001
0000
1000
0100
1000
0100
,
0010
0001
0010
0001
1000
0010
1000
0010
0100
0001
0100
0001
1000
0000
0100
0000
,
0010
0000
0100
0000
1000
0000
0010
0000
0100
0000
0010
0000
1000
0100
0010
0100
,
1000
0100
0010
0100
1000
0010
0100
0010
1000
0010
0100
0010
1000
0000
0010
0000
,
0100
0000
0010
0000
1000
0000
0100
0000
0010
0000
0100
0000
1000
0010
0100
0010
,
1000
0010
0100
0010
1000
0100
0010
0100
1000
0100
0010
0100
1000
0000
0100
0000
,
0010
0001
1000
0010
0100
0001
1000
0010
,
0001
0010
1000
0100
0001
0100
1000
0100
,
0010
0000
0100
0000
1000
0000
0010
0000
0100
0000
0010
0000
1000
0100
0010
0100
,
1000
0010
0100
0010
1000
0100
0010
0001
1000
0010
0100
0001
1000
0000
0100
0000
,
0010
0000
0001
0000
1000
0000
0010
0000
0100
0000
0001
0000
1000
0100
0010
0100
,
1000
0100
0010
0100
1000
0010
0100
0010
1000
0010
0100
0010
1000
0000
0100
0000
,
0010
0000
0100
0000
1000
0000
0010
0000
0100
0000
0010
0000
1000
0100
1000
0100
,
0010
0001
0010
0001
1000
0010
1000
0010
0100
0001
0100
0001
1000
0000
0100
0000
,
0010
0001
1001
0000
0000
1001
0000
0000
,
1001
0000
0000
1001
0000
0000
1000
0010
,
0100
0001
0110
0000
0000
0110
0000
0000
,
0110
0000
0000
0110
0000
0000
1000
0100
,
0010
0001
1000
0010
0100
0001
1000
0100
,
0001
0000
0100
0000
1000
0000
0010
0000
0001
0000
0010
0000
1000
0100
1000
0100
,
0010
0001
0010
0001
1000
0010
1000
0010
0100
0001
0100
0001
1000
0100
0010
0100
,
1000
0010
0100
0010
1000
0100
0001
0100
1000
0010
0001
0010
1000
0000
0000
0000
,
0100
0010
0001
1000
,
0010
0100
0001
1000
,
0100
0001
0100
1000
,
0010
0001
0010
1000
,
0100
0010
0001
0100
,
0010
1000
0001
1001
;

//--------------- dance-single - ----------------
#NOTES:
     dance-single:
     :
     Challenge:
     15:
     0,0,0,0,0:
0000
0000
0000
0000
,
0000
0000
0000
0000
,
0000
0000
0000
0000
,
0000
0000
0000
0000
,
0000
0000
0000
1000
,
0100
0000
0000
0000
0010
0000
0001
0010
0000
0000
0000
0000
0000
0000
1000
0100
,
0010
0000
0000
0000
0000
0000
0001
0010
0100
0000
0000
0000
1000
0100
1000
0000
,
0100
0000
0000
0000
0001
0010
0001
0000
0010
0000
0000
0000
1000
0010
1000
0010
,
1000
0000
0010
0100
0001
0100
0001
0100
0001
0000
1000
0000
1000
0010
0100
0010
,
0001
0000
0000
1000
0100
0000
0010
0000
0001
0000
0100
0000
0010
0000
1000
0000
,
1000
0000
0000
0000
0100
0000
0000
0010
0001
0000
0000
0100
0010
0000
0000
1000
,
0000
0000
0001
0100
0010
0010
1000
0100
0010
0000
0001
0000
1000
0000
0100
0000
,
0010
0000
0001
0000
1000
0000
1000
0100
,
0010
0000
0100
0000
0010
0000
1000
0000
0100
0000
0010
0000
0001
0000
0100
1000
,
1000
0000
0000
0100
0010
0000
0001
0000
0010
0000
0000
0000
0000
1000
0000
0100
,
0010
0001
0000
0000
0001
0000
0000
0010
0100
0000
0000
0001
1000
0000
0000
0100
,
0010
0000
0000
1000
0001
0001
1000
1000
0001
0000
1001
0000
1000
0100
1000
0001
,
0100
0010
1000
0100
0010
0100
1000
0010
0100
0001
0010
1000
0010
0001
0100
0010
,
0100
0001
0010
0100
1000
0010
1000
0010
0100
0001
0100
0001
1000
0100
0001
0100
,
1000
0100
0001
0100
1000
0010
0001
0010
1000
0010
0001
0010
1000
0100
0010
0001
,
0100
0010
0100
0001
0010
0100
1000
0010
0100
0001
0010
0100
0010
0001
0100
0010
,
1000
0100
0010
0100
1000
0010
0100
0010
1000
0100
1000
0100
1000
0010
0100
0010
,
0100
0001
0010
0100
1000
0010
0100
0010
0001
0010
0100
1000
0010
0001
0100
0010
,
1000
0100
0010
0100
0010
0001
1000
0010
0100
0010
0100
0001
1000
0100
0001
0100
,
1000
0100
0010
1000
0010
0001
1000
0100
0001
0100
0010
0001
1000
0010
0100
0001
,
0010
1000
0010
0001
0100
0010
1000
0100
0010
0100
0010
1000
0001
0100
0010
0001
,
1000
0010
0100
0001
1000
0100
0010
0100
1000
0010
0100
0010
1000
0100
0001
0100
,
0010
0001
1000
0100
0010
1000
0010
0001
1000
0010
0100
0010
1000
0100
0010
0100
,
0010
0001
0100
0010
1000
0100
0001
0100
1000
0010
0001
0010
1000
0100
0001
1000
,
0010
0001
1000
0010
1000
0100
0010
0001
0100
1000
0100
0001
0010
0100
1000
0001
,
1000
0010
0100
0010
0001
0010
0100
0010
1000
0100
0010
0100
0001
0100
0010
0100
,
1000
0010
0100
0001
1000
0100
0001
0100
1000
0010
0001
0010
1000
0100
0010
0001
,
1000
0001
1000
0001
1000
0001
1000
0001
1000
0001
1000
0001
1000
0100
0010
0001
,
1000
0000
0001
0000
1000
0010
0100
0001
0010
0000
1000
0000
0000
0001
0000
0010
,
0010
0000
0110
0000
1000
0010
0100
0010
1000
0000
0001
0000
1000
0000
0100
0000
,
0010
0000
0001
0000
1000
0010
0100
0001
1000
0000
0001
0000
0000
1000
0100
0001
,
1000
0000
0001
0000
1000
0100
0010
0001
0000
0010
0100
0000
1001
0100
0010
0001
,
0100
0000
0001
0000
1000
0010
0100
1000
1000
0000
0010
0000
0000
0001
0000
0010
,
0010
0000
0100
0000
1000
0100
0001
0010
0000
0001
1000
0010
0100
0000
0001
0000
,
0010
0000
0100
0000
1000
0010
0001
0010
1000
0000
0001
0000
0000
0001
0010
0100
,
1000
0000
0010
0000
0100
0001
0010
0100
0000
0010
0001
0000
1000
0000
0000
0000
,
0000
0000
0000
0000
0000
0000
0000
0000
0001
0000
0000
1000
0100
0000
0000
0000
,
0000
0000
0000
0000
0000
0000
0001
0000
0010
0000
0100
0000
1000
0010
1000
0010
,
1000
0000
1000
0000
0001
0000
0100
0000
0001
0000
0000
0000
1000
0100
0010
0001
,
1000
0010
0100
0001
1000
0000
0001
0000
1001
0000
0000
0000
1000
0010
1000
0001
,
0010
0100
1000
0010
0100
0010
1000
0100
0010
0001
0100
0010
1000
0100
0001
0100
,
1000
0100
0001
0100
1000
0100
0001
0100
1000
0100
0001
0100
1000
0010
0100
0001
,
0010
0001
0100
0010
1000
0100
0001
0100
0010
0001
1000
0010
1000
0100
1000
0100
,
0010
0001
0010
0001
1000
0010
1000
0010
0100
0001
0100
0001
1000
0010
0100
0010
,
0001
0010
0100
0010
1000
0100
0010
0100
1000
0010
0100
0010
1000
0100
0010
0100
,
0001
0100
0010
0100
1000
0010
0100
0010
1000
0100
0010
0100
1000
0010
0100
0001
,
0010
1000
0010
0001
0100
0010
1000
0100
0001
0100
1000
0001
0100
0010
0001
0010
,
0100
0001
1000
0010
0001
0010
1000
0100
0010
0001
0100
0010
1000
0100
0010
0100
,
1000
0010
0001
0010
1000
0100
0010
0001
1000
0010
0100
0001
1000
0100
0001
0100
,
1000
0010
0100
0010
1000
0100
0010
0100
0001
0100
0010
0100
1000
0010
1000
0010
,
0100
0001
0100
0001
1000
0100
1000
0100
0010
0001
0010
0001
1000
0010
0001
0010
,
1000
0010
0001
0010
1000
0010
0001
0010
1000
0010
0001
0010
1000
0100
1000
0010
,
0100
0001
0010
0001
0010
0100
1000
0001
1000
0010
0100
0010
1000
0100
0010
1000
,
0010
0001
1000
0100
0001
0100
0010
0001
1000
0010
0100
0001
1000
0100
0001
0100
,
1000
0100
0001
0100
1000
0010
0100
0001
1000
0010
0001
0010
1000
0010
0001
0010
,
1000
0100
0010
0001
1000
0001
1000
0001
1000
0001
1000
0000
1001
0000
1001
0000
,
0110
0110
1001
0001
0001
0110
0100
0100
,
1010
0010
0010
1100
1000
1000
1001
0110
,
0101
1100
0110
0011
1010
1001
0100
0100
,
0110
0000
0001
0000
0001
0000
0011
0000
1000
0000
1000
0000
1000
0100
0001
0100
,
1000
0100
0001
0100
1000
0010
0001
0010
1000
0010
0001
0010
1000
0100
0010
0001
,
1000
0010
0100
0001
1000
0100
0010
0100
1000
0010
0100
0010
1000
0100
0001
0100
,
1000
0010
0001
0010
1000
0100
0001
0100
1000
0010
0001
0010
1000
0001
0010
1000
,
0010
0001
0100
1000
0100
0001
0010
1000
0010
0001
0100
0010
1000
0000
0100
0000
,
0010
0100
1000
0100
0010
0100
1000
0010
,
0100
0010
1000
0010
0100
0010
1000
0100
,
0010
0001
1000
0100
0010
0001
1000
0010
,
0100
0000
0001
0000
1000
0000
0010
0000
0100
0000
0001
0000
1000
0100
0010
0100
,
1000
0100
0010
0000
0001
0100
0010
0100
0001
0100
0010
0000
1000
0010
0100
0010
,
1000
0010
0100
0000
0001
0010
0100
0010
0001
0010
0100
0000
1001
0000
0000
0000
;
