#TITLE:Beethoven Virus;
#SUBTITLE:;
#ARTIST:Banya;
#TITLETRANSLIT:;
#SUBTITLETRANSLIT:;
#ARTISTTRANSLIT:;
#GENRE:;
#CREDIT:;
#MUSIC:Beethoven Virus.ogg;
#BANNER:Beethoven Virus-bn.png;
#BACKGROUND:Beethoven Virus-bg.png;
#CDTITLE:;
#SAMPLESTART:5.926;
#SAMPLELENGTH:23.704;
#SELECTABLE:YES;
#OFFSET:-0.185;
#BPMS:0.000=162.000;
#STOPS:;
#BGCHANGES:;
#FGCHANGES:;

//--------------- dance-single - ----------------
#NOTES:
     dance-single:
     :
     Beginner:
     4:
     0,0,0,0,0:
0000
0000
0000
0000
,
0000
0000
0000
0000
,
0000
0000
0000
0000
,
0000
0000
0000
0000
,
0000
2000
3000
0200
,
0300
0020
0000
0030
,
0001
1100
0101
0011
,
1010
2002
0000
3003
,
0000
2000
0000
3000
,
0000
0200
0000
0300
,
0000
0020
0000
0032
,
0000
2003
0000
3000
,
0000
0002
0003
0020
,
0030
0200
0300
0000
,
1000
1100
0101
0011
,
1010
2002
0000
3003
,
0000
2000
0000
3000
,
0000
0020
0000
0030
,
0000
0200
0000
0302
,
0000
2003
0000
3000
,
0001
1000
0000
0100
,
0000
1000
0000
0010
,
0000
0100
0000
0001
,
0000
0010
0000
0001
,
0000
0100
0000
0010
,
0000
1000
0000
0100
,
0000
1000
0000
0010
,
0000
0100
0000
0001
,
0000
2000
3000
0000
,
0000
0100
0000
0000
,
0000
0020
0030
0000
,
0000
0100
0000
0000
,
0000
2000
3000
0000
,
0000
0010
0000
0000
,
0000
0200
0300
0000
,
0000
0001
0000
0000
,
0000
1000
0000
0100
,
0000
1000
0000
0100
,
0000
0010
0000
0001
,
0000
0010
0000
0001
,
0000
1000
0000
0010
,
0000
1000
0000
0010
,
0000
0100
0000
0001
,
0000
0100
0000
0001
,
0000
1100
0101
0110
,
0000
2000
3000
0200
,
0300
0020
0030
0000
,
0001
1100
0101
0011
,
1010
2002
0000
3003
,
0000
2000
0000
3000
,
0000
0200
0000
0300
,
0000
0002
0000
0203
,
0000
2300
0000
3000
,
0000
0002
0003
0020
,
0030
0200
0300
0000
,
1000
1100
0101
0011
,
1010
2002
0000
3003
,
0000
2000
0000
3000
,
0000
0020
0000
0030
,
0000
0002
0000
0023
,
0000
2030
0000
3000
,
0000
0200
0000
0300
,
0000
0020
0000
0030
,
0000
0002
0000
0203
,
0000
0320
0000
0030
,
0000
2002
0000
3003
;

//--------------- dance-single - ----------------
#NOTES:
     dance-single:
     :
     Easy:
     6:
     0,0,0,0,0:
0000
0000
0000
0000
,
0000
0000
0000
0000
,
0000
0000
0000
0000
,
0000
0000
0000
0000
0000
0000
0000
1000
,
0100
1000
0200
0000
0300
0000
0020
0000
,
0030
0002
0000
0003
,
1000
1100
0101
0011
,
1010
2002
0000
3003
,
1000
0200
0000
0310
,
0001
0020
0000
0130
,
1000
0200
0300
0020
,
0030
0000
0002
0000
0000
0000
0003
0001
,
0010
0001
0020
0000
0030
0000
0200
0000
,
0300
2000
0000
3000
,
0001
1100
0101
0011
,
1010
2002
0000
3003
,
1000
0020
0000
0130
,
0001
0200
0000
0310
,
1000
0020
0030
0200
,
0300
0002
0000
0003
,
1000
0100
0010
0100
,
1000
0010
0100
0001
,
0010
0100
0010
0100
,
1000
0010
0100
0001
,
1000
0001
0010
0001
,
0100
0010
1000
0100
,
1000
0010
0100
0001
,
0010
0001
0010
0100
,
1000
0020
0030
0100
,
0001
0000
0010
0000
0001
0000
0100
0010
,
1000
0200
0300
0010
,
0100
0000
1000
0000
0010
0000
0100
0001
,
0010
0000
0002
0000
0003
0000
0100
0010
,
0100
0001
0010
0100
,
0010
0002
0003
0100
,
0010
0000
1000
0100
0010
0001
1000
0100
,
0010
0001
1100
0000
0100
0000
1000
0000
,
0100
1010
0010
1000
,
0010
0110
0010
0100
,
0010
0101
0001
0100
,
0001
0011
0001
0010
,
0001
0110
0100
0010
,
0100
1100
0100
1000
,
0100
1001
0001
1001
,
0000
0000
1100
0000
0101
0000
0110
1000
,
0100
0000
1100
0000
,
0101
0000
0011
1010
,
0000
1100
0101
0011
,
1010
2002
0000
3003
,
1000
0200
0000
0301
,
0010
0200
0000
1300
,
0010
0002
0003
0200
,
0300
0020
0000
0030
,
1000
0100
1100
0010
,
0110
0100
0101
0011
,
0000
1100
0101
0011
,
1010
2002
0000
3003
,
1000
0002
0000
0013
,
0001
2000
0000
3100
,
1000
0020
0030
0200
,
0300
0002
0000
0003
,
1000
0200
0000
0310
,
0001
0200
0000
0310
,
1000
0200
0300
0020
,
0030
0000
0002
0000
0000
0000
1003
0010
,
0100
0001
2002
0000
0000
0000
3003
0000
;

//--------------- dance-single - ----------------
#NOTES:
     dance-single:
     :
     Medium:
     8:
     0,0,0,0,0:
0000
0000
0000
0000
,
0000
0000
0000
0000
,
0000
0000
0000
0000
,
0000
0000
0000
0000
0000
0000
0000
1000
,
0100
1000
0020
0030
0000
0100
0002
0003
,
0000
0010
0002
0000
0003
0000
0000
0100
,
0010
0100
1100
0000
0101
0000
0011
0000
,
1010
2002
0000
3003
,
1000
0100
0020
0000
0000
0000
0031
0000
,
1000
0010
0200
0000
0000
0000
0301
0000
,
1000
0100
0020
0000
0030
0100
0020
0000
,
0030
0100
0002
0000
0000
0000
0003
0001
,
0010
0001
0200
0300
0000
0010
2000
3000
,
0000
0100
2000
0000
3000
0000
0000
0010
,
0100
0010
1100
0000
0101
0000
0011
0000
,
1010
2002
0000
3003
,
0001
0010
0200
0000
0000
0000
1300
0000
,
0001
0100
0020
0000
0000
0000
1030
0000
,
0001
0010
0200
0000
0300
0010
0200
0000
,
0300
0010
2000
0000
0000
0000
3000
1000
,
0100
1000
0010
0100
0001
0010
0001
0100
,
0010
2000
0000
3100
0010
0001
0100
0010
,
0100
0010
1000
0100
0010
0100
1000
0010
,
0100
0020
0000
1030
0100
1000
0001
0100
,
0001
0100
0010
1000
0001
0010
0001
1000
,
0010
0100
0010
0001
0010
0100
0010
1000
,
0100
0010
0001
0100
0010
0100
0010
1000
,
0100
0010
0100
1000
0010
0100
0001
0010
,
0100
0010
0002
0000
0000
0103
0010
0100
,
0010
0000
1000
0100
1000
0100
0010
0001
,
0010
0001
0200
0000
0000
0310
1000
0000
,
0100
0000
0010
0001
0100
0010
0100
0001
,
0010
0100
2000
0000
0000
3010
0100
0010
,
1000
0100
0010
0001
0100
0010
2000
0000
,
3002
0000
0203
0000
0000
0310
1000
0100
,
1000
0001
1000
0100
0010
0001
1000
0100
,
0010
0001
1000
0100
1000
0100
1000
0100
,
1000
0100
1000
0010
1000
0010
1000
0010
,
1000
0010
0100
0010
0100
0010
0100
0010
,
0100
0010
0100
0001
0100
0001
0100
0001
,
0100
0001
0010
0001
0010
0001
0010
0001
,
0010
0001
0010
0100
0010
0100
0010
0100
,
0010
0100
1000
0100
1000
0100
1000
0100
,
1000
0100
1000
0100
0010
0001
1001
0000
,
0000
0000
1100
0000
0101
0000
0110
1000
,
0100
1000
0020
0030
0000
0100
0002
0003
,
0000
0010
0002
0003
0000
0000
0000
0100
,
0010
0100
1100
0000
0101
0000
0011
0000
,
1010
2002
0000
3003
,
1000
0010
0002
0000
0000
0000
0103
0000
,
0001
0010
2000
0000
0000
0000
3100
0000
,
1000
0100
0020
0000
0030
0001
0020
0000
,
0030
0100
2000
0000
0000
0000
3000
0001
,
0010
0001
0200
0300
0000
0010
0200
0300
,
0000
0010
2000
3000
0000
0000
0000
0100
,
0010
0100
1100
0000
0101
0000
0011
0000
,
1010
2002
0000
3003
,
1000
0100
0002
0000
0000
0000
0013
0000
,
0001
0100
2000
0000
0000
0000
3010
0000
,
1000
0010
0200
0000
0300
0001
0200
0000
,
0300
0010
2000
0000
0000
0000
3000
0000
,
1000
0100
0020
0000
0000
0000
0031
0000
,
1000
0010
0200
0000
0000
0000
0301
0000
,
1000
0100
0020
0000
0030
0100
0020
0000
,
0030
0100
0002
0000
0000
0000
0003
0000
,
0000
2002
0000
3003
;

//--------------- dance-single - ----------------
#NOTES:
     dance-single:
     :
     Hard:
     10:
     0,0,0,0,0:
0000
0000
0000
0000
,
0000
0000
0000
0000
,
0000
0000
0000
0000
,
0000
0000
0000
0000
0000
0000
0000
1000
,
0100
0010
0022
0033
0000
0010
0200
0300
,
0000
0000
0100
0000
2000
0000
3000
0000
0000
0000
0000
0000
0000
0000
1000
0100
,
0010
0001
0010
0100
1100
0000
0000
0000
0101
0000
0000
0000
0011
0000
0000
0000
,
1010
2002
0000
3003
,
1000
0100
0002
0000
0000
0000
0013
0000
,
0001
0010
2000
0000
0000
0000
3100
0000
,
1000
0100
0020
0000
0000
0031
0020
0000
,
0000
0000
0130
0000
2000
0000
0000
0000
0000
0000
0000
0000
0000
0000
3001
0100
,
0010
1000
0100
0010
0022
0000
0033
0000
0000
0000
0001
0000
0200
0000
0300
0000
,
0000
0000
0100
0000
2000
0000
3000
0000
0000
0000
0000
0000
0000
0000
1000
0010
,
0100
0001
0010
0100
1100
0000
0000
0000
0101
0000
0000
0000
0011
0000
0000
0000
,
1010
2002
0000
3003
,
1000
0010
0002
0000
0000
0000
0103
0000
,
0001
0100
2000
0000
0000
0000
3010
0000
,
1000
0010
0200
0000
0000
0301
0200
0000
,
0000
0310
2000
0000
0000
0000
3000
1000
,
0100
1000
0001
0100
0010
0100
0010
1000
,
0100
0010
0100
1000
0010
0100
0001
0010
,
0001
1000
0010
0100
0001
1000
0010
0010
,
0001
1000
0100
0001
0100
1000
0010
0100
,
0001
0010
0001
0100
0010
0100
1000
0100
,
0010
0100
0001
0010
0001
0100
0010
1000
,
0100
1000
0001
0010
0001
0010
1000
0010
,
1000
0010
0001
0100
0010
1000
0100
0010
,
0001
0000
0100
0000
0020
0000
0000
0000
0000
0000
1030
0100
1000
0000
0010
0000
,
0100
0000
0001
0000
0010
0000
0001
0000
0100
0000
0010
0000
1000
0100
1000
0100
,
0010
0001
0010
0001
0200
0000
0000
0000
0000
0000
0310
1000
0100
0000
0010
0000
,
0001
0000
0100
0000
0010
1000
0010
1000
0001
0010
0001
0010
0100
0000
1000
0000
,
0001
0000
0100
0000
0010
0000
0000
0000
0000
0000
0100
0001
0010
0100
0010
0100
,
1000
0100
1000
0100
1000
0000
0010
0100
0001
0000
0010
0000
1000
0000
0010
0000
,
0001
0000
0100
0000
0010
0000
0000
0000
0000
0000
1000
0001
1000
0000
0100
0000
,
0010
0000
0001
0000
1000
0010
0100
0001
1000
0010
0100
0001
1000
0100
0010
0001
,
1000
0100
0010
0001
1000
0000
0100
0000
1000
0000
0100
0000
1000
0000
0100
0000
,
1000
0100
1000
0010
1000
0010
1000
0010
,
1000
0010
0100
0010
0100
0010
0100
0010
,
0100
0010
0100
0001
0100
0001
0100
0001
,
0100
0001
0010
0001
0010
0001
0010
0001
,
0010
0001
0010
0100
0010
0100
0010
0100
,
0010
0000
0100
0000
1000
0100
0010
0001
1000
0100
0010
0001
1000
0100
0010
0001
,
1000
0100
0010
0001
1000
0010
0100
0001
0010
0000
0100
0000
1001
0000
0000
0000
,
0000
0000
1100
0000
0101
0000
0110
0001
,
0100
0010
1000
0000
1100
1000
0010
0000
,
0110
0000
0100
0000
0001
0000
0000
0000
0011
0000
0000
0000
1010
0000
0100
0010
,
1000
0001
0010
0100
1100
0000
0000
0000
0101
0000
0000
0000
0011
0000
0000
0000
,
1010
2002
0000
3003
,
1000
0100
0002
0000
0000
0000
1003
0000
,
0001
0100
2000
0000
0000
0000
3001
0000
,
1000
0100
0020
0000
0000
0031
0200
0000
,
0000
0310
2000
0000
0000
0000
3000
0010
,
0100
1000
0001
0000
0110
0010
1000
0000
,
1100
0000
0100
0000
0001
0000
0000
0000
0011
0000
0000
0000
1010
0000
0100
0010
,
1000
0100
0010
0001
1100
0000
0000
0000
0101
0000
0000
0000
0011
0000
0000
0000
,
1010
2002
0000
3003
,
1000
0010
0002
0000
0000
0000
1003
0000
,
0001
0010
2000
0000
0000
0000
3001
0000
,
1000
0010
0200
0000
0000
0301
0020
0000
,
0000
0130
2000
0000
0000
0000
3000
0000
,
1000
0100
0002
0000
0000
0000
0013
0000
,
0001
0100
2000
0000
0000
0000
3010
0000
,
1000
0100
0002
0000
0003
0001
2000
0000
,
3000
0100
0020
0000
0000
0000
1030
0100
,
0010
0001
2002
0000
0000
0000
3003
0000
;

//--------------- dance-single - ----------------
#NOTES:
     dance-single:
     :
     Challenge:
     11:
     0,0,0,0,0:
0000
0000
0000
0000
,
0000
0000
0000
0000
,
0000
0000
0000
0000
,
0000
0000
0000
0000
0000
0000
0000
1000
,
0100
0010
0011
0001
0100
0010
1000
0100
,
0010
0000
0001
0000
1000
0000
0010
0000
0100
0000
0010
0000
1000
0000
0100
0010
,
0001
0100
0010
1000
1100
0000
0000
0000
0101
0000
0000
0000
0011
0000
0000
0000
,
1010
2002
0000
3003
,
1000
0100
0020
0001
1000
0100
1030
0001
,
1000
0010
0200
0001
1000
0010
1300
0001
,
1000
0100
0002
0010
0100
0023
2030
0100
,
0010
3200
0301
0010
0100
1000
0010
0100
,
0001
0010
1100
1000
0010
0100
0001
0010
,
0001
0000
0100
0000
0001
0000
0010
0000
0100
0000
1000
0000
0010
0000
0100
0010
,
1000
0100
0010
0001
1100
0000
0000
0000
0101
0000
0000
0000
0011
0000
0000
0000
,
1010
2002
0000
3003
,
1000
0100
0002
0010
0100
0010
0103
0010
,
0001
0100
2000
0010
0100
0010
3100
0010
,
1000
0100
0020
0001
1000
0032
0203
1000
,
0001
0320
1030
0100
0010
0001
1000
0010
,
0001
0010
1000
0100
1000
0010
0100
0001
,
0010
0001
0100
1000
0100
0001
0010
0100
,
1000
0001
1000
0010
1000
0100
0010
0001
,
0100
0001
0010
1000
0010
0001
0100
0010
,
1000
0001
1000
0100
1000
0010
0100
0001
,
0010
0001
0100
0010
1000
0100
1000
0010
,
0001
0010
1000
0010
1000
0100
0010
0001
,
0100
0001
0010
0100
1000
0010
1000
0100
,
0001
0000
0100
1000
0002
0000
0000
0000
0000
0000
0013
0100
0010
0000
0100
0000
,
1000
0000
0010
0000
0100
0000
0001
0000
0100
0000
1000
0000
0100
0010
0100
0001
,
0010
0100
1000
0010
2000
0000
0000
0000
0000
0000
3100
0010
0001
0000
0100
0000
,
0010
0000
0100
0000
0001
0010
0001
0010
0001
0100
0001
0100
0010
0100
0010
0000
,
1000
0000
0010
0000
2000
0000
0000
0000
0000
0000
3010
0100
0010
1000
0100
1000
,
0001
0100
0001
0010
0100
0000
1000
0001
1000
0000
0010
0000
0100
0000
0010
0000
,
1000
0000
0100
0000
0020
0000
0000
0000
0000
0000
0031
0100
0001
0000
0010
0000
,
0100
0000
1000
0000
0010
0100
0010
0100
0001
0010
0100
1000
0001
0100
0010
1000
,
0001
0010
0001
0010
0001
0100
0001
0100
0001
0100
0001
0100
0001
0100
0001
0100
,
0001
0100
0001
0000
1000
0100
1000
0100
1000
0100
1000
0100
1000
0100
1000
0100
,
1000
0100
1000
0000
0001
0010
0001
0010
0001
0010
0001
0010
0001
0010
0001
0010
,
0001
0010
0001
0000
1000
0010
1000
0010
1000
0010
1000
0010
1000
0010
1000
0010
,
1000
0010
1000
0000
0001
0000
0010
0000
0001
0000
0010
0000
0001
0000
0010
0000
,
0001
0010
0100
1000
0100
1000
0100
1000
,
0100
0000
1000
0000
0010
0100
0010
0100
0010
0100
0010
0100
0010
0100
0010
0100
,
0010
0100
0010
0100
0001
0010
0100
1000
0001
0010
0100
1000
1001
0000
0000
0000
,
0000
0000
1100
0000
0101
0000
0110
1000
,
0100
0010
0001
0100
0110
0100
0001
0010
,
1100
0000
1000
0000
0010
0000
0100
0000
0110
0000
0001
0000
0011
0000
0100
0010
,
1000
0100
0010
0001
1100
0000
0000
0000
0101
0000
0000
0000
0011
0000
0000
0000
,
1010
2002
0000
3003
,
1000
0100
0020
0001
1000
0100
0001
0100
,
1030
0010
0200
0001
0010
1000
0010
0001
,
1300
0100
0002
0010
0100
0010
2003
0100
,
0010
0100
3002
0010
0100
0010
1003
0001
,
0100
0010
1000
0100
1100
0010
0100
0001
,
0011
0000
0100
0000
0010
0000
1000
0000
1010
0000
0100
0000
0101
0000
0010
0001
,
0100
0010
1000
0100
1100
0000
0000
0000
0101
0000
0000
0000
0011
0000
0000
0000
,
1010
2002
0000
3003
,
1000
0100
0002
0010
1000
0010
0100
0013
,
0001
0100
2000
0010
0001
0100
0010
3100
,
1000
0100
0020
0001
1000
0031
0200
0001
,
0010
1300
0010
0001
0100
0010
1000
0001
,
1000
0100
0021
0001
0100
1000
0100
0001
,
1030
0010
0200
0001
0010
1000
0010
0001
,
1300
0100
2000
0010
0100
0010
3002
0100
,
0010
0000
0100
0000
1003
0000
0010
0000
0100
0000
0001
0000
1000
0100
1000
0100
,
0010
0001
0010
0001
2002
0000
0000
0000
0000
0000
0000
0000
3003
0000
0000
0000
;

//--------------- dance-single - ----------------
#NOTES:
     dance-single:
     :
     Edit:
     12:
     0,0,0,0,0:
0000
0000
1000
0010
0010
1000
0100
0100
,
1000
0010
0010
1000
0100
0100
1000
0010
,
0010
0000
0001
0000
1000
0100
1000
0100
1000
0010
1000
0010
0100
0010
0100
0010
,
0100
0001
0100
0001
0010
0001
0010
0001
0010
0100
0010
0100
1000
0100
1000
0010
,
0100
0001
0010
0001
0011
0000
0001
0000
0100
0000
0010
0000
1000
0000
0100
0000
,
0010
0000
0001
0000
1000
0000
0010
0000
0100
0000
0010
0000
1000
0000
0100
0010
,
0001
0100
0010
1000
1100
0000
0000
0000
0101
0000
0000
0000
0011
0000
0000
0000
,
1010
2002
0000
3003
,
1000
0100
0020
0001
1000
0100
1030
0001
,
1000
0010
0200
0001
1000
0010
1300
0001
,
1000
0100
0002
0010
0100
0023
2030
0100
,
0010
0000
3200
0000
0301
0000
0010
0000
0100
0000
1000
0000
0010
0000
0100
0001
,
0010
0100
1000
0100
1100
0000
1000
0000
0010
0000
0100
0000
0001
0000
0010
0000
,
0001
0000
0100
0000
0001
0000
0010
0000
0100
0000
1000
0000
0010
0000
0100
0010
,
1000
0100
0010
0001
1100
0000
0000
0000
0101
0000
0000
0000
0011
0000
0000
0000
,
1010
2002
0000
3003
,
1000
0100
0002
0010
0100
0010
0103
0010
,
0001
0100
2000
0010
0100
0010
3100
0010
,
1000
0100
0020
0001
1000
0032
0203
1000
,
0001
0000
0320
0000
1030
0000
0100
0000
0010
0000
0001
0000
1000
0010
0100
0001
,
0010
0100
1000
0010
1000
0000
0100
0000
1000
0000
0010
0000
0100
0000
0001
0000
,
0010
0001
0100
1000
0100
0001
0010
0100
,
1000
0001
1000
0010
1000
0100
0010
0001
,
0100
0001
0010
1000
0010
0001
0100
0010
,
1000
0001
1000
0100
1000
0010
0100
0001
,
0010
0001
0100
0010
1000
0100
1000
0010
,
0001
0010
1000
0010
1000
0100
0010
0001
,
0100
0001
0010
0100
1000
0010
1000
0100
,
0001
0000
0100
1000
0001
0000
0100
0000
0010
0000
1000
0001
1000
0000
0100
0000
,
1000
0000
0010
0000
0100
0001
0010
0000
0100
0000
1000
0000
0100
0010
0100
0001
,
0010
0100
1000
0010
1000
0000
0001
0000
1000
0000
0100
0010
0001
0000
0100
0000
,
0010
0000
0100
0000
0001
0010
0001
0010
0001
0100
0001
0100
0010
0100
0010
0100
,
0010
1000
0010
1000
0001
0000
0100
0000
0001
0000
0010
0100
0010
1000
0100
1000
,
0001
0100
0001
0010
0100
0000
1000
0001
1000
0000
0010
0000
0100
0000
0010
0000
,
1000
0000
0100
0000
0010
0000
0001
0000
1000
0000
0001
0100
0001
0000
0010
0000
,
0100
0000
1000
0000
0010
0100
0010
0100
0001
0010
0100
1000
0001
0100
0010
1000
,
0001
0010
0001
0010
0001
0100
0001
0010
0001
0100
0001
0010
0001
0100
0001
0010
,
0001
0100
0001
0010
0001
0100
0001
1000
0001
0100
0001
1000
0001
0100
0001
1000
,
0001
0100
0001
1000
0001
0010
0001
1000
0001
0010
0001
1000
0001
0010
0001
1000
,
0001
0010
0001
1000
0001
0010
0100
0010
0001
0010
0100
1000
0100
0010
0100
0010
,
0001
0010
0100
1000
0001
0010
0001
0010
0001
0010
0001
0010
0001
0010
0001
0010
,
0001
0010
0001
0010
0100
1000
0100
1000
0100
1000
0100
1000
0100
1000
0100
1000
,
0100
1000
0100
1000
0010
0100
0010
0100
0010
0100
0010
0100
0010
0100
0010
0100
,
0010
0100
0010
0100
0001
0010
0100
1000
0001
0010
0100
1000
1001
0000
0000
0000
,
0000
0000
1100
0000
0101
0000
0110
1000
,
0100
0010
0001
0100
0110
0100
0001
0010
,
1100
0000
1000
0000
0010
0000
0100
0000
0110
0000
0001
0000
0011
0000
0100
0010
,
1000
0100
0010
0001
1100
0000
0000
0000
0101
0000
0000
0000
0011
0000
0000
0000
,
1010
2002
0000
3003
,
1000
0100
0020
0001
1000
0100
0001
0100
,
1030
0010
0200
0001
0010
1000
0010
0001
,
1300
0100
0002
0010
0100
0010
2003
0100
,
0010
0000
0100
0000
3002
0000
0010
0000
0100
0000
0010
0000
1003
0000
0001
0100
,
0010
1000
0100
1000
0010
0000
1000
0000
1100
0000
0010
0000
0100
0000
0001
0000
,
0011
0000
0100
0000
0010
0000
1000
0000
1010
0000
0100
0000
0101
0000
0010
0001
,
0100
0010
1000
0100
1100
0000
0000
0000
0101
0000
0000
0000
0011
0000
0000
0000
,
1010
2002
0000
3003
,
1000
0100
0002
0010
1000
0010
0100
0013
,
0001
0100
2000
0010
0001
0100
0010
3100
,
1000
0100
0020
0001
1000
0031
0200
0001
,
0010
0000
1300
0000
0010
0000
0001
0000
0100
0000
0010
0000
1000
0000
0001
1000
,
0100
0010
0001
0100
0021
0000
0001
0000
0100
0000
1000
0000
0100
0000
0001
0000
,
1030
0010
0200
0001
0010
1000
0010
0001
,
1300
0100
2000
0010
0100
0010
3002
0100
,
0010
0000
0100
0000
1003
0010
1000
0010
0100
0001
0100
0001
1000
0100
1000
0100
,
0010
0001
0010
0001
2002
0000
0000
0000
0000
0000
0000
0000
3003
0000
0000
0000
;
