#TITLE:Anomie;
#SUBTITLE:(Axiom Style);
#ARTIST:D-Fener;
#TITLETRANSLIT:;
#SUBTITLETRANSLIT:;
#ARTISTTRANSLIT:;
#GENRE:;
#CREDIT:;
#MUSIC:Anomie (Axiom Style).ogg;
#BANNER:Anomie (Axiom Style)-bn.png;
#BACKGROUND:Anomie (Axiom Style)-bg.png;
#CDTITLE:;
#SAMPLESTART:66.918;
#SAMPLELENGTH:26.667;
#SELECTABLE:YES;
#OFFSET:-0.251;
#BPMS:0.000=144.000;
#STOPS:;
#BGCHANGES:;
#FGCHANGES:;

//--------------- dance-single - ----------------
#NOTES:
     dance-single:
     :
     Beginner:
     3:
     0,0,0,0,0:
1001
0000
0000
0000
,
0000
0000
0000
0000
,
1001
0000
0000
0000
,
0000
0000
0000
0000
,
1001
0000
0000
0000
,
0000
0000
0000
0000
,
1001
0000
0000
0000
,
0000
0000
0000
0000
,
1000
0000
1000
0000
,
0001
0000
0001
0000
,
1000
0000
1000
0000
,
0001
0000
0001
0000
,
1000
0000
1000
0000
,
0001
0000
0001
0000
,
1000
0000
1000
0000
,
0001
0000
0001
0000
,
1000
0100
1000
0000
,
0001
0100
0001
0000
,
1000
0010
1000
0000
,
0001
0010
0001
0000
,
0100
0010
0100
0000
,
0001
1000
0001
0000
,
0010
0100
0010
0000
,
1000
0001
1000
0000
,
1000
0100
0010
0000
,
0001
0010
0100
0000
,
1000
0010
0100
0000
,
0001
0100
0010
0000
,
1000
0100
0010
0001
,
1000
0010
0100
0001
,
1000
0001
1000
1001
,
0000
0000
0000
0000
,
1001
0000
0000
0000
,
0000
0000
0000
0000
,
0000
0000
0000
0000
,
0000
0000
0000
0000
,
0000
0000
0000
0000
,
0000
0000
0000
0000
,
0000
0000
0000
0000
,
0000
0000
0000
0000
0000
0002
0000
0003
,
1000
0100
0010
0001
,
1000
0100
0010
0001
,
1000
0100
0010
0001
,
1000
0100
0010
0001
,
1000
0010
0100
0001
,
1000
0010
0100
0001
,
1000
0010
0100
0001
,
1000
0010
0100
0001
,
1000
0100
0010
0100
,
1000
0100
0010
0100
,
1000
0100
0010
0001
,
1000
0100
0010
0001
,
1000
0010
0100
0010
,
1000
0010
0100
0010
,
1000
0010
0100
0001
,
1000
0010
0100
0001
,
1000
0100
0010
0001
,
1000
0100
0010
0001
,
1000
0100
0010
0001
,
1000
0100
0010
0001
,
1000
0100
0010
0001
,
1000
0100
0010
0001
,
1000
0100
0010
0001
,
2002
0000
0000
0000
0000
0000
0000
3003
,
1000
0000
0100
0000
,
0010
0000
0001
0000
,
1000
0000
0010
0000
,
0100
0000
0001
0000
,
1000
0000
0100
0000
,
0010
0000
0100
0000
,
1000
0000
0010
0000
,
0100
0000
0000
0000
0001
0000
0000
1000
;

//--------------- dance-single - ----------------
#NOTES:
     dance-single:
     :
     Easy:
     8:
     0,0,0,0,0:
1001
1000
0100
1000
,
0100
1000
0100
1000
,
1001
0001
0100
0001
,
0100
0001
0100
0001
,
1001
1000
0010
1000
,
0010
1000
0010
1000
,
1001
0001
0010
0001
,
0010
0001
0010
0001
,
1000
1000
1000
0000
,
0001
0001
0001
0001
,
0100
0100
0100
0000
,
0010
0010
0010
0010
,
1000
1000
1000
0000
,
0001
0001
0001
0001
,
0010
0010
0010
0000
,
0100
0100
0100
0100
,
1000
0100
1000
0100
1000
0100
1000
0000
,
0001
0100
0001
0100
0001
0100
0001
0000
,
1000
0010
1000
0010
1000
0010
1000
0000
,
0001
0010
0001
0010
0001
0010
0001
0000
,
1000
0100
1000
0100
1000
0100
1000
0000
,
0001
0100
0001
0100
0001
0100
0001
0000
,
1000
0010
1000
0010
1000
0010
1000
0000
,
0001
0010
0001
0010
0001
0010
0001
0000
,
1000
0100
0010
0001
1000
0100
0010
0000
,
0001
0010
0100
1000
0001
0010
0100
0000
,
1000
0010
0100
0001
1000
0010
0100
0000
,
0001
0100
0010
1000
0001
0100
0010
0000
,
1000
0100
0010
0001
1000
0100
0010
0001
,
1000
0010
0100
0001
1000
0010
0100
0001
,
1000
0100
0010
0001
0100
0010
1001
0000
,
1000
0100
0010
0001
,
1001
0000
0000
0000
,
0000
0000
0000
0000
,
0000
0000
0000
0000
,
0000
0000
0000
0000
,
0000
0000
0000
0000
,
0000
0000
0000
0000
,
0000
0000
0000
0000
,
0000
0000
0000
0000
,
1000
0100
0010
0001
,
1000
0100
0010
0001
,
1000
0010
0100
0001
,
1000
0010
0100
0001
,
1000
0100
0010
0100
,
1000
0100
0010
0100
,
1000
0010
0100
0010
,
1000
0010
0100
0010
,
1000
0100
0010
0001
1000
0100
0010
0001
,
1000
0010
0100
0001
1000
0010
0100
0001
,
1000
0100
0010
0001
1000
0100
0010
0001
,
1000
0010
0100
0001
1000
0010
0100
0001
,
1000
0100
0010
0100
1000
0100
0010
0100
,
1000
0010
0100
0010
1000
0010
0100
0010
,
1000
0100
0010
0100
1000
0100
0010
0100
,
1000
0010
0100
0010
1000
0010
0100
0010
,
1000
0100
0010
0001
1000
0100
0010
0001
,
1000
0100
0010
0001
1000
0100
0010
0001
,
1000
0100
0010
0001
1000
0100
0010
0001
,
1000
0100
0010
0001
1000
0100
0010
0001
,
1000
0100
0010
0001
1000
0100
0010
0001
,
1000
0100
0010
0001
1000
0100
0010
0001
,
1000
0100
0010
0001
1000
0100
0010
0001
,
2002
0000
0000
0000
0000
0000
0000
3003
,
1000
0100
0010
0001
,
1000
0100
0010
0001
,
1000
0010
0100
0001
,
1000
0010
0100
0001
,
1000
0100
0010
0001
,
1000
0100
0010
0001
,
1000
0010
0100
0001
,
1000
0000
0000
0000
0001
0000
0000
1000
;

//--------------- dance-single - ----------------
#NOTES:
     dance-single:
     :
     Medium:
     10:
     0,0,0,0,0:
1001
0000
1000
0100
1000
0100
1000
0100
,
1000
0100
1000
0100
1000
0100
1000
0000
,
1001
0000
0001
0100
0001
0100
0001
0100
,
0001
0100
0001
0100
0001
0100
0001
0000
,
1001
0000
1000
0010
1000
0010
1000
0010
,
1000
0010
1000
0010
1000
0010
1000
0000
,
1001
0000
0001
0010
0001
0010
0001
0010
,
0001
0010
0001
0010
0001
0010
0001
0000
,
1000
0000
1000
0100
0000
0100
1000
0000
1000
0000
0000
0000
0110
0000
0000
0000
,
0001
0000
0001
0010
0000
0010
0001
0000
0001
0000
0001
0010
0000
0010
0001
0000
,
0001
0000
0001
0010
0000
0010
0001
0000
0001
0000
0000
0000
0110
0000
0000
0000
,
1000
0000
1000
0010
0000
0010
1000
0000
1000
0000
1000
0010
0000
0010
1000
0000
,
1000
0000
1000
0010
0000
0010
1000
0000
1000
0000
0000
0000
0110
0000
0000
0000
,
0001
0000
0001
0100
0000
0100
0001
0000
0001
0000
0001
0100
0000
0100
0001
0000
,
0001
0000
0001
0100
0000
0100
0001
0000
0001
0000
0000
0000
0110
0000
0000
0000
,
1000
0000
1000
0001
0000
0001
1000
0000
0001
0000
0001
1000
0000
1000
0001
0000
,
1000
0100
1000
0100
1000
0100
1000
0100
1000
0100
1000
0100
1000
0000
0000
0000
,
0001
0100
0001
0100
0001
0100
0001
0100
0001
0100
0001
0100
0001
0000
0000
0000
,
1000
0010
1000
0010
1000
0010
1000
0010
1000
0010
1000
0010
1000
0000
0000
0000
,
0001
0010
0001
0010
0001
0010
0001
0010
0001
0010
0001
0010
0001
0000
0000
0000
,
1000
0001
1000
0001
1000
0001
1000
0001
1000
0001
1000
0001
1000
0000
0000
0000
,
0100
0010
0100
0010
0100
0010
0100
0010
0100
0010
0100
0010
0100
0000
0000
0000
,
0001
1000
0001
1000
0001
1000
0001
1000
0001
1000
0001
1000
0001
0000
0000
0000
,
0010
0100
0010
0100
0010
0100
0010
0100
0010
0100
0010
0100
0010
0000
0000
0000
,
1000
0100
1000
0100
1000
0100
1000
0100
1000
0100
1000
0100
1000
0000
0000
0000
,
0100
0001
0100
0001
0100
0001
0100
0001
0100
0001
0100
0001
0100
0000
0000
0000
,
0001
0010
0001
0010
0001
0010
0001
0010
0001
0010
0001
0010
0001
0000
0000
0000
,
0010
1000
0010
1000
0010
1000
0010
1000
0010
1000
0010
1000
0010
0000
0000
0000
,
1000
0100
0010
0001
1000
0100
0010
0001
1000
0100
0010
0001
2000
0000
0000
0000
,
3001
0010
0100
1000
0001
0010
0100
1000
0001
0010
0100
1000
0002
0000
0000
0000
,
1003
0001
1000
0001
1000
0001
1000
0001
1000
0001
1000
0001
1000
0000
0000
0000
,
1000
0000
1000
1000
0000
1000
0000
0000
,
0100
0000
0100
0100
0000
0100
0000
0000
,
0010
0000
0010
0010
0000
0010
0000
0001
,
0001
0000
0001
0001
0000
0001
0000
0000
,
0100
0000
0100
0100
0000
0100
0000
0010
,
0010
0000
0010
0010
0000
0010
0000
0000
,
1000
0000
1000
1000
0000
1000
0000
0001
,
0001
0000
0001
0001
0000
0001
0000
0000
,
1000
0000
1000
1000
0000
2000
0000
3000
,
1001
0000
0100
0011
0000
0010
0100
1000
,
1001
0000
0010
1100
0000
0100
0010
0001
,
1001
0000
0010
0101
0000
0100
0010
1000
,
1001
0000
0100
1010
0000
0010
0100
0001
,
1001
0000
0100
1001
0000
0100
0010
0001
,
1001
0000
0010
1001
0000
0010
1000
0100
,
1001
0000
0010
0110
0000
0100
0100
0100
,
1001
0000
0100
0110
0000
0010
0010
0010
,
1000
0100
0010
0001
1000
0100
0010
0001
,
1000
0100
0010
0001
1000
0100
0010
0001
,
1000
0100
0010
0001
1000
0100
0010
0001
,
1000
0100
0010
0001
1000
0100
0010
0001
,
1000
0010
0100
0001
1000
0010
0100
0001
,
1000
0010
0100
0001
1000
0010
0100
0001
,
1000
0010
0100
0001
1000
0010
0100
0001
,
1000
0010
0100
0001
1000
0010
0100
0001
,
1000
0100
0010
0001
1000
0010
0100
0001
,
1000
0100
0010
0001
1000
0010
0100
0001
,
1000
0100
0010
0001
1000
0010
0100
0001
,
1000
0100
0010
0001
1000
0010
0100
0001
,
1000
0100
0010
0001
1000
0010
0100
0001
,
1000
0100
0010
0001
1000
0010
0100
0001
,
1000
0100
0010
0001
1000
0010
0100
0001
,
2002
0000
0000
0000
0000
0000
0000
3003
,
1000
0100
0010
0001
,
1000
0010
0100
0001
,
1000
0100
0010
0001
,
1000
0010
0100
0001
,
1000
0100
0010
0001
,
1000
0010
0100
0001
,
1000
0100
0010
0001
,
1000
0000
0001
1000
0000
1000
0000
1001
;

//--------------- dance-single - ----------------
#NOTES:
     dance-single:
     :
     Hard:
     12:
     0,0,0,0,0:
1001
0000
0000
0000
1000
0000
0001
0000
1000
0001
1000
0001
1000
0000
0001
0000
,
1000
0000
0010
0000
1000
0000
0010
0000
1000
0010
1000
0010
1000
0000
0010
0000
,
0110
0000
0000
0000
0100
0000
0010
0000
0100
0010
0100
0010
0100
0000
0010
0000
,
0100
0000
0001
0000
0100
0000
0001
0000
0100
0001
0100
0001
0100
0000
0001
0000
,
1001
0000
0000
0000
1000
0000
0100
0000
1000
0100
1000
0100
1000
0000
0100
0000
,
0010
0000
0100
0000
0010
0000
0100
0000
0010
0100
0010
0100
0010
0000
0100
0000
,
1001
0000
0000
0000
0010
0000
0001
0000
0010
0001
0010
0001
0010
0000
0001
0000
,
1000
0100
0010
0001
0100
0010
1000
0000
,
1000
0000
1000
0100
0000
0100
1000
0000
1000
0000
0010
0000
0110
0000
0000
0000
,
0001
0000
0001
1000
0000
1000
0001
0000
0001
0000
0001
0100
0000
0100
0001
0000
,
0001
0000
0001
0010
0000
0010
0001
0000
0001
0000
0100
0000
0110
0000
0000
0000
,
1000
0000
1000
0001
0000
0001
1000
0000
1000
0000
1000
0100
0000
0100
1000
0000
,
1000
0000
1000
0010
0000
0010
1000
0000
1000
0000
0100
0000
0110
0000
0000
0000
,
0001
0000
0001
1000
0000
1000
0001
0000
0001
0000
0001
0010
0000
0010
0001
0000
,
0001
0000
0001
0100
0000
0100
0001
0000
0001
0000
0010
0000
0110
0000
0000
0000
,
1000
0000
1000
0001
0000
0001
1000
0000
1000
0000
1000
0010
0000
0010
1000
0000
,
1000
0100
1000
0100
1000
0100
1000
0100
1000
0100
1000
0100
1000
0000
0000
0000
,
0001
0100
0001
0100
0001
0100
0001
0100
0001
0100
0001
0100
0001
0000
0000
0000
,
1000
0010
1000
0010
1000
0010
1000
0010
1000
0010
1000
0010
1000
0000
0000
0000
,
0001
0010
0001
0010
0001
0010
0001
0010
0001
0010
0001
0010
0001
0000
0000
0000
,
1000
0001
1000
0001
1000
0001
1000
0001
1000
0001
1000
0001
1000
0000
0000
0000
,
0100
0010
0100
0010
0100
0010
0100
0010
0100
0010
0100
0010
0100
0000
0000
0000
,
0001
1000
0001
1000
0001
1000
0001
1000
0001
1000
0001
1000
0001
0000
0000
0000
,
0010
0100
0010
0100
0010
0100
0010
0100
0010
0100
0010
0100
0010
0000
0000
0000
,
1000
0010
1000
0010
1000
0010
1000
0010
1000
0010
1000
0010
1000
0000
0000
0000
,
0001
0100
0001
0100
0001
0100
0001
0100
0001
0100
0001
0100
0001
0000
0000
0000
,
1000
0100
1000
0100
1000
0100
1000
0100
1000
0100
1000
0100
1000
0000
0000
0000
,
0001
0010
0001
0010
0001
0010
0001
0010
0001
0010
0001
0010
0001
0000
0000
0000
,
1000
0100
1000
0100
1000
0100
1000
0100
1000
0100
1000
0100
1000
0100
0010
0001
,
1000
0010
1000
0010
1000
0010
1000
0010
1000
0010
1000
0010
1000
0010
0100
0001
,
1000
0001
1000
0001
1000
0001
1000
0001
0100
0010
0100
0010
0100
0000
0000
0000
,
1000
0000
0100
0010
0000
0001
0000
0000
,
1001
0000
1100
1100
0000
1100
0000
0000
,
0110
0000
0011
0011
0000
0011
0000
1001
,
1001
0000
1010
1010
0000
1010
0000
0000
,
0110
0000
0101
0101
0000
0101
0000
1001
,
1001
0000
1100
1100
0000
1100
0000
0000
,
0110
0000
0101
0101
0000
0101
0000
1001
,
1001
0000
1010
1010
0000
1010
0000
0000
,
0110
0000
0011
0011
0000
0011
0000
0000
,
1000
0100
1000
0100
1000
0100
1000
0000
0001
0100
0001
0100
0001
0100
0001
0000
,
1000
0010
1000
0010
1000
0010
1000
0000
0001
0010
0001
0010
0001
0010
0001
0000
,
0100
1000
0100
1000
0100
1000
0100
0000
0100
0001
0100
0001
0100
0001
0100
0000
,
0010
1000
0010
1000
0010
1000
0010
0000
0010
0001
0010
0001
0010
0001
0010
0000
,
1000
0001
1000
0001
1000
0001
1000
0000
0100
0010
0100
0010
0100
0010
0100
0000
,
0001
1000
0001
1000
0001
1000
0001
0000
0010
0100
0010
0100
0010
0100
0010
0000
,
1000
0100
1000
0100
1000
0100
1000
0000
0100
0010
0100
0010
0100
0010
0100
0000
,
0010
0001
0010
0010
0000
1000
0100
1000
,
1000
0100
1000
0100
1000
0100
1000
0100
1000
0100
1000
0100
1000
0100
1000
0100
,
0010
0001
0010
0001
0010
0001
0010
0001
0010
0001
0010
0001
0010
0001
0010
0001
,
1000
0010
1000
0010
1000
0010
1000
0010
1000
0010
1000
0010
1000
0010
1000
0010
,
0100
0001
0100
0001
0100
0001
0100
0001
0100
0001
0100
0001
0100
0001
0100
0001
,
1000
0001
1000
0001
1000
0001
1000
0001
1000
0001
1000
0001
1000
0001
1000
0001
,
0100
0010
0100
0010
0100
0010
0100
0010
0100
0010
0100
0010
0100
0010
0100
0010
,
1000
0001
1000
0001
1000
0001
1000
0001
1000
0001
1000
0001
1000
0001
1000
0001
,
0010
0100
0010
0100
0010
0100
0010
0100
0010
0100
0010
0100
0010
0100
0010
0100
,
1000
0100
1000
0100
1000
0100
1000
0100
0010
0001
0010
0001
0010
0001
0010
0001
,
1000
0010
1000
0010
1000
0010
1000
0010
0100
0001
0100
0001
0100
0001
0100
0001
,
1000
0001
1000
0001
1000
0001
1000
0001
0100
0010
0100
0010
0100
0010
0100
0010
,
1000
0001
1000
0001
1000
0001
1000
0001
0010
0100
0010
0100
0010
0100
0010
0100
,
1000
0100
1000
0100
1000
0100
1000
0100
1000
0010
1000
0010
1000
0010
1000
0010
,
0100
0001
0100
0001
0100
0001
0100
0001
0010
0001
0010
0001
0010
0001
0010
0001
,
1000
0001
1000
0001
1000
0001
1000
0001
0010
0100
0010
0100
0010
0100
0010
0100
,
2000
0002
0000
0000
0000
0000
0000
0000
0000
0000
0000
0000
0000
0000
3000
0003
,
1001
0100
0010
0001
1000
0010
0100
0001
,
1000
0100
0010
0001
1000
0100
0010
0001
,
1000
0010
0100
0001
1000
0100
0010
0001
,
1000
0010
0100
0001
1000
0010
0100
0001
,
1000
0100
0010
0100
1000
0010
0100
0010
,
1000
0100
0010
0100
1000
0100
0010
0100
,
1000
0010
0100
0010
1000
0100
0010
0100
,
1000
0001
1000
0001
0000
0001
0000
1000
;

//--------------- dance-single - ----------------
#NOTES:
     dance-single:
     :
     Challenge:
     13:
     0,0,0,0,0:
1001
0000
0001
0000
1000
0000
0100
0000
1000
0100
1000
0100
1000
0100
1000
0100
,
1000
0010
1000
0010
1000
0010
1000
0010
0100
0010
0100
0010
0100
0010
0100
0000
,
1001
0000
1000
0000
0001
0000
0010
0000
0001
0010
0001
0010
0001
0010
0001
0010
,
0001
0100
0001
0100
0001
0100
0001
0100
0010
0100
0010
0100
0010
0100
0010
0000
,
1001
0000
0001
0000
1000
0000
0010
0000
1000
0010
1000
0010
1000
0010
1000
0010
,
1000
0100
1000
0100
1000
0100
1000
0100
0010
0100
0010
0100
0010
0100
0010
0000
,
1001
0000
1000
0000
0001
0000
0100
0000
0001
0100
0001
0100
0001
0100
0001
0100
,
0001
0010
0001
0010
0001
0010
0001
0010
0100
0010
0100
0010
0100
0010
0100
0000
,
1000
0100
1000
0100
1000
0100
0010
0001
1000
0100
0010
0001
0010
0000
0000
0000
,
0001
0010
0001
0010
0001
0010
0100
1000
0001
0010
0100
1000
0001
0100
0010
1000
,
0001
0100
0001
0100
0001
0100
0010
1000
0001
0100
0010
1000
0010
0000
0000
0000
,
1000
0010
1000
0010
1000
0010
0100
0001
1000
0010
0100
0001
1000
0100
0010
0001
,
1000
0100
1000
0100
1000
0010
0100
0001
1000
0100
0010
0001
0010
0000
0000
0000
,
0001
0010
0001
0010
0001
0100
0010
1000
0001
0010
0100
1000
0001
0100
0010
1000
,
0001
0100
0001
0100
0001
0010
0100
1000
0001
0100
0010
1000
0010
0000
0000
0000
,
1000
0010
1000
0010
1000
0100
0010
0001
1000
0010
0100
0001
1000
0100
0010
0001
,
1000
0100
0010
0001
1000
0100
0010
0001
1000
0100
0010
0001
1000
0000
0000
0000
,
0001
0010
0100
1000
0001
0010
0100
1000
0001
0010
0100
1000
0001
0000
0000
0000
,
1000
0010
0100
0001
1000
0010
0100
0001
1000
0010
0100
0001
1000
0000
0000
0000
,
0001
0100
0010
1000
0001
0100
0010
1000
0001
0100
0010
1000
0001
0000
0000
0000
,
1000
0100
0010
0100
1000
0100
0010
0100
1000
0100
0010
0001
1000
0000
0000
0000
,
0001
0010
0100
0010
0001
0010
0100
0010
0001
0010
0100
1000
0001
0000
0000
0000
,
1000
0010
0100
0010
1000
0010
0100
0010
1000
0010
0100
0001
1000
0000
0000
0000
,
0001
0100
0010
0100
0001
0100
0010
0100
0001
0100
0010
1000
0001
0000
0000
0000
,
1000
0100
0010
0100
1000
0100
0010
0001
1000
0010
0100
0001
1000
0000
0000
0000
,
0001
0010
0100
0010
0001
0010
0100
1000
0001
0100
0010
1000
0001
0000
0000
0000
,
1000
0010
0100
0010
1000
0010
0100
0001
1000
0100
0010
0001
1000
0000
0000
0000
,
0001
0100
0010
0100
0001
0100
0010
1000
0001
0010
0100
1000
0001
0000
1000
0001
,
1000
0000
0000
0100
0000
0000
0010
0000
0000
0100
0000
0000
0010
0000
0000
0001
0000
0000
0100
0000
0000
0010
0000
0000
0100
0000
0000
0010
0000
0000
1000
0000
0000
0001
0000
0000
1000
0000
0100
0000
0010
0000
0001
0000
0100
0000
0010
0000
,
1000
0000
0000
0010
0000
0000
0100
0000
0000
0010
0000
0000
0100
0000
0000
0001
0000
0000
0010
0000
0000
0100
0000
0000
0010
0000
0000
0100
0000
0000
1000
0000
0000
0001
0000
0000
1000
0000
0010
0000
0100
0000
0001
0000
0010
0000
0100
0000
,
1000
0100
0010
0001
0100
0010
1000
0100
0010
0001
0100
0010
2002
0000
3003
0000
,
1000
0000
0100
0000
0010
0000
0001
0000
0010
0000
0100
0000
1000
0000
0100
0000
0010
0000
0001
0000
0010
0000
0100
0000
1000
0000
0100
0000
0010
0001
0010
0001
,
1000
0100
1000
0100
1000
0100
1000
0100
1000
0100
1000
0100
1000
0100
1000
0100
,
0010
0001
0010
0001
0010
0001
0010
0001
0010
0001
0010
0001
0010
0001
0010
0001
,
1000
0010
1000
0010
1000
0010
1000
0010
1000
0010
1000
0010
1000
0010
1000
0010
,
0100
0001
0100
0001
0100
0001
0100
0001
0100
0001
0100
0001
0100
0001
0100
0001
,
1000
0001
1000
0001
1000
0001
1000
0001
1000
0001
1000
0001
1000
0001
1000
0001
,
0100
0010
0100
0010
0100
0010
0100
0010
0100
0010
0100
0010
0100
0010
0100
0010
,
1000
0001
1000
0001
1000
0001
1000
0001
1000
0001
1000
0001
1000
0001
1000
0001
,
0010
0100
0010
0100
0010
0100
0010
0100
0010
0100
0010
0100
0010
0100
0010
0100
,
1000
0100
1000
0001
0100
0010
1000
0100
0010
0100
1000
0010
0100
0001
1000
0100
,
1000
0010
1000
0001
0010
0100
1000
0010
0100
0010
1000
0100
0010
0001
1000
0010
,
1000
0100
1000
0010
0100
0001
0010
0100
1000
0100
0010
0001
0100
0010
1000
0100
,
1000
0010
1000
0100
0010
0001
0100
0010
1000
0010
0100
0001
0010
0100
1000
0010
,
1000
0100
0010
0100
1000
0001
0100
0010
1000
0100
0010
0100
1000
0100
0010
0001
,
1000
0010
0100
0010
1000
0001
0010
0100
1000
0010
0100
0010
1000
0010
0100
0001
,
1000
0100
0010
0100
1000
0100
0010
0001
1000
0010
0100
0001
0100
0010
0100
0001
,
1000
0010
0100
0010
1000
0010
0100
0001
1000
0100
0010
0001
0010
0100
0010
0001
,
1000
0100
0010
0100
0010
0100
1000
0001
0010
0100
0010
0100
0010
0001
0100
0010
,
1000
0010
0100
0010
0100
0010
1000
0001
0100
0010
0100
0010
0100
0001
0010
0100
,
1000
0001
0010
0001
1000
0100
0010
0001
1000
0001
0100
0001
1000
0010
0100
0001
,
1000
0001
0100
0001
1000
0100
0010
0001
1000
0001
0010
0001
1000
0010
0100
0001
,
1000
0100
0010
0100
1000
0001
0010
0001
1000
0010
0100
0010
1000
0001
0100
0001
,
1000
0010
0100
0010
1000
0001
0010
0001
1000
0100
0010
0100
1000
0001
0100
0001
,
1000
0100
0010
0001
1000
0001
0010
0001
1000
0010
0100
0001
0010
0100
1000
0001
,
1000
0000
0000
0100
0000
0000
0010
0000
0000
0001
0000
0000
0100
0000
0000
0010
0000
0000
1000
0000
0100
0000
0010
0000
0001
0000
0000
0010
0000
0000
0100
0000
0000
1000
0000
0000
0001
0000
0000
0100
0000
0000
0010
0000
0000
1000
0000
0000
,
0001
0010
0001
0010
0100
1000
0100
1000
0001
0100
0001
0100
0010
1000
0010
1000
,
0001
0010
0001
0010
0100
1000
0100
1000
0001
0100
0001
0100
0010
1000
0010
1000
,
0001
0010
0001
0010
0100
1000
0100
1000
0001
0100
0001
0100
0010
1000
0010
1000
,
0001
0010
0001
0010
0100
1000
0100
1000
0001
0100
0001
0100
0010
1000
0010
1000
,
0001
1000
0100
1000
0001
0100
0010
0100
0001
1000
0010
1000
0001
0010
0100
0010
,
0001
1000
0100
1000
0001
0010
0100
0010
0001
1000
0010
1000
0001
0100
0010
0100
,
0001
0010
0100
1000
0010
0100
0001
0010
0100
1000
0010
0100
0001
0010
0100
1000
,
0001
0000
0000
1000
0000
0000
0001
0000
0000
1000
0000
0000
0001
0000
0000
1000
0000
0000
0001
0000
0000
1000
0000
0000
0001
0000
0000
0000
1000
0000
0000
0000
0001
0000
0000
0000
1000
0000
0000
0000
0000
0000
0001
0000
0000
0000
0000
0000
1000
0000
0000
0000
0000
0000
0000
0000
0001
0000
0000
0000
0000
0000
0000
0000
1000
0000
0000
0000
0000
0000
0000
0000
0001
0000
0000
0000
0000
0000
0000
0000
0000
0000
0000
0000
1000
0000
0000
0000
0000
0000
0000
0000
0000
0000
0000
0000
,
1000
0100
1000
0100
0010
0001
0010
0001
1000
0100
0010
0001
1000
0010
0100
0001
,
1000
0010
1000
0010
0100
0001
0100
0001
1000
0010
0100
0001
1000
0100
0010
0001
,
1000
0100
1000
0100
0010
0001
0010
0001
1000
0010
0100
0001
1000
0100
0010
0001
,
1000
0010
1000
0010
0100
0001
0100
0001
1000
0100
0010
0001
1000
0010
0100
0001
,
1000
0100
0010
0001
1000
0010
0100
0001
1000
0100
1000
0100
0010
0001
0010
0001
,
1000
0010
0100
0001
1000
0100
0010
0001
1000
0010
1000
0010
0100
0001
0100
0001
,
1000
0100
0010
0100
1000
0100
0010
0001
1000
0010
0100
0010
1000
0010
0100
0001
,
1000
0000
0001
0000
1000
0000
0100
0000
0010
0001
0100
0001
1000
0000
0002
0000
,
0003
0000
0000
0000
;
