#TITLE:Abaddon;
#SUBTITLE:;
#ARTIST:ZaG-X;
#TITLETRANSLIT:;
#SUBTITLETRANSLIT:;
#ARTISTTRANSLIT:;
#GENRE:;
#CREDIT:;
#MUSIC:Abaddon.ogg;
#BANNER:Abaddon-bn.png;
#BACKGROUND:Abaddon-bg.png;
#CDTITLE:;
#SAMPLESTART:29.483;
#SAMPLELENGTH:14.769;
#SELECTABLE:YES;
#OFFSET:0.055;
#BPMS:0.000=65.000
,32.000=260.000
,96.000=344.000
,160.000=344.340
,224.000=346.200
,288.000=346.000
,352.000=345.820
,448.000=344.000
,449.000=341.000
,450.000=338.250
,451.000=335.500
,452.000=333.500
,453.000=332.000
,454.000=327.500
,455.000=318.500
,456.000=310.000
,457.000=304.000
,458.000=300.000
,459.000=294.000
,460.000=290.000
,461.000=286.000
,462.000=280.000
,463.000=276.000
,464.000=274.000
,465.000=270.500
,466.000=266.000
,467.000=262.000
,468.000=257.000
,469.000=252.000
,470.000=244.500
,471.000=237.500
,472.000=232.000
,473.000=230.500
,474.000=227.500
,475.000=225.000
,476.000=222.500
,477.000=220.500
,478.000=217.000
,479.000=216.000
,480.000=214.000
;
#STOPS:;
#DISPLAYBPM:*;
#BGCHANGES:;
#FGCHANGES:;

//--------------- dance-single - ----------------
#NOTES:
     dance-single:
     :
     Beginner:
     4:
     0,0,0,0,0:
0000
0000
0000
0000
,
0000
0000
0000
0000
,
1000
0000
0000
0001
,
1000
0000
0000
0000
,
2000
0000
0000
3100
,
0200
0000
0000
0310
,
0020
0000
0000
0031
,
0002
0000
0000
1003
,
1000
0000
0000
0000
,
0100
0000
0000
0000
,
0010
0000
0000
0000
,
0001
0000
0000
0000
,
1000
0000
0000
0000
,
0010
0000
0000
0000
,
0100
0000
0000
0000
,
0010
0000
0000
0000
,
1000
0000
0000
0000
,
0010
0000
0000
0000
,
0100
0000
0000
0000
,
0001
0000
0000
0000
,
1000
0000
0000
0000
,
0100
0000
0000
0000
,
0010
0000
0000
0000
,
0100
0000
0000
0000
,
1000
0000
0100
0000
,
1000
0000
0000
0000
,
0001
0000
0100
0000
,
0001
0000
0000
0000
,
1000
0000
0010
0000
,
1000
0000
0000
0000
,
0001
0000
0010
0000
,
0001
0000
0000
0000
,
1000
0000
0100
0000
,
0010
0000
0000
0000
,
0001
0000
0010
0000
,
0100
0000
0000
0000
,
1000
0000
0010
0000
,
0100
0000
0000
0000
,
0001
0000
0100
0000
,
0010
0000
0000
0000
,
1000
0000
1000
0000
,
0000
0100
0000
0100
,
0000
0000
0010
0000
,
0010
0000
0010
0000
,
0001
0000
0001
0000
,
0000
0010
0000
0010
,
0000
1000
1000
0000
,
0100
0000
0100
0000
,
1000
0000
1000
0000
,
0000
0010
0000
0010
,
0000
0000
0100
0000
,
0100
0000
0100
0000
,
0001
0000
0001
0000
,
0000
0100
0000
0100
,
0000
1000
1000
0000
,
0010
0000
0010
0000
,
1000
0000
0100
0000
,
0010
0000
0100
0000
,
1000
0000
0100
0000
,
0010
0000
0001
0000
,
1000
0000
0010
0000
,
0100
0000
0010
0000
,
1000
0000
0010
0000
,
0100
0000
0001
0000
,
1000
0000
0100
0000
,
0010
0000
0100
0000
,
1000
0000
0010
0000
,
0100
0000
0001
0000
,
1000
0000
0010
0000
,
0100
0000
0010
0000
,
1000
0000
0100
0000
,
0010
0000
0001
0000
,
1000
0000
1000
0000
,
0001
0000
0001
0000
,
0100
0000
0100
0000
,
0010
0100
0010
0100
,
0010
0000
1000
0000
,
0100
0000
0010
0000
,
0001
0000
1000
0000
,
0001
0000
0100
0000
,
1000
0000
0100
0000
,
0010
0000
0001
0000
,
1000
0000
0010
0000
,
0100
0000
0001
0000
,
1000
0000
0100
0000
,
0010
0000
0100
0000
,
1000
0000
0100
0000
,
0010
0000
0100
0000
,
1000
0000
0000
0000
,
0100
0000
0000
0000
,
0010
0000
0000
0000
,
0001
0000
0000
0000
,
1000
0000
0000
0000
,
0010
0000
0000
0000
,
0100
0000
0000
0000
,
0001
0000
0000
0000
,
1000
0000
0000
0000
,
0100
0000
0000
0000
,
0010
0000
0000
0000
,
0001
0000
0000
0000
,
0100
0000
0000
0000
,
0010
0000
0000
0000
,
1000
0000
0000
0000
,
0001
0000
0000
0000
,
1000
0000
0100
0000
,
0010
0000
0000
0000
,
0001
0000
0010
0000
,
0100
0000
0000
0000
,
1000
0000
0010
0000
,
0100
0000
0001
0000
,
0010
0000
0100
0000
,
1000
0000
0001
0000
,
1000
0000
0100
0000
,
0010
0000
0001
0000
,
1000
0000
0010
0000
,
0100
0000
0001
0000
,
1000
0000
0100
0000
,
0010
0000
0001
0000
,
1000
0000
0010
0000
,
0100
0000
0001
0000
,
2002
0000
3003
0000
;

//--------------- dance-single - ----------------
#NOTES:
     dance-single:
     :
     Easy:
     9:
     0,0,0,0,0:
0000
0000
0000
0000
,
0000
0000
0000
0000
,
2000
3000
0000
0000
0000
0000
0002
0003
,
2000
3000
0000
0000
0000
0000
0000
0000
,
2000
3200
0320
0032
,
2003
0000
0000
0000
0000
0000
0000
0000
0000
0000
0000
0000
0000
0000
0000
0000
3020
0000
0000
0000
0000
0000
0000
0000
0000
0000
0000
0000
0000
0000
0000
0000
0230
0000
0000
0000
0000
0000
0000
0000
0000
0000
0000
0000
0000
0000
0000
0000
0302
0000
0000
0000
0000
0000
0000
0000
0000
0000
0000
0000
0000
0000
0000
0003
,
0002
0023
0230
2300
,
3002
0000
0000
0000
0000
0000
0000
0000
0000
0000
0000
0000
0000
0000
0000
0000
0203
0000
0000
0000
0000
0000
0000
0000
0000
0000
0000
0000
0000
0000
0000
0000
0320
0000
0000
0000
0000
0000
0000
0000
0000
0000
0000
0000
0000
0000
0000
0000
2030
0000
0000
0000
0000
0000
0000
0000
0000
0000
0000
0000
0000
0000
0000
3000
,
1000
0000
0100
0000
,
0010
0000
0001
0000
,
1000
0000
0010
0000
,
0100
0000
0001
0000
,
1000
0000
0100
0000
,
0010
0000
0100
0000
,
1000
0000
0100
0000
,
0001
0000
0100
0000
,
1000
0000
0010
0000
,
0100
0000
0001
0000
,
1000
0000
0100
0000
,
0010
0000
0001
0000
,
1000
0000
0010
0000
,
0100
0000
0010
0000
,
1000
0000
0010
0000
,
0001
0000
0010
0000
,
1000
0000
0100
0000
,
0010
0000
0001
0000
,
1000
0000
0010
0000
,
0100
0000
0001
0000
,
1000
0000
1000
0000
,
0001
0000
0001
0000
,
0100
0000
0100
0000
,
0010
0000
0010
0000
,
1000
0000
0100
0000
,
0010
0000
0100
0000
,
1000
0000
0100
0000
,
0010
0000
0100
0000
,
1000
0000
0010
0000
,
0100
0000
0010
0000
,
1000
0000
0010
0000
,
0100
0000
0010
0000
,
1000
0000
0100
0000
,
0010
0000
0001
0000
,
1000
0000
0010
0000
,
0100
0000
0001
0000
,
1000
0000
0100
0000
,
0010
0000
0001
0000
,
1000
0000
0010
0000
,
0100
0000
0001
0000
,
1000
0000
0100
0000
,
0010
0000
0100
0000
,
1000
0000
0010
0000
,
0100
0000
0010
0000
,
1000
0000
0100
0000
,
0010
0000
0100
0000
,
1000
0000
0010
0000
,
0100
0000
0010
0000
,
1000
0100
0010
0000
,
0001
0000
0001
0000
,
1000
0010
0100
0000
,
0001
0000
0001
0000
,
1000
0010
0100
0000
,
0001
0000
1000
0000
,
0001
0010
0100
0000
,
1000
0000
0001
0000
,
1000
0100
0010
0000
,
0001
0000
1000
0000
,
0001
0100
0010
0000
,
1000
0000
0001
0000
,
1000
0100
0001
0000
,
0100
0000
1000
0000
,
0001
0100
1000
0000
,
0100
0000
0001
0000
,
2000
3100
0200
0310
,
0020
0031
0002
1003
,
1000
0100
0010
0001
,
1000
0010
1000
0010
1000
0010
1000
0010
,
1000
0100
0010
0100
,
1000
0100
0010
0001
,
1000
0100
0001
0100
,
1000
0010
0001
0010
,
1000
0000
0100
0000
,
0010
0000
0001
0000
,
0100
0000
0010
0000
,
1000
1000
0001
0001
,
1000
0010
0100
0001
,
0010
0100
1000
0100
,
0010
0001
0100
1000
,
0100
0010
0001
1000
,
1001
1000
0100
0000
,
0010
0000
0001
0000
,
1000
1000
0010
0000
,
0100
0000
0001
0000
,
1000
1000
0100
0000
,
0010
0000
0001
0000
,
1000
1000
0010
0000
,
0100
0000
0001
0000
,
0001
0001
0010
0000
,
0100
0000
1000
0000
,
0001
0001
0100
0000
,
0010
0000
1000
0000
,
0001
0001
0010
0000
,
0100
0000
1000
0000
,
0001
0001
0100
0000
,
0010
0000
1000
0000
,
1000
1000
0100
0000
,
0100
0000
0100
0000
,
0100
0100
0010
0000
,
0010
0000
0010
0000
,
0010
0010
0001
0000
,
0001
0000
0001
0000
,
0001
0001
0100
0000
,
0100
0100
0010
0000
,
1000
0100
0010
0001
,
0100
0100
0100
0100
,
0001
0010
0100
1000
,
0010
0010
0010
0010
,
1000
0010
0100
0001
,
0010
0010
0010
0010
,
0001
0100
0010
1000
,
0100
0000
0100
0000
0100
0010
1000
0001
,
2002
0000
3003
0000
;

//--------------- dance-single - ----------------
#NOTES:
     dance-single:
     :
     Medium:
     13:
     0,0,0,0,0:
0000
0000
0000
0000
,
0000
0000
0000
0000
,
2000
3000
0000
0000
0000
0000
0002
0003
,
2000
3000
0000
0000
0000
0000
0000
0000
,
2000
0000
0000
0000
3100
0000
0010
0000
0002
0000
0000
0000
0013
0000
0100
0000
1000
0000
0000
1000
0000
0000
1000
0000
0002
0000
0000
0000
0013
0000
0100
0000
,
2000
0000
0000
0000
3010
0000
0100
0000
0002
0000
0000
0000
0103
0000
0010
0000
1000
0000
0000
1000
0000
0000
1000
0000
0002
0000
0000
0000
0103
0000
0010
0000
,
2000
0000
0000
0000
3001
0000
0010
0000
0200
0000
0000
0000
1300
0000
0100
0000
0010
0000
0000
0010
0000
0000
0010
0000
0002
0000
0000
0000
0013
0000
0100
0000
,
2000
0000
0000
0000
3001
0000
0100
0000
0020
0000
0000
0000
1030
0000
0010
0000
0100
0000
0000
0100
0000
0000
0100
0000
0001
0000
0000
0001
0000
0000
0001
0000
,
1000
0100
0010
0001
,
0100
0000
0001
0010
0100
0000
1000
0000
,
0010
0000
0100
0010
0001
0000
0010
0000
,
0100
0000
1000
0100
0010
0000
0001
0000
,
0100
0001
0010
1000
,
0100
0000
0100
0010
0100
0000
0100
0000
,
0010
0001
0100
0010
,
1000
0000
0100
0000
0010
0000
0001
0000
1000
0100
1000
0000
0001
0100
0001
0000
,
1000
0100
0010
0001
,
0100
0000
0010
0100
0010
0000
0100
0000
,
1000
0000
0010
0100
1000
0000
0010
0000
,
0100
0000
0010
0001
0010
0000
0100
0000
,
0001
1000
0100
0100
,
0010
0000
0001
0010
0100
0000
1000
0000
,
0010
0100
0001
0010
,
1000
0000
0000
0001
0000
0000
1000
0000
0000
0000
0000
0000
1000
0000
0100
0000
0010
0000
0100
0000
0010
0000
0001
0000
,
1000
0100
0010
0001
,
1000
0010
0100
0001
,
1000
0100
0010
0001
,
1000
0010
0100
0001
,
0001
0010
0100
1000
,
0001
0100
0010
1000
,
0001
0010
0100
1000
,
0001
0100
0010
1000
,
1000
0100
0010
0100
,
1000
0010
0100
0010
,
1000
0100
0010
0100
,
1000
0010
0100
0010
,
0001
0010
0100
0010
,
0001
0100
0010
0100
,
0001
0010
0100
0010
,
0001
0100
0010
0100
,
1001
0100
0100
0001
,
0010
0001
0100
0010
,
1000
0010
0010
0001
,
0100
0001
0010
0100
,
1000
0100
0100
0010
,
0001
0100
0010
1000
,
1000
0010
0010
0100
,
0001
0010
0100
1000
,
1000
0100
0100
0001
,
0010
1000
0010
0001
,
1000
0010
0010
0001
,
0100
1000
0100
0001
,
1000
0100
0010
0001
,
0100
0100
0100
0100
,
0001
0010
0100
1000
,
0010
0010
0010
0010
,
1001
0000
1000
0100
0001
0000
0010
0000
,
1000
0110
0010
0010
,
1000
0000
0100
0010
0001
0000
0010
0000
,
1000
0110
0110
0001
,
1000
0000
0001
0010
1000
0000
0100
0000
,
0001
0010
0100
1000
,
0010
0000
0100
0001
0100
0000
0010
0000
,
1000
0100
0001
0000
0001
0010
1000
0010
,
0001
0000
1000
0100
1000
0000
0001
0000
,
0100
0010
1000
0001
,
1000
0000
0001
0100
0001
0000
1000
0000
,
0100
0010
0010
0001
,
1000
0000
0010
0100
0010
0000
1000
0000
,
0100
0010
0001
0100
,
1000
0000
0100
0010
0100
0000
0001
0000
,
1000
0010
0001
0000
1000
0100
0001
0100
,
2000
0000
0000
3001
0100
0010
0200
0000
0000
1300
0010
0001
,
0020
0000
0000
0130
0001
1000
0002
0000
0000
0013
1000
0100
,
1000
0100
0010
0001
1000
0010
0100
0001
,
1000
0010
1000
0010
1000
0010
1000
0010
1000
0010
1000
0010
,
1000
0100
0001
0010
0100
1000
0010
0001
,
1000
0000
0000
0100
0000
0000
0010
0000
0000
0001
0000
0000
1000
0000
0100
0000
0010
0000
0001
0000
0010
0000
0100
0000
,
2000
0000
0100
0010
3002
0000
0100
0000
,
1003
0100
0001
0000
0010
0001
0100
0010
,
2000
0000
0000
0000
0000
0000
0000
0000
0000
0000
0000
0000
0000
0000
0000
0000
0000
0000
0000
0000
0000
0000
0000
0000
0000
0000
0000
0000
0000
0000
0000
0000
0100
0000
0000
0000
0000
0000
0000
0000
0010
0000
0000
0000
0000
0000
0000
3000
2000
0000
0000
0000
0000
0000
0000
0000
0000
0000
0000
0000
0000
0000
0000
0000
,
3002
0100
0023
0100
,
2030
0000
0000
0000
0000
0000
0100
0000
0000
0010
0000
0000
3001
0000
0010
0000
0100
0000
1000
0000
0000
0000
0000
0000
,
0010
0010
0100
0100
,
1000
0100
0010
0001
1000
0010
0100
0010
,
1000
0100
0010
0100
1000
0010
0100
0001
,
1000
0000
0001
0000
0100
0010
1000
0001
,
1000
0100
0010
0100
1000
0100
0010
0001
1000
0001
1000
0001
,
1000
0000
1000
0100
0010
0000
0001
0000
,
0010
0010
0000
0100
,
0000
0000
0010
0100
1000
0000
0010
0000
,
0100
0100
0100
0100
,
0001
0000
0100
0001
0010
0000
1000
0000
,
0010
0010
0000
0010
,
0000
0000
0100
0010
0001
0000
0010
0000
,
1000
0100
0001
0000
0010
0001
0100
1000
,
0001
0000
1000
0100
0010
0000
0001
0000
,
1000
1000
0000
0001
,
1000
0000
0100
0001
1000
0000
0010
0000
,
0010
0100
0010
0100
,
0010
0000
0001
0010
1000
0000
0100
0000
,
0010
0010
0010
0010
,
0100
0000
1000
0100
0001
0000
0010
0000
,
1000
0100
0001
0000
0001
0010
1000
0010
,
0001
0000
0100
0010
0100
0000
0001
0000
,
0010
1000
0100
0001
,
1000
0000
0010
0100
0010
0000
1000
0000
,
0010
0001
0100
1000
,
0100
0000
0001
0010
1000
0000
0000
0000
,
0100
0010
0100
0010
,
0001
0000
0100
0010
1000
0000
0001
0000
,
0100
0010
0100
0000
0001
0010
0100
0010
,
1000
0000
0100
0010
0001
0000
0100
0000
,
0010
1000
1000
1000
,
1000
0000
0001
0100
0010
0000
0010
0000
,
0100
0100
0100
0100
,
0001
0000
0010
1000
0100
0000
0001
0000
,
0010
0100
1000
0001
,
0100
0000
0010
0001
1000
0000
0100
0000
,
0010
0000
0000
0100
0000
0000
1000
0000
0000
0000
0000
0000
1000
0000
0100
0000
0010
0000
0100
0000
0010
0000
0001
0000
,
2000
0002
0000
0000
0000
0000
3003
0000
0000
0000
0000
0000
;

//--------------- dance-single - ----------------
#NOTES:
     dance-single:
     :
     Hard:
     13:
     0,0,0,0,0:
0000
0000
0000
0000
,
0000
0000
0000
0000
,
2000
3000
0000
0000
0000
0000
0200
0300
,
0020
0030
0000
0000
0000
0000
0000
0000
,
0002
0000
0000
0000
0013
0000
0100
0000
2000
0000
0000
0000
3010
0000
0100
0000
0001
0000
0000
0001
0000
0000
0001
0000
2000
0000
0000
0000
3100
0000
0010
0000
,
0002
0000
0000
0000
0103
0000
0010
0000
2000
0000
0000
0000
3100
0000
0100
0000
1000
0000
0000
1000
0000
0000
1000
0000
0002
0000
0000
0000
0013
0000
0100
0000
,
0020
0000
0000
0000
0031
0000
0100
0000
0020
0000
0000
0000
0130
0000
0001
0000
0010
0000
0000
0010
0000
0000
0010
0000
2000
0000
0000
0000
3100
0000
0010
0000
,
0200
0000
0000
0000
1300
0000
0010
0000
0200
0000
0000
0000
0310
0000
1000
0000
0100
0000
0000
0100
0000
0000
0100
0000
0010
0000
0000
0010
0000
0000
0010
0000
,
1001
0000
0100
0010
1001
0000
0010
0000
,
1001
0000
0100
0010
0000
0010
0001
0000
,
1001
0000
0010
0100
0101
0000
0100
0000
,
1001
0000
0010
0100
0101
0000
0110
0000
,
1000
0100
1001
0110
,
1001
0000
0001
0010
0100
1000
0001
0000
,
1001
0000
0001
0100
0010
1000
0001
0000
,
1000
0000
0001
0000
1000
0000
0000
0000
1000
0000
0100
0000
0010
0001
0010
0100
,
1000
0000
0010
0100
0110
0000
1000
0000
,
0001
0010
0000
0010
0100
0000
1010
0000
,
1001
0000
0100
0010
0100
0000
1000
0000
,
0001
0100
0000
0100
0010
0000
1100
0000
,
1001
0100
1001
0110
,
0100
0000
0100
0010
0100
0000
0101
0000
,
1001
1100
0110
0101
,
1000
0000
0000
0001
0000
0000
1000
0000
0000
0000
0000
0000
1000
0000
0100
0000
0010
0000
0001
0000
0010
0000
0100
0000
,
1000
0100
0010
0100
,
1000
0000
0010
0000
0100
0000
0001
0010
,
1000
0010
0100
0010
,
1000
0000
0100
0000
0010
0000
0001
0100
,
1000
0100
0010
0100
,
1000
0100
1000
0000
0001
0100
0001
0000
,
1000
0010
0100
0010
,
1000
0010
1000
0000
0001
0010
0001
0000
,
1000
0100
0010
0001
,
1000
0010
1000
0000
0001
0100
0001
0000
,
1000
0010
0100
0001
,
1000
0100
1000
0000
0001
0010
0001
0000
,
1000
0000
0100
0010
0100
0000
0010
0000
,
0001
0010
0100
1000
,
1000
0000
0010
0100
0010
0000
0100
0000
,
0001
0100
0010
1000
,
1000
0000
0100
0000
0011
0000
0010
0001
,
0100
1010
0010
1100
,
0001
0000
0100
0000
1010
0000
0100
0001
,
0010
0000
0110
0000
0110
0000
0001
0010
,
1000
0000
0010
0000
0101
0000
0100
0001
,
0010
1100
1010
0100
,
0001
0110
0110
1000
,
0101
0110
1100
1001
,
1000
0000
0100
0000
0011
0000
0001
1000
,
0010
1100
0001
0110
,
0001
0000
0100
0000
1010
0000
1000
0001
,
0010
0101
0110
0001
,
1001
0100
0011
1000
,
0001
0110
1000
0110
,
0001
0110
1100
0001
,
1010
0110
0011
1001
,
1001
0000
0100
0010
0001
0000
0100
0000
,
1000
0110
0001
0110
,
1000
0000
0010
0100
0001
0000
0010
0000
,
1000
0110
0101
0100
,
0001
0000
0010
0100
1000
0000
1000
0000
,
0110
1001
0110
1001
,
1000
0000
0100
0001
0010
0000
0100
0000
,
1000
0100
0010
0000
0100
0010
1000
0001
,
1000
0000
0100
0001
1000
0000
0010
0000
,
0100
1010
0100
0011
,
1000
0000
0100
1000
0001
0000
0010
0000
,
1000
0110
0110
0001
,
1001
0000
0100
0010
1000
0000
1000
0000
,
0001
0110
1000
0110
,
0001
0000
0100
0010
1000
0000
0001
0000
,
1000
0010
0100
0000
0010
0100
1000
0001
,
2000
0000
3010
0001
0200
0000
0301
1000
,
0020
0000
1030
0100
0002
0000
0013
1000
,
0100
0010
0001
0100
0010
1000
0001
0010
,
1000
0001
1000
0001
1000
0001
1000
0100
0010
0001
0010
0100
,
1000
0100
0010
0100
1000
0010
0100
0010
,
1000
0100
0010
0001
1000
0010
0100
0001
,
1000
0010
0100
0001
,
1000
0100
0010
0001
,
1000
0000
0000
0000
0010
0001
0010
0000
,
2000
0000
3002
0000
,
1003
0000
0000
0001
0010
0100
1000
0000
,
0001
0010
1000
0010
,
0001
0010
0100
0010
1000
0100
0010
0001
,
1000
0100
0001
0100
1000
0010
0001
0000
,
1000
0000
0010
0000
0001
0010
0100
0000
,
0001
0010
0100
0010
1000
0100
0010
0001
,
1001
0000
1000
0100
0010
0000
0011
0000
,
0110
1010
0000
1001
,
0000
0000
1000
0100
1000
0000
0001
0000
,
0110
1010
0011
1001
,
0001
0000
1000
0100
0010
0000
1001
0000
,
1010
1100
0000
1001
,
0000
0000
1000
0010
0100
0000
0001
0000
,
0100
1000
0100
0000
1000
0010
0100
0001
,
1000
0000
0100
0001
0010
0000
0110
0000
,
0011
0101
0000
1001
,
0000
0000
1000
0100
0010
0000
0001
0000
,
1010
0110
1100
0110
,
1000
0000
0001
1000
0001
0000
1000
0000
,
0110
0110
0110
0110
,
0001
0000
0010
0100
1000
0000
0001
0000
,
0010
0100
0010
0000
0010
0100
0010
0100
,
1000
0000
0100
0010
0011
0000
0101
0000
,
0110
1100
1010
0110
,
0000
0000
1000
0010
0110
0000
1001
0000
,
0011
0101
0110
1010
,
1100
0000
0100
0010
0011
0000
0010
0000
,
1100
1010
1001
0011
,
0000
0000
0001
0010
1010
0000
0001
0000
,
1000
0100
0010
0000
0001
0010
0100
0010
,
1001
0000
0100
0010
0001
0000
0011
0000
,
0110
1100
0110
0101
,
0110
0000
0100
0001
1000
0000
1010
0000
,
0110
0011
0101
0110
,
1001
0000
0100
0010
0001
0000
0110
0000
,
1100
0110
0101
0110
,
1001
0000
0100
0010
0001
0000
1001
0000
,
0010
0000
0000
0100
0000
0000
0001
0000
0000
0000
0000
0000
1000
0000
0001
0000
1000
0000
0001
0000
1000
0000
0001
0000
,
2000
0002
0000
0000
0000
0000
3003
0000
0000
0000
0000
0000
;

//--------------- dance-single - ----------------
#NOTES:
     dance-single:
     :
     Challenge:
     13:
     0,0,0,0,0:
0000
0000
0000
0000
,
0000
0000
0000
0000
,
0002
0003
0000
0000
0000
0000
0020
0030
,
0200
0300
0000
0000
0000
0000
0000
0000
,
2000
0000
0000
0000
3100
0000
0010
0000
0002
0000
0000
0000
0103
0000
0010
0000
1000
0000
0000
1000
0000
0000
1000
0000
0002
0000
0000
0000
0013
0000
0100
0000
,
2000
0000
0000
0000
3010
0000
0100
0000
0002
0000
0000
0000
0013
0000
0010
0000
0001
0000
0000
0001
0000
0000
0001
0000
2000
0000
0000
0000
3100
0000
0010
0000
,
0200
0000
0000
0000
1300
0000
0010
0000
0200
0000
0000
0000
0310
0000
1000
0000
0100
0000
0000
0100
0000
0000
0100
0000
0002
0000
0000
0000
0013
0000
0100
0000
,
0020
0000
0000
0000
0031
0000
0100
0000
0020
0000
0000
0000
0130
0000
0001
0000
0010
0000
0000
0010
0000
0000
0010
0000
0100
0000
0000
0100
0000
0000
0100
0000
,
1000
0100
0010
0001
,
1000
0010
0100
0001
,
1000
0100
0001
0100
,
1000
0010
0001
0010
,
1000
0100
0010
0001
,
0100
0100
0100
0100
,
1000
0010
0100
0001
,
0010
0010
0010
0010
,
1000
0100
0010
0001
,
1000
0010
0100
0001
,
1000
0100
0010
0100
,
1000
0010
0100
0010
,
1000
0100
0010
0001
,
1000
0010
0100
0010
,
1000
0100
0010
0100
,
1000
0000
0000
0001
0000
0000
1000
0100
0010
0001
0010
0100
,
1000
0100
0010
0001
,
0100
0010
1000
0100
,
0001
0010
0100
1000
,
0010
0100
0001
0010
,
1000
0010
0100
0001
,
0010
0100
1000
0010
,
0001
0100
0010
1000
,
0100
0010
0001
0100
,
1000
0100
0010
0100
,
1000
0010
0100
0010
,
1000
0100
0010
0001
,
0100
0010
1000
0100
,
0001
0010
0100
0010
,
0001
0100
0010
0100
,
0001
0010
0100
1000
,
0010
0100
0001
0010
,
1000
0000
0100
1000
1100
0000
0100
0000
,
0010
0011
0001
0101
,
0100
0000
0010
1000
1010
0000
1000
0000
,
0100
0110
2002
3003
,
0001
0000
0010
0100
1010
0000
0100
0000
,
0010
0011
1010
0110
,
0101
1100
1010
0011
,
1001
0110
1001
0110
,
1001
0000
0100
0010
1001
0000
0001
0000
,
0010
1010
1000
0011
,
0001
0010
0100
0010
,
1000
1100
0110
1010
,
1000
0100
0101
0001
,
0010
1100
1000
0101
,
0001
0110
0110
1000
,
0011
1010
1100
0101
,
1001
0000
0100
0001
0010
0000
0100
0000
,
1000
0100
1000
0100
0010
0001
0010
0001
,
1000
0000
0100
0010
0001
0000
0010
0000
,
1010
1100
0101
0011
,
1001
0000
1000
0100
0001
0000
0010
0000
,
1000
0100
0010
0100
1000
0010
0100
0010
,
1000
0000
0100
0001
0010
0000
0100
0000
,
1000
0100
0010
0100
0010
0001
0100
0010
,
1000
0000
0001
0010
1000
0000
0100
0000
,
0001
0110
1000
0110
,
0001
0000
0010
1000
0100
0000
0001
0000
,
0011
1010
1100
0101
,
1001
0000
0100
0001
1000
0000
0010
0000
,
1000
0100
0010
0001
,
0100
0000
0010
0001
1000
0000
0100
0000
,
0001
0010
0001
0010
1000
0100
0001
0100
,
2000
0000
0000
3100
0010
0001
0020
0000
0000
0130
1000
0100
,
0002
0000
0000
0103
0001
0100
0020
0000
0000
1030
0100
0010
,
0001
0010
1000
0010
0001
0100
1000
0001
,
1000
0100
0010
1000
0010
0001
1000
0010
0100
0001
0010
0100
,
1000
0100
0010
0100
1000
0010
0100
0001
,
1000
0000
0000
0100
0000
0000
0010
0000
0000
0001
0000
0000
1000
0000
0100
0000
0010
0000
0100
0000
1000
0000
0010
0000
,
0100
0001
0010
1000
,
0100
0010
0001
0000
0001
0010
1000
0010
,
0002
0000
0003
0000
1000
0100
0010
0000
,
0002
0013
2000
3010
,
0200
0000
0300
0100
0010
0001
0200
0000
,
0310
0001
0010
0100
,
1000
0100
0001
0100
1000
0100
0010
1000
,
0010
0100
0010
1000
0010
0100
1000
0001
,
1000
0000
0100
0000
0010
0001
0100
0010
,
1000
0100
0001
0100
1000
0010
0100
0001
,
1001
0000
1000
0010
0011
0000
0110
0000
,
1010
1001
0110
0101
,
0010
0000
0001
0100
1100
0000
0110
0000
,
0101
1001
0110
1010
,
0110
0000
1000
0100
0101
0000
0110
0000
,
1100
1001
0110
0011
,
0110
0000
0001
0010
1010
0000
0110
0000
,
0001
0100
1000
0000
1000
0010
0001
0100
,
1000
0000
0001
0010
1010
0000
0110
0000
,
0011
1001
0110
1100
,
0110
0000
0020
1000
0001
0000
0130
0000
,
1010
0011
0101
1100
,
1001
0000
0100
0001
1000
0000
0010
0000
,
1100
0101
0011
1010
,
0110
0000
0010
1000
0001
0000
0100
0000
,
1000
0010
0001
0000
1000
0100
0001
0010
,
1000
0000
0100
0010
0011
0000
0010
0100
,
1100
0110
0101
1001
,
0001
0000
0100
0010
1010
0000
0010
0100
,
0101
0110
1100
1001
,
0100
0000
0010
0001
1010
0000
0100
1000
,
0101
1100
0101
1100
,
0010
0000
0100
0001
1100
0000
0010
1000
,
0011
0000
1010
0000
1000
0100
0001
0010
,
1000
0000
0100
0010
0001
0000
0010
0000
,
0100
1001
0010
1001
,
0110
0000
0010
0100
1000
0000
0010
0000
,
0100
1001
0110
1001
,
0110
0000
1000
0100
0010
0000
0001
0000
,
0010
0100
1000
0001
,
0110
0000
1000
0100
0010
0000
0001
0000
,
0100
0000
0000
0010
0000
0000
1000
0000
0000
0000
0000
0000
1000
0000
0100
0000
0010
0000
0001
0000
0010
0000
0100
0000
,
2000
0002
0000
0000
0000
0000
3003
0000
0000
0000
0000
0000
;
