#VERSION:0.83;
#TITLE:ALL SYSTEMS GO;
#SUBTITLE:;
#ARTIST:Kurwastyle Project;
#TITLETRANSLIT:;
#SUBTITLETRANSLIT:;
#ARTISTTRANSLIT:;
#GENRE:;
#CREDIT:;
#MUSIC:ALL SYSTEMS GO.ogg;
#BANNER:ALL SYSTEMS GO-bn.png;
#BACKGROUND:ALL SYSTEMS GO-bg.png;
#CDTITLE:;
#SAMPLESTART:4.510;
#SAMPLELENGTH:12.600;
#SELECTABLE:YES;
#OFFSET:-0.310;
#BPMS:0.000=228.563
,235.000=114.281
,236.000=228.563
,534.000=57.141
;
#STOPS:224.000=0.790;
#DISPLAYBPM:*;
#BGCHANGES:;
#FGCHANGES:;

//--------------- dance-single - ----------------
#NOTEDATA:;
#STEPSTYPE:dance-single;
#DESCRIPTION:;
#DIFFICULTY:Beginner;
#METER:10;
#RADARVALUES:0,0,0,0,0;
#NOTES:
0000
0000
0000
0000
,
0000
0000
0000
0000
,
0000
0000
0000
0000
,
0000
0000
0000
0000
,
1000
0100
0010
0001
,
1000
0010
0100
0001
,
1000
0100
0010
0100
,
1000
0010
0100
0010
,
1000
0000
1000
0000
,
0100
0000
0100
0000
,
0010
0000
0010
0000
,
0001
0000
0001
0000
,
1000
0000
0100
0000
,
0010
0000
0001
0000
,
1000
0010
0100
0001
,
0010
0100
1000
0001
,
1000
0100
0010
0001
,
1000
0010
0100
0001
,
1000
0100
0010
0100
,
1000
0010
0100
0010
,
1000
0100
0010
0001
,
1000
0010
0100
0001
,
1000
0100
0010
0100
,
1000
0010
0100
0010
,
1000
1000
1000
1000
,
0100
0100
0100
0100
,
0010
0010
0010
0010
,
0001
0001
0001
0001
,
1000
0010
0100
0001
,
1000
0100
0010
0001
,
1000
1000
0100
0100
,
0010
0010
0001
0001
,
1000
0010
0100
0010
,
1000
0100
0010
0001
,
1000
1000
0010
0010
,
0100
0100
0001
0001
,
1000
0100
0010
0100
,
1000
0010
0100
0001
,
1000
1000
0100
0100
,
0010
0000
0010
0000
0001
0000
0002
0003
,
1000
0000
1000
0000
1000
0000
2000
3000
,
0100
0000
0100
0000
0100
0000
0200
0300
,
0010
0000
0010
0000
0010
0000
0020
0030
,
0001
0000
0001
0000
0001
0000
0002
0003
,
1001
0000
1001
0000
,
1001
0000
1001
0000
,
1001
0000
1001
0000
,
1001
0000
1001
0000
,
1000
0100
1000
0100
,
0010
0001
0010
0001
,
1000
0010
1000
0010
,
0100
0001
0100
0001
,
1000
0100
0010
0001
,
1000
0010
0100
0001
,
1000
0100
0010
0001
,
1000
0010
0100
0001
,
0220
0330
1100
0000
1010
0000
0110
0000
,
0101
1000
0100
0010
,
0001
0000
0100
0000
0010
0000
2002
3003
,
1000
0100
0010
0100
1000
0010
0100
0001
,
0010
0100
0010
0100
1000
0010
0100
0001
,
1000
0010
0100
0010
1000
0100
0010
0001
,
0100
0010
0100
0010
1000
0100
0010
0001
,
1000
0100
0010
0100
1000
0100
0010
0001
,
0010
0000
0100
0000
0010
0000
0100
0000
1000
0000
0100
0000
0010
0001
0010
0001
,
1000
0010
0100
0010
1000
0010
0100
0001
,
0100
0010
0100
0010
1000
0010
0100
0001
,
1000
0100
1000
0100
0010
0001
0010
0001
,
1000
0010
1000
0010
0100
0001
0100
0001
,
0010
0100
0010
0100
1000
0001
1000
0001
,
0100
0010
0100
0010
1000
0001
1000
0001
,
1000
0100
1000
0010
0100
0001
0010
0001
,
1000
0100
1000
0010
0100
0001
0010
0001
,
1000
0010
1000
0100
0010
0001
0100
0001
,
1000
0010
1000
0100
0010
0001
0100
0001
,
1000
1000
0100
0100
,
0010
0010
0001
0001
,
1000
1000
0010
0010
,
0100
0000
0100
0000
0001
1000
0001
1000
,
1001
0000
0000
0000
,
0000
0000
0000
0000
,
1100
1000
1000
1000
,
1010
0010
0010
0010
,
0110
0100
0100
0100
,
0101
0001
0001
0001
,
0011
0010
0010
0010
,
0110
0100
0100
0100
,
1100
1000
1000
1000
,
1001
0001
0001
0001
,
0220
0000
0000
0000
0000
0330
0000
0000
,
1001
0000
0000
0000
,
0000
0000
0000
0000
,
1000
0100
0010
0001
,
1000
0010
0100
0001
,
1000
0100
0001
0100
,
1000
0010
0001
0010
,
1000
0100
0010
0001
,
0100
0010
1000
0100
,
0010
0001
0100
0010
,
1000
0100
0010
0001
,
0220
0000
0000
0000
0000
0330
0000
0000
,
1001
0000
0000
0000
,
1000
0000
0100
0000
0010
0000
0100
0000
1000
0000
0100
0000
,
0010
0000
0001
0000
0010
0000
0001
0000
0010
0000
0100
0000
,
1000
0000
0010
0000
,
0100
0000
0001
0000
,
1000
0000
0010
0000
0100
0000
0010
0000
1000
0000
0010
0000
,
0100
0000
0001
0000
0100
0000
0001
0000
0100
0000
0010
0000
,
1000
0000
0001
0000
,
0100
0000
0010
0000
,
1000
0100
1000
0010
0100
0001
0010
0001
,
1000
0010
1000
0100
0010
0001
0100
0001
,
1000
0100
0001
0100
,
1000
0010
0001
0010
,
1000
0010
1000
0100
0010
0001
0100
0001
,
1000
0100
1000
0010
0100
0001
0010
0001
,
1000
0010
0001
0010
,
1000
0100
0001
0100
,
1000
0000
0000
0000
,
0000
0000
0000
0000
,
0000
0000
0000
0000
,
0000
0000
0000
0000
,
1010
0000
0000
0000
,
0011
0000
0000
0000
,
0101
1100
0000
0000
,
MMMM
0000
0000
0000
,
1000
0100
1000
0000
0100
0000
0000
0000
0001
0100
0001
0000
0100
0000
0000
0000
,
1000
0010
1000
0000
0010
0000
0000
0000
0001
0100
0001
0000
0100
0000
0000
0000
,
1000
0100
1000
0000
0001
0100
0001
0000
1000
0010
1000
0000
0001
0010
0001
0000
,
1000
0100
1000
0000
0100
0010
0100
0000
0010
0001
0010
0000
0001
1000
0001
0000
,
1000
1000
0000
0000
,
0000
0000
0000
0000
,
0000
0000
0000
0000
,
0000
0000
MMMM
0000
;

//--------------- dance-single - ----------------
#NOTEDATA:;
#STEPSTYPE:dance-single;
#DESCRIPTION:;
#DIFFICULTY:Easy;
#METER:15;
#RADARVALUES:0,0,0,0,0;
#NOTES:
0000
0000
0000
0000
,
0000
0000
0000
0000
,
0000
0000
0000
0000
,
0000
0000
0000
0000
,
1000
0100
1000
0010
0100
0001
0010
0001
,
1000
0010
1000
0100
0010
0001
0100
0001
,
0010
0001
0010
0001
0100
0010
1000
0100
,
0010
0001
0100
0001
0010
0100
1000
0010
,
1000
0100
0010
0001
,
1000
0010
0100
0001
,
1000
0100
0010
0100
,
1000
0010
0100
0010
,
1000
0010
0100
0001
,
1000
0100
0010
0001
,
1000
0010
0100
0010
,
1000
0100
0010
0100
,
1000
0100
0010
0001
,
1000
0010
0100
0001
,
1000
0100
1000
0010
0100
0010
1000
0100
,
1000
0010
1000
0100
0010
0100
1000
0010
,
1000
0010
0001
0010
,
1000
0100
0001
0100
,
1000
0010
1000
0100
0010
0100
1000
0010
,
1000
0100
1000
0010
0100
0010
1000
0100
,
1000
1000
0100
0100
0010
0010
0001
0001
,
1000
1000
0010
0010
0100
0100
0001
0001
,
1000
1000
0100
0100
0001
0001
0100
0100
,
1000
1000
0010
0010
0001
0001
0010
0010
,
1000
0100
1000
0000
0100
0000
0010
0000
0001
0000
0100
0000
0010
0000
1000
0000
,
0001
0010
0001
0000
0010
0000
0100
0000
1000
0010
0100
0001
0010
0000
0100
0000
,
1000
1000
0100
0100
0010
0010
0001
0001
,
0100
0000
0100
0000
0010
0000
0010
0000
1000
0000
1000
0000
0001
0010
0100
1000
,
0001
0010
0100
0010
1000
0010
0100
0010
,
1000
0100
0010
0100
0001
0100
0010
0100
,
1000
0100
0010
0001
0100
0010
1000
0001
,
1000
0010
0100
0001
0010
0100
1000
0000
,
1000
0100
1000
0100
1000
0000
0010
0000
0100
0000
0001
0000
0010
0000
0100
0000
,
1000
0010
1000
0010
1000
0000
0100
0000
0010
0000
0001
0000
0100
0010
1000
0001
,
1000
0100
0010
0100
1000
0100
0010
0001
,
0010
0100
0010
0100
1000
0100
0020
0030
,
0001
0010
0100
1000
0001
0010
0200
0300
,
1000
0010
0100
0001
0010
0100
2000
3000
,
0001
0100
0010
1000
0100
0010
0002
0003
,
1000
0010
0100
0001
1000
0010
0200
0300
,
2000
0100
3010
0001
2000
0100
3010
0001
,
2000
0100
3010
0001
2000
0100
3010
0001
,
2000
0100
3010
0001
2000
0100
3010
0001
,
2000
0100
3010
0001
2000
0100
3010
0001
,
1000
0100
1000
0000
0100
0000
0001
0000
0000
0000
0010
0000
0100
0000
0010
0000
,
1000
0100
1000
0010
0100
0001
0010
0001
,
1000
0100
1000
0010
0100
0000
0001
0000
0010
0000
0100
0000
1000
0000
0001
0000
,
1000
0100
1000
0001
0100
0001
0010
0100
,
1000
0010
1000
0100
0010
0000
0001
0000
0100
0000
0010
0000
1000
0000
0001
0000
,
1000
0010
1000
0001
0010
0001
0100
0010
,
1000
0100
0010
0001
1000
0000
0010
0000
0100
0000
0001
0000
0010
0000
0100
0000
,
1000
1000
0100
0100
0010
0010
0001
0001
,
0220
0330
1100
0000
1010
0000
0110
0000
,
0101
0011
0101
0110
,
1010
0000
1100
0000
0110
0000
2002
3003
,
1000
0100
1000
0100
0010
0001
0010
0001
1000
0010
1000
0010
0100
0001
0100
0001
,
1000
0100
0010
0100
1000
0010
0100
0001
0010
0100
0010
0100
1000
0010
0100
0001
,
1000
0010
1000
0010
0100
0001
0100
0001
1000
0100
1000
0100
0010
0001
0010
0001
,
1000
0010
0100
0010
1000
0100
0010
0001
0100
0010
0100
0010
1000
0100
0010
0001
,
1000
0100
1000
0100
1000
0010
1000
0010
0100
0001
0100
0001
0010
0001
0010
0001
,
1000
0100
0010
0100
1000
0100
0010
0001
0010
0100
0010
0100
1000
0100
0010
0001
,
1000
0010
1000
0010
1000
0100
1000
0100
0010
0001
0010
0001
0100
0001
0100
0001
,
1000
0010
0100
0010
1000
0010
0100
0001
0100
0010
0100
0010
1000
0010
0100
0001
,
1000
0100
1000
0100
0010
0001
0010
0001
1000
0010
1000
0010
0100
0001
0100
0001
,
1000
0100
1000
0100
0010
0001
0010
0001
1000
0010
1000
0010
0100
0001
0100
0001
,
0010
0100
0010
0100
1000
0001
1000
0001
0100
0010
0100
0010
1000
0001
1000
0001
,
0010
0100
1000
0001
,
1000
0100
1000
0010
0100
0001
0010
0001
,
1000
0100
1000
0010
0100
0001
0010
0001
,
1000
0010
1000
0010
1000
0010
1000
0010
1000
0010
1000
0010
1000
0010
1000
0010
,
1000
0100
0010
0001
1000
0100
0010
0001
1000
0000
0000
0000
0001
0000
0000
0000
,
1000
0010
1000
0100
0010
0001
0100
0001
,
1000
0010
1000
0100
0010
0001
0100
0001
,
1000
0100
1000
0100
0010
0001
0010
0001
,
1000
0000
0010
0000
1000
0000
0010
0000
0100
0001
0100
0001
0100
0001
0100
0001
,
1000
0000
0000
0000
,
MMMM
0000
0000
0000
,
1100
1100
1100
1100
,
1010
1010
1010
1010
,
0011
0011
0011
0011
,
0101
0101
0101
0101
,
0110
0110
0110
0110
,
1001
1001
1001
1001
,
1100
1010
0110
0101
,
0011
0101
0110
1010
,
1001
0000
0000
0000
1000
0000
0100
0000
1000
0000
0010
0000
0100
0001
0010
0001
,
1000
0000
0000
0000
,
0000
0000
0000
0000
,
1100
1100
0101
0101
,
0011
0011
1010
1010
,
0110
0110
1001
1001
,
1100
0101
0011
1010
,
1000
0100
0010
0001
,
1000
0010
0100
0001
,
1000
0100
0010
0100
,
1000
0010
0100
0010
,
1000
0100
1000
0010
0100
0001
0010
0001
,
1001
0000
0000
0000
,
1000
0000
0100
0000
0010
0000
0001
0000
0010
0000
0100
0000
,
1000
0000
0010
0000
0100
0000
0001
0000
0100
0000
0000
0000
,
0010
0000
2002
3003
,
0000
0000
2002
3003
,
0001
0000
0100
0000
0010
0000
1000
0000
0010
0000
0100
0000
,
0001
0000
0010
0000
0100
0000
1000
0000
0100
0000
0000
0000
,
0010
0000
2002
3003
,
0000
0000
2002
3003
,
1000
0100
1000
0010
0100
0001
0010
0001
,
1000
0010
1000
0100
0010
0001
0100
0001
,
1000
1000
0100
0100
0010
0010
0001
0001
,
0100
0100
0010
0010
1000
1000
0001
0001
,
1000
0100
1000
0000
0001
0100
0001
0000
1000
0010
1000
0000
0001
0010
0001
0000
,
1000
0100
0010
0000
0001
0100
0010
0000
1000
0010
0100
0000
0001
0010
0100
0000
,
1000
0100
0010
0001
1000
0010
0100
0001
,
1000
0000
0100
0000
0010
0001
0010
0001
1000
0000
0010
0000
0100
0001
0100
0001
,
1000
0000
0000
0000
,
0000
0000
0000
0000
,
1001
0000
0000
0000
,
0110
0000
0000
0000
,
1100
0000
0100
0000
,
0110
0000
0010
0000
,
0011
0011
0001
0000
,
MMMM
0000
0000
0000
,
1000
0100
1000
0100
1000
0000
0000
0000
0001
0100
0001
0100
0001
0000
0000
0000
,
1000
0010
1000
0010
1000
0000
0000
0000
0001
0010
0001
0010
0001
0000
0000
0000
,
1000
0100
1000
0100
1000
0010
1000
0010
0100
0010
0100
0010
0100
0001
0100
0000
,
0001
0010
0001
0010
0001
0100
0001
0100
0010
0100
0010
0100
0010
1000
0010
0000
,
1000
1000
0000
0000
,
0000
0000
0000
0000
,
0000
0000
0000
0000
,
0000
0000
MMMM
0000
;

//--------------- dance-single - ----------------
#NOTEDATA:;
#STEPSTYPE:dance-single;
#DESCRIPTION:;
#DIFFICULTY:Medium;
#METER:16;
#RADARVALUES:0,0,0,0,0;
#NOTES:
1000
0100
0000
0100
0001
0000
0000
0000
1000
0010
0000
0010
0001
0000
0000
0000
,
0000
0000
0220
0330
,
0000
0000
0220
0330
,
0000
0000
0000
0000
,
1000
0100
0000
0010
0001
0000
0010
0000
0100
0010
1000
0100
1000
0010
1000
0010
,
0100
0000
0100
0000
0100
0000
0100
0000
1000
0010
0100
0001
0010
0100
1000
0000
,
1000
0000
0000
0000
0001
0000
0010
0000
0001
0000
0000
0000
0100
0000
0000
0000
0010
0100
0000
0000
0010
0100
0000
0000
0010
0100
0000
0000
0010
0100
0000
0000
,
1000
0000
0010
0000
0100
0001
1000
0000
0010
0100
0010
0100
0010
0001
0100
0010
,
1000
0100
0010
0100
1000
0010
0100
0010
,
1000
0000
0100
0000
0010
0000
0001
0000
0100
0010
0100
0000
1000
0000
0001
0000
,
1000
0100
1000
0010
0100
0001
0010
0001
1000
0010
1000
0010
0100
0000
0000
0000
,
1000
0010
1000
0100
0010
0001
0100
0001
1000
0100
1000
0100
0010
0000
0000
0000
,
1000
0100
0010
0000
0100
0010
1000
0000
,
0001
0000
0010
0000
0010
0000
0000
0000
1000
0100
1000
0100
0010
0001
0010
0001
,
0100
0010
0010
0001
0100
0100
1000
0001
,
0100
0010
1000
0001
0010
0000
0100
0000
0110
0000
0010
0000
0100
0001
1000
0100
,
1000
0010
0000
0100
0001
0010
0001
0100
0001
0010
0000
0100
1000
0010
0100
0001
,
1000
0100
0000
0010
0001
0100
0001
0010
0001
0100
0000
0010
1000
0001
1000
0001
,
1000
0001
0100
0100
0001
1000
0010
0010
,
1000
0000
0001
0000
0010
0000
1000
0000
0010
0100
0010
0000
1000
0000
0001
0000
,
1000
0100
0000
0100
0001
0010
0001
0100
0001
0010
0000
0010
1000
0100
0010
0001
,
1000
0010
0000
0010
0001
0100
0001
0010
0001
0010
0000
0100
1000
0010
0100
0001
,
1000
0000
0100
0010
0100
0000
0001
0000
0010
0100
0010
0000
1000
0100
1000
0000
,
1000
0100
1000
0100
0010
0001
0010
0001
1000
0010
1000
0010
0100
0001
0100
0001
,
1000
0100
0001
0100
1000
0010
0001
0010
,
1000
0100
0001
0100
1000
0010
0001
0010
,
1000
1000
0100
0100
0010
0010
0001
0001
,
0100
0100
0010
0010
1000
1000
0001
0001
,
1000
0100
1000
0010
0100
0001
0010
0001
0100
0010
1000
0100
1000
0010
0100
0001
,
1000
0010
1000
0100
0010
0001
0100
0001
0010
0100
1000
0010
1000
0100
0010
0001
,
1000
1000
0100
0100
0010
0010
0001
0001
,
0100
0000
0100
0000
0010
0000
0010
0000
1000
0000
1000
0000
0001
1000
0001
1000
,
0001
0001
0001
0001
0010
0010
0010
0010
,
0100
0100
0100
0100
1000
1000
1000
1000
,
0001
0010
0100
1000
0001
0100
0010
1000
,
0001
0010
0100
1000
0001
0000
0100
0000
0110
0000
0010
0000
0100
0000
1000
0000
,
0001
0100
0001
0010
0100
1000
0010
1000
0100
0010
0001
0100
0001
0010
0100
1000
,
0001
0010
0001
0100
0010
1000
0100
1000
0010
0100
0001
0010
0001
0100
0010
1000
,
0001
0100
0010
1000
0001
0010
0100
1000
,
0001
0000
0100
0000
0010
0000
1000
0100
0010
0000
0001
0000
2000
0000
3000
0000
,
0001
0010
0100
1000
0010
0100
0002
0003
,
0010
0100
1000
0010
0100
0001
0020
0030
,
0100
1000
0010
0100
0001
0010
0200
0300
,
1000
0100
0010
0001
0100
0010
2000
3000
,
0001
0010
0100
1000
0001
0010
0100
1000
,
0001
0010
0100
1000
0001
0010
0100
1000
,
0001
0010
0100
1000
0001
0010
0100
1000
,
0001
0010
0100
1000
0001
0010
0100
1000
,
1000
0100
1000
0010
0100
0000
0002
0000
0003
0000
0001
0010
0001
0000
0100
0000
,
1000
0100
1000
0010
0100
0001
0010
0001
1000
0010
1000
0100
0010
0001
0100
0001
,
1000
0100
0010
0100
1000
0000
0010
0000
0100
0001
0100
0000
0001
0000
0010
0000
,
1000
0100
0010
0001
0100
0010
1000
0100
1000
0010
0100
0001
0010
0000
0100
0000
,
1000
0010
1000
0100
0010
0000
0001
0000
0100
0000
0010
1000
0100
0000
0010
0000
,
1000
0100
1000
0100
1000
0100
0010
0100
1000
0100
1000
0100
1000
0010
0100
0001
,
1000
0100
0010
0100
1000
0000
0100
0000
0010
0001
0100
0010
1000
0100
0010
0001
,
1000
0100
1000
0100
0010
0001
0010
0001
1000
0010
0100
0001
0010
0100
1000
0010
,
0220
0330
1001
0000
0110
0000
0011
0000
,
0110
0000
0000
0000
1000
0000
0100
0000
0010
0001
0100
0010
1000
0100
1000
0100
,
0010
0001
0010
0001
1000
0010
1000
0010
0100
0001
0100
0001
2000
0000
0000
3000
,
1000
0100
1000
0010
0100
0001
0010
0100
0010
0001
0100
0010
1000
0100
1000
0001
,
1000
0010
1000
0100
0010
0001
0100
0010
0100
0001
0010
0100
1000
0010
1000
0001
,
1000
0100
1000
0010
0100
0001
0010
0100
1000
0100
0010
0001
0100
0010
1000
0100
,
1000
0010
1000
0100
0010
0001
0100
0001
1000
0100
0010
0001
1000
0010
0100
0010
,
1000
0100
1000
0010
0100
0001
0010
0001
1000
0100
1000
0010
0100
0001
0010
0001
,
1000
0000
0000
0100
0000
0000
0010
0000
0000
0100
0000
0000
1000
0000
0000
0010
0000
0000
0100
0000
0000
0001
0000
0000
0010
0000
0000
0000
0000
0000
0100
0000
0000
0000
0000
0000
1000
0000
0001
0000
1000
0000
0001
0000
1000
0000
0001
0000
,
1000
0100
1000
0010
0100
0010
1000
0100
1000
0010
1000
0100
0010
0100
1000
0100
,
1000
0010
0100
0001
0010
0100
1000
0001
1000
0100
0010
0100
1000
0000
0001
0000
,
1000
0100
1000
0100
0010
0001
0010
0001
1000
0010
1000
0010
0100
0001
0100
0001
,
1000
0100
1000
0100
0010
0001
0010
0001
1000
0010
1000
0010
0100
0001
0100
0001
,
1000
0100
0010
0001
1000
0100
0010
0001
1000
0010
0100
0001
1000
0010
0100
0001
,
1000
0100
0010
0001
0100
0010
1000
0001
,
1000
0100
1000
0001
0100
0010
1000
0100
0010
0001
0010
0100
1000
0010
0100
0001
,
1000
0010
1000
0001
0010
0100
1000
0010
0100
0001
0100
0010
1000
0100
0010
0001
,
1000
0001
0100
0010
1000
0100
0010
0001
0100
0001
0010
0100
1000
0010
0100
0001
,
1000
0100
0010
0100
1000
0100
0010
0001
1000
0000
0000
0000
0100
0010
0100
0010
,
1000
1000
0100
0100
0010
0010
0001
0001
,
1000
1000
0010
0010
0100
0100
0001
0001
,
1000
0100
0010
0001
1000
0010
0100
0001
,
1000
0000
0100
0000
0010
0000
0001
0000
1000
0010
0100
0001
1000
0100
0010
0001
,
1000
0000
1000
0000
,
1000
0000
1000
0000
,
1100
1010
0110
0101
,
0011
0000
0101
0000
0110
0000
1010
0100
,
1000
0100
1000
0000
0001
0100
0001
0000
1000
0010
1000
0000
0001
0010
0001
0000
,
1000
0100
0010
0001
0100
0100
0010
0010
,
1000
0000
0100
0000
0010
0000
0001
0000
1000
0010
0100
0001
0010
0000
0100
0000
,
1000
0010
0100
0000
0010
0000
0100
0000
0001
0010
0100
0000
1000
0000
0001
0000
,
1000
1000
0100
0100
0010
0010
0001
0001
,
1000
0100
0010
0001
0100
0010
1000
0100
0010
0001
0100
0010
1000
0000
0001
0000
,
2000
0000
0000
0000
0010
0000
0000
0000
0010
0000
0000
0000
0010
0000
0000
3000
1000
0000
0000
0000
0001
0000
0000
0000
0100
0000
0010
0000
0100
0000
0010
0000
,
1000
0000
1000
0000
,
1000
0000
1000
0000
,
1000
1000
0100
0100
0001
0001
0100
0100
,
1000
0000
1000
0000
0010
0000
0010
0000
0001
0000
0001
0000
0010
0000
0010
0100
,
1000
1000
0100
0100
0010
0010
0001
0001
,
1001
0110
1001
0110
,
1000
0000
0100
0000
0010
0000
0001
0000
0100
0010
0100
0000
0010
0000
1000
0000
,
0100
0010
0100
0010
1000
0100
0010
0001
1000
0000
0001
0000
0100
0010
0100
0010
,
1000
0100
1000
0010
0100
0001
0010
0001
1000
0000
0010
0000
0100
0000
0001
0000
,
1000
0100
0010
0100
1000
0010
0100
0001
,
1000
0100
1000
0100
0010
0001
0010
0001
1000
0010
1000
0010
0100
0001
0100
0001
,
1001
0000
0000
0000
0000
0000
0000
0000
0000
0000
0000
0000
0100
0010
0100
0010
,
1000
0000
0100
0000
0010
0000
0001
0000
0010
0000
0100
0000
,
1000
0000
0010
0000
0100
0000
0001
0000
0100
0000
0010
0000
,
1000
0000
0100
0010
0100
0000
0010
0100
,
0010
0000
0000
0000
1000
0000
0001
0000
1000
0001
1000
0001
1000
0000
0010
0000
,
1000
0000
1000
0000
1000
0000
0100
0000
0100
0000
0100
0000
,
0010
0000
0010
0000
0010
0000
0001
0000
0001
0000
0001
0000
,
1000
0000
0100
0010
0001
0000
1000
0010
,
0100
0000
0001
0010
0100
0000
1000
0001
,
1000
0100
1000
0010
0100
0001
0010
0001
1000
0100
1000
0010
0100
0001
0010
0001
,
0010
0001
0010
0001
0100
0010
1000
0100
0010
0001
0010
0001
0100
0010
1000
0100
,
1000
0100
0010
0001
0100
0010
1000
0001
,
1000
0000
0100
0000
0010
0000
0001
0000
0100
0000
0010
0000
1000
0000
1000
0001
,
1000
0010
1000
0100
0010
0001
0100
0001
1000
0010
1000
0100
0010
0001
0100
0001
,
0100
0001
0100
0001
0010
0100
1000
0010
0100
0001
0100
0001
0010
0100
1000
0010
,
1000
0010
0100
0001
0010
0100
1000
0001
,
1000
0000
0010
0000
0100
0001
0100
0001
0100
0000
0010
0000
1000
0001
1000
0001
,
1000
0000
1000
0000
,
1000
0000
1000
0000
,
1000
0100
0010
0001
,
1000
0100
0000
0000
0100
0010
0000
0000
0010
0001
0000
0000
0001
0010
0100
0010
,
1100
0000
0000
0010
0110
0000
0000
0000
,
0011
0000
0000
0010
0110
0000
0000
0100
,
1100
0000
1010
0000
,
MMMM
0000
0000
0000
,
1000
0100
1000
0100
1000
0000
0000
0000
0001
0100
0001
0100
0001
0000
0000
0000
,
1000
0010
1000
0010
1000
0000
0000
0000
0001
0010
0001
0010
0001
0000
0000
0000
,
1000
0100
1000
0100
0010
0001
0010
0001
0100
0010
0100
0010
1000
0001
1000
0000
,
1000
0010
1000
0010
0100
0001
0100
0001
0010
0100
0010
0100
1000
0001
1000
0000
,
1000
1000
0000
0000
,
0000
0000
0000
0000
,
0000
0000
0000
0000
,
0000
0000
MMMM
0000
;

//--------------- dance-single - ----------------
#NOTEDATA:;
#STEPSTYPE:dance-single;
#DESCRIPTION:;
#DIFFICULTY:Hard;
#METER:18;
#RADARVALUES:0,0,0,0,0;
#OFFSET:-0.310;
#BPMS:0.000=228.563
,235.000=114.281
,236.000=457.126
,332.000=228.563
,582.000=57.141
;
#STOPS:224.000=0.790;
#NOTES:
1000
0100
0000
0100
0001
0000
0000
0000
1000
0010
0000
0010
0001
0000
0000
0000
,
0000
0000
0220
0330
,
0000
0000
0220
0330
,
0000
0000
0000
0000
,
1000
0100
0000
0010
0001
0000
0010
0000
0100
0010
1000
0100
1000
0010
1000
0010
,
0100
0000
0100
0000
0100
0000
0100
0000
1000
0010
0100
0001
0010
0100
1000
0000
,
1000
0000
0000
0000
0001
0000
0010
0000
0001
0000
0000
0000
0100
0000
0000
0000
0010
0100
0000
0000
0010
0100
0000
0000
0010
0100
0000
0000
0010
0100
0000
0000
,
1000
0000
0010
0000
0100
0001
1000
0000
0010
0100
0010
0100
0010
0001
0100
0010
,
1000
0100
0010
0100
1000
0010
0100
0010
,
1000
0000
0000
0100
0000
0000
0010
0000
0000
0001
0000
0000
0100
0010
0100
0010
0000
0000
1000
0000
0000
0001
0000
0000
,
1000
0100
1000
0010
0100
0001
0010
0001
1000
0010
1000
0010
0100
0000
0000
0000
,
1000
0010
1000
0100
0010
0001
0100
0001
1000
0100
1000
0100
0010
0000
0000
0000
,
1000
0100
0010
0000
0100
0010
1000
0000
,
0001
0000
0010
0000
0010
0000
0000
0000
1000
0100
1000
0100
0010
0001
0010
0001
,
0100
0010
0010
0001
0100
0100
1000
0001
,
0100
0010
1000
0001
0010
0000
0100
0000
0110
0000
0010
0000
0100
0001
1000
0100
,
1000
0010
0000
0100
0001
0010
0001
0100
0001
0010
0000
0100
1000
0010
0100
0001
,
1000
0100
0000
0010
0001
0100
0001
0010
0001
0100
0000
0010
1000
0001
1000
0001
,
1000
0001
0100
0100
0001
1000
0010
0010
,
1000
0000
0000
0001
0000
0000
0010
0000
0000
1000
0000
0000
0010
0100
0010
0100
0000
0000
1000
0000
0000
0001
0000
0000
,
1000
0100
0000
0100
0001
0010
0001
0100
0001
0010
0000
0010
1000
0100
0010
0001
,
1000
0000
0000
0010
0000
0000
0000
0000
0000
0010
0000
0000
0001
0000
0000
0100
0000
0000
0001
0000
0000
0010
0000
0000
0001
0000
0010
0000
0001
0000
0000
0000
1000
0000
0100
0000
1000
0000
0000
0010
0000
0000
0100
0000
0000
0001
0000
0000
,
1000
0000
0100
0010
0100
0000
0001
0000
0010
0100
0010
0000
1000
0100
1000
0000
,
1000
0100
1000
0100
0010
0001
0010
0001
1000
0010
1000
0010
0100
0001
0100
0001
,
1000
0100
0001
0100
1000
0010
0001
0010
,
1000
0100
0001
0100
1000
0010
0001
0010
,
1000
1000
0100
0100
0010
0010
0001
0001
,
0100
0100
0010
0010
1000
1000
0001
0001
,
1000
0100
1000
0010
0100
0001
0010
0001
0100
0010
1000
0100
1000
0010
0100
0001
,
1000
0010
1000
0100
0010
0001
0100
0001
0010
0100
1000
0100
0010
0001
0100
0010
,
1000
1000
0100
0100
0010
0010
0001
0001
,
0100
0000
0000
0000
0000
0000
0000
0000
0000
0000
0000
0000
0000
0000
0000
0000
0000
0000
0000
0000
0000
0000
0000
0000
0100
0000
0000
0000
0000
0000
0000
0000
0000
0000
0000
0000
0000
0000
0000
0000
0000
0000
0000
0000
0000
0000
0000
0000
0010
0000
0000
0000
0000
0000
0000
0000
0000
0000
0000
0000
0000
0000
0000
0000
0000
0000
0000
0000
0000
0000
0000
0000
0010
0000
0000
0000
0000
0000
0000
0000
0000
0000
0000
0000
0000
0000
0000
0000
0000
0000
0000
0000
0000
0000
0000
0000
1000
0000
0000
0000
0000
0000
0000
0000
0000
0000
0000
0000
0000
0000
0000
0000
0000
0000
0000
0000
0000
0000
0000
0000
1000
0000
0000
0000
0000
0000
0000
0000
0000
0000
0000
0000
0000
0000
0000
0000
0000
0000
0000
0000
0000
0000
0000
0000
0001
0000
0000
0000
0000
0000
0000
0000
0000
0000
1000
0000
0000
0000
0000
0000
0000
0000
0000
0001
0000
0000
0000
0000
0000
0000
0000
0000
0000
1000
0000
0000
0000
0000
0000
0000
0000
0000
0001
0000
0000
0000
0000
0000
0000
0000
0000
0000
,
1000
1000
1000
1000
0100
0100
0100
0100
,
0010
0010
0010
0010
0001
0001
0001
0001
,
1000
0100
0010
0001
1000
0010
0100
0001
,
1000
0100
0010
0001
1000
0000
0010
0000
0110
0000
0100
0000
0010
0000
0001
0000
,
1000
0010
1000
0100
0010
0001
0100
0001
0010
0100
1000
0010
1000
0100
0010
0001
,
1000
0100
1000
0010
0100
0001
0010
0001
0100
0010
1000
0100
1000
0010
0100
0001
,
1000
0010
0100
0001
1000
0100
0010
0001
,
1000
0000
0010
0000
0100
0000
0001
0010
0100
0000
1000
0000
0002
0000
0003
0000
,
1000
0100
0010
0001
0100
0010
2000
3000
,
0100
0010
0001
0100
0010
1000
0200
0300
,
0010
0001
0100
0010
1000
0100
0020
0030
,
0001
0010
0100
1000
0010
0100
0002
0003
,
1000
0100
0010
0001
1000
0100
0010
0001
,
1000
0100
0010
0001
1000
0100
0010
0001
,
1000
0100
0010
0001
1000
0100
0010
0001
,
1000
0100
0010
0001
1000
0100
0010
0001
,
1000
0100
1000
0010
0100
0000
0002
0000
0003
0000
0001
0010
0001
0000
0100
0000
,
1000
0100
1000
0010
0100
0001
0010
0001
1000
0010
1000
0100
0010
0001
0100
0001
,
1000
0100
0010
0100
1000
0000
0010
0000
0100
0001
0100
0000
0001
0000
0010
0000
,
1000
0100
0010
0001
0100
0010
1000
0100
1000
0010
0100
0001
0010
0000
0100
0000
,
1000
0010
1000
0100
0010
0000
0001
0000
0100
0000
0010
1000
0100
0000
0010
0000
,
1000
0100
1000
0100
1000
0100
0010
0100
1000
0100
1000
0100
1000
0010
0100
0001
,
1000
0100
0010
0100
1000
0000
0100
0000
0010
0001
0100
0010
1000
0100
0010
0001
,
1000
0100
1000
0100
0010
0001
0010
0001
1000
0010
0100
0001
0010
0100
1000
0010
,
0220
0330
1001
0000
0110
0000
0011
0000
,
0110
0000
0000
0000
0000
0000
0000
0000
0000
0000
0000
0000
1000
0000
0000
0000
0000
0000
0100
0000
0000
0000
0000
0000
0010
0000
0000
0001
0000
0000
1000
0000
0010
0000
0100
0000
0001
0000
0000
0010
0000
0000
0001
0000
0000
0010
0000
0000
,
0100
1000
0100
1000
0001
0100
0001
0100
0010
1000
0010
1000
0002
0000
0000
0003
,
1000
0100
1000
0010
0100
0001
0010
0100
,
0010
0001
0100
0010
1000
0100
1000
0001
,
1000
0010
1000
0100
0010
0001
0100
0010
,
0100
0000
0000
0001
0000
0000
0010
0000
0000
0100
0000
0000
1000
0000
0000
0010
0000
0000
1000
0000
0001
0000
1000
0000
,
0001
0010
0001
0100
0010
1000
0100
0010
,
0001
0010
0100
1000
0010
0100
0001
0010
,
0001
0100
0001
0010
0100
1000
0010
1000
,
0001
0000
0010
0000
0100
0000
1000
0000
0100
0000
0010
0000
0001
0000
0000
0100
0000
0000
0010
0000
0000
0100
0000
0000
,
0001
0010
0001
0100
0010
1000
0100
1000
,
0001
0010
0001
0100
0010
1000
0100
1000
,
0001
0010
0100
0010
0001
0100
0010
1000
,
0100
0000
0000
0000
0010
0000
0000
0000
1000
0001
1000
0001
1000
0001
1000
0001
,
1000
0100
1000
0010
0100
0010
1000
0100
,
1000
0000
0000
0010
0000
0000
1000
0000
0000
0100
0000
0000
0010
0000
0100
0000
0010
0000
0100
0000
1000
0000
0100
0000
,
1000
0010
0100
0001
0010
0100
1000
0001
,
1000
0100
0010
0100
0010
0001
1000
0000
0000
0001
0000
0000
,
1000
0100
1000
0100
0010
0001
0010
0001
,
1000
0010
1000
0010
0100
0001
0100
0001
,
1000
0100
1000
0100
0010
0001
0010
0001
,
1000
0010
1000
0010
0100
0001
0100
0001
,
1000
0100
0010
0001
1000
0100
0010
0001
,
1000
0010
0100
0001
1000
0010
0100
0001
,
1000
0100
0010
0001
,
0100
0010
1000
0001
,
1000
0100
1000
0001
0100
0010
1000
0100
0010
0001
0010
0100
1000
0010
0100
0001
,
1000
0010
1000
0001
0010
0100
1000
0010
0100
0001
0100
0010
1000
0100
0010
0001
,
1000
0001
0100
0010
1000
0100
0010
0001
0100
0001
0010
0100
1000
0010
0100
0001
,
1000
0000
0000
0000
0000
0000
0000
0000
0000
0000
0100
0000
0000
0000
0000
0000
0000
0000
0000
0010
0000
0000
0000
0000
0000
0000
0000
0000
0000
0100
0000
0000
0000
0000
0000
0000
0000
0000
1000
0000
0000
0000
0000
0000
0000
0000
0000
0000
0100
0000
0000
0000
0000
0000
0000
0000
0000
0000
0010
0000
0000
0000
0000
0000
0000
0000
0000
0001
0000
0000
0000
0000
0000
0000
0000
0000
0000
0010
0000
0000
0000
0000
0000
0000
0000
0000
0100
0000
0000
0000
0000
0000
0000
0000
0000
0000
1000
0000
0000
0000
0000
0000
0000
0000
0000
0000
0000
0000
0000
0000
0000
0000
0000
0000
0000
0000
0000
0000
0000
0000
0000
0000
0000
0000
0000
0000
0000
0000
0000
0000
0000
0000
0000
0000
0000
0000
0000
0000
0000
0000
0000
0000
0000
0000
0010
0000
0000
0000
0000
0000
0000
0000
0000
0000
0000
0000
0100
0000
0000
0000
0000
0000
0000
0000
0000
0000
0000
0000
0010
0000
0000
0000
0000
0000
0000
0000
0000
0000
0000
0000
0100
0000
0000
0000
0000
0000
0000
0000
0000
0000
0000
0000
,
1000
1000
0100
0100
0010
0010
0001
0001
,
1000
1000
0010
0010
0100
0100
0001
0001
,
1000
0100
0010
0001
1000
0010
0100
0001
,
1000
0000
0100
0000
0010
0000
0001
0000
1000
0010
0100
0001
1000
0100
0010
0001
,
1000
0000
1000
0000
,
1000
0000
1000
0000
,
1100
1010
0110
0101
,
0011
0000
0101
0000
0110
0000
1010
0100
,
1000
0100
1000
0000
0001
0100
0001
0000
1000
0010
1000
0000
0001
0010
0001
0000
,
1000
0100
0010
0001
0100
0100
0010
0010
,
1000
0000
0100
0000
0010
0000
0001
0000
1000
0010
0100
0001
0010
0000
0100
0000
,
1000
0010
0100
0000
0010
0000
0100
0000
0001
0010
0100
0000
1000
0000
0001
0000
,
1000
1000
0100
0100
0010
0010
0001
0001
,
1000
0100
0010
0001
0100
0010
1000
0100
0010
0001
0100
0010
1000
0000
0001
0000
,
2000
0000
0000
0000
0010
0000
0000
0000
0010
0000
0000
0000
0010
0000
0000
3000
1000
0000
0000
0000
0001
0000
0000
0000
0100
0000
0010
0000
0100
0000
0010
0000
,
1000
0000
1000
0000
,
1000
0000
1000
0000
,
1000
1000
0100
0100
0001
0001
0100
0100
,
1000
0000
1000
0000
0010
0000
0010
0000
0001
0000
0001
0000
0010
0000
0010
0100
,
1000
1000
0100
0100
0010
0010
0001
0001
,
1001
0110
1001
0110
,
1000
0000
0100
0000
0010
0000
0001
0000
0100
0010
0100
0000
0010
0000
1000
0000
,
0100
0010
0100
0010
1000
0100
0010
0001
1000
0000
0001
0000
0100
0010
0100
0010
,
1000
0100
1000
0010
0100
0001
0010
0001
1000
0000
0010
0000
0100
0000
0001
0000
,
1000
0100
0010
0100
1000
0010
0100
0001
,
1000
0100
1000
0100
0010
0001
0010
0001
1000
0010
1000
0010
0100
0001
0100
0001
,
1001
0000
0000
0000
0000
0000
0000
0000
0000
0000
0000
0000
0000
0000
0000
0000
0000
0000
0000
0000
0000
0000
0000
0000
0000
0000
0000
0000
0000
0000
0000
0000
0000
0000
0000
0000
0000
0000
0000
0000
0000
0000
0000
0000
0000
0000
0000
0000
0000
0000
0000
0000
0000
0000
0000
0000
0000
0000
0000
0000
0000
0000
0000
0000
0000
0000
0000
0000
0000
0000
0000
0000
0000
0000
0000
0000
0000
0000
0000
0000
0000
0000
0000
0000
0000
0000
0000
0000
0000
0000
0000
0000
0000
0000
0000
0000
0000
0000
0000
0000
0000
0000
0000
0000
0000
0000
0000
0000
0000
0000
0000
0000
0000
0000
0000
0000
0000
0000
0000
0000
0000
0000
0000
0000
0000
0000
0000
0000
0000
0000
0000
0000
0000
0000
0000
0000
0000
0000
0000
0000
0000
0000
0000
0000
0100
0000
0000
0000
0000
0000
0000
0000
0000
0000
0010
0000
0000
0000
0000
0000
0000
0000
0000
0100
0000
0000
0000
0000
0000
0000
0000
0000
0000
0010
0000
0000
0000
0000
0000
0000
0000
0000
0100
0000
0000
0000
0000
0000
0000
0000
0000
0000
,
1000
0000
0100
0000
0010
0000
0001
0000
0010
0000
0100
0000
,
1000
0000
0010
0000
0100
0000
0001
0000
0100
0000
0010
0000
,
1000
0000
0100
0010
0100
0000
0010
0100
,
0010
0000
0000
0000
1000
0000
0001
0000
1000
0001
1000
0001
1000
0000
0010
0000
,
1000
0000
1000
0000
1000
0000
0100
0000
0100
0000
0100
0000
,
0010
0000
0010
0000
0010
0000
0001
0000
0001
0000
0001
0000
,
1000
0000
0100
0010
0001
0000
1000
0010
,
0100
0000
0001
0010
0100
0000
1000
0001
,
1000
0100
1000
0010
0100
0001
0010
0001
1000
0100
1000
0010
0100
0001
0010
0001
,
0010
0001
0010
0001
0100
0010
1000
0100
0010
0001
0010
0001
0100
0010
1000
0100
,
1000
0100
0010
0001
0100
0010
1000
0001
,
1000
0000
0000
0100
0000
0000
0010
0000
0000
0001
0000
0000
0100
0000
0000
0010
0000
0000
1000
0000
0000
0001
1000
0001
,
1000
0010
1000
0100
0010
0001
0100
0001
1000
0010
1000
0100
0010
0001
0100
0001
,
0100
0001
0100
0001
0010
0100
1000
0010
0100
0001
0100
0001
0010
0100
1000
0010
,
1000
0010
0100
0001
0010
0100
1000
0001
,
1000
0000
0000
0010
0000
0000
0100
0001
0100
0001
0100
0001
0100
0000
0000
0010
0000
0000
1000
0001
1000
0001
1000
0001
,
1000
0000
1000
0000
,
1000
0000
1000
0000
,
1000
0100
0010
0001
,
1000
0100
0000
0000
0100
0010
0000
0000
0010
0001
0000
0000
0001
0010
0100
0010
,
1100
0000
0000
0010
0110
0000
0000
0000
,
0011
0000
0000
0010
0110
0000
0000
0100
,
1100
0000
1010
0000
,
MMMM
0000
0000
0000
,
1000
0000
0000
0000
0000
0000
0000
0000
0000
0000
0100
0000
0000
0000
0000
0000
0000
0000
0000
1000
0000
0000
0000
0000
0000
0000
0000
0000
0000
0100
0000
0000
0000
0000
0000
0000
0000
0000
1000
0000
0000
0000
0000
0000
0000
0000
0000
0000
0100
0000
0000
0000
0000
0000
0000
0000
0000
0000
0000
0000
0000
0000
0000
0000
0000
0000
0000
0000
0000
0000
0000
0000
0000
0000
0000
0000
0000
0000
0000
0000
0000
0000
0000
0000
0000
0000
0000
0000
0000
0000
0000
0000
0000
0000
0000
0000
0001
0000
0000
0000
0000
0000
0000
0000
0000
0000
0100
0000
0000
0000
0000
0000
0000
0000
0000
0001
0000
0000
0000
0000
0000
0000
0000
0000
0000
0100
0000
0000
0000
0000
0000
0000
0000
0000
0001
0000
0000
0000
0000
0000
0000
0000
0000
0000
0100
0000
0000
0000
0000
0000
0000
0000
0000
0000
0000
0000
0000
0000
0000
0000
0000
0000
0000
0000
0000
0000
0000
0000
0000
0000
0000
0000
0000
0000
0000
0000
0000
0000
0000
0000
0000
0000
0000
0000
0000
0000
0000
0000
0000
0000
0000
0000
,
1000
0000
0000
0000
0000
0000
0000
0000
0000
0000
0010
0000
0000
0000
0000
0000
0000
0000
0000
1000
0000
0000
0000
0000
0000
0000
0000
0000
0000
0010
0000
0000
0000
0000
0000
0000
0000
0000
1000
0000
0000
0000
0000
0000
0000
0000
0000
0000
0010
0000
0000
0000
0000
0000
0000
0000
0000
0000
0000
0000
0000
0000
0000
0000
0000
0000
0000
0000
0000
0000
0000
0000
0000
0000
0000
0000
0000
0000
0000
0000
0000
0000
0000
0000
0000
0000
0000
0000
0000
0000
0000
0000
0000
0000
0000
0000
0001
0000
0000
0000
0000
0000
0000
0000
0000
0000
0010
0000
0000
0000
0000
0000
0000
0000
0000
0001
0000
0000
0000
0000
0000
0000
0000
0000
0000
0010
0000
0000
0000
0000
0000
0000
0000
0000
0001
0000
0000
0000
0000
0000
0000
0000
0000
0000
0010
0000
0000
0000
0000
0000
0000
0000
0000
0000
0000
0000
0000
0000
0000
0000
0000
0000
0000
0000
0000
0000
0000
0000
0000
0000
0000
0000
0000
0000
0000
0000
0000
0000
0000
0000
0000
0000
0000
0000
0000
0000
0000
0000
0000
0000
0000
0000
,
1000
0000
0000
0000
0000
0000
0000
0000
0000
0000
0100
0000
0000
0000
0000
0000
0000
0000
0000
1000
0000
0000
0000
0000
0000
0000
0000
0000
0000
0100
0000
0000
0000
0000
0000
0000
0000
0000
1000
0000
0000
0000
0000
0000
0000
0000
0000
0000
0100
0000
0000
0000
0000
0000
0000
0000
0000
0000
0010
0000
0000
0000
0000
0000
0000
0000
0000
0100
0000
0000
0000
0000
0000
0000
0000
0000
0000
0010
0000
0000
0000
0000
0000
0000
0000
0000
0100
0000
0000
0000
0000
0000
0000
0000
0000
0000
0010
0000
0000
0000
0000
0000
0000
0000
0000
0000
0001
0000
0000
0000
0000
0000
0000
0000
0000
0010
0000
0000
0000
0000
0000
0000
0000
0000
0000
0001
0000
0000
0000
0000
0000
0000
0000
0000
0010
0000
0000
0000
0000
0000
0000
0000
0000
0000
0001
0000
0000
0000
0000
0000
0000
0000
1000
0000
0000
0000
0000
0000
0000
0000
0001
0000
0000
0000
0000
0000
0000
0000
1000
0000
0000
0000
0000
0000
0000
0000
0000
0000
0000
0000
0000
0000
0000
0000
0000
0000
0000
0000
0000
0000
0000
0000
,
1000
0000
0000
0000
0000
0000
0000
0000
0000
0000
0010
0000
0000
0000
0000
0000
0000
0000
0000
1000
0000
0000
0000
0000
0000
0000
0000
0000
0000
0010
0000
0000
0000
0000
0000
0000
0000
0000
1000
0000
0000
0000
0000
0000
0000
0000
0000
0000
0010
0000
0000
0000
0000
0000
0000
0000
0000
0000
0100
0000
0000
0000
0000
0000
0000
0000
0000
0010
0000
0000
0000
0000
0000
0000
0000
0000
0000
0100
0000
0000
0000
0000
0000
0000
0000
0000
0010
0000
0000
0000
0000
0000
0000
0000
0000
0000
0100
0000
0000
0000
0000
0000
0000
0000
0000
0000
0001
0000
0000
0000
0000
0000
0000
0000
0000
0100
0000
0000
0000
0000
0000
0000
0000
0000
0000
0001
0000
0000
0000
0000
0000
0000
0000
0000
0100
0000
0000
0000
0000
0000
0000
0000
0000
0000
0001
0000
0000
0000
0000
0000
0000
0000
1000
0000
0000
0000
0000
0000
0000
0000
0001
0000
0000
0000
0000
0000
0000
0000
1000
0000
0000
0000
0000
0000
0000
0000
0000
0000
0000
0000
0000
0000
0000
0000
0000
0000
0000
0000
0000
0000
0000
0000
,
1000
1000
0000
0000
,
0000
0000
0000
0000
,
0000
0000
0000
0000
,
0000
0000
MMMM
0000
;

//--------------- dance-single - ----------------
#NOTEDATA:;
#STEPSTYPE:dance-single;
#DESCRIPTION:;
#DIFFICULTY:Challenge;
#METER:20;
#RADARVALUES:0,0,0,0,0;
#OFFSET:-0.310;
#BPMS:0.000=228.563
,235.000=114.281
,236.000=457.126
,332.000=228.563
,582.000=57.141
;
#STOPS:224.000=0.790;
#NOTES:
1000
0100
0000
0100
0001
0000
0000
0000
1000
0010
0000
0010
0001
0000
0000
0000
,
0000
0000
0220
0330
,
0000
0000
0220
0330
,
0000
0000
0000
0000
,
1000
0100
0000
0010
0001
0000
0010
0000
0100
0010
1000
0100
1000
0010
1000
0010
,
0100
0000
0100
0000
0100
0000
0100
0000
1000
0010
0100
0001
0010
0100
1000
0000
,
1000
0000
0000
0000
0001
0000
0010
0000
0001
0000
0000
0000
0100
0000
0000
0000
0010
0100
0000
0000
0010
0100
0000
0000
0010
0100
0000
0000
0010
0100
0000
0000
,
1000
0000
0000
0000
0000
0000
0010
0000
0000
0000
0000
0000
0100
0000
0000
0001
0000
0000
1000
0000
0000
0000
0000
0000
0010
0000
0100
0000
0010
0000
0100
0000
0010
0000
0100
0000
0010
0000
0000
0001
0000
0000
0100
0000
0000
0010
0000
0000
,
1000
0100
0010
0100
1000
0010
0100
0010
,
1000
0000
0000
0000
0100
0000
0000
0000
0010
0000
0000
0000
0001
0000
0000
0000
0100
0010
0100
0010
0100
0000
0000
0000
1000
0000
0000
0000
0001
0000
0000
0000
,
1000
0100
1000
0010
0100
0001
0010
0001
1000
0010
1000
0010
0100
0000
0000
0000
,
1000
0010
1000
0100
0010
0001
0100
0001
1000
0100
1000
0100
0010
0000
0000
0000
,
1000
0100
0010
0000
0100
0010
1000
0000
,
0001
0000
0010
0000
0010
0000
0000
0000
1000
0100
1000
0100
0010
0001
0010
0001
,
0100
0010
0010
0001
0100
0100
1000
0001
,
0100
0010
1000
0001
0010
0000
0100
0000
0110
0000
0010
0000
0100
0001
1000
0100
,
1000
0010
0000
0100
0001
0010
0001
0100
0001
0010
0000
0100
1000
0010
0100
0001
,
1000
0100
0000
0010
0001
0100
0001
0010
0001
0100
0000
0010
1000
0001
1000
0001
,
1000
0001
0100
0100
0001
1000
0010
0010
,
1000
0000
0000
0000
0001
0000
0000
0000
0010
0000
0000
0000
1000
0000
0000
0000
0010
0100
0010
0100
0010
0000
0000
0000
1000
0000
0000
0000
0001
0000
0000
0000
,
1000
0100
0000
0100
0001
0010
0001
0100
0001
0010
0000
0010
1000
0100
0010
0001
,
1000
0000
0010
0000
0000
0000
0010
0000
0001
0000
0100
0000
0001
0000
0010
0000
0001
0010
0001
0010
0000
0000
1000
0100
1000
0000
0010
0000
0100
0000
0001
0000
,
1000
0000
0100
0010
0100
0000
0001
0000
0010
0100
0010
0000
1000
0100
1000
0000
,
1000
0100
1000
0100
0010
0001
0010
0001
1000
0010
1000
0010
0100
0001
0100
0001
,
1000
0100
0001
0100
1000
0010
0001
0010
,
1000
0100
0001
0100
1000
0010
0001
0010
,
1000
1000
0100
0100
0010
0010
0001
0001
,
0100
0100
0010
0010
1000
1000
0001
0001
,
1000
0100
1000
0010
0100
0001
0010
0001
0100
0010
1000
0100
1000
0010
0100
0001
,
1000
0000
0000
0010
0000
0000
1000
0000
0000
0100
0000
0000
0010
0000
0000
0001
0000
0000
0100
0000
0000
0001
0000
0000
0010
0000
0100
0000
1000
0000
0010
0000
0000
1000
0000
0000
0100
0000
0010
0000
0001
0000
0010
0000
0100
0000
1000
0000
,
0001
0001
0010
0010
0100
0100
1000
1000
,
0010
0000
0000
0010
0000
0000
0100
0000
0000
0100
0000
0000
0001
0000
0000
0001
0000
0000
1000
0001
1000
0001
1000
0001
,
1000
1000
1000
1000
0100
0100
0100
0100
,
0010
0010
0010
0010
0001
0001
0001
0001
,
1000
0100
0010
0001
1000
0010
0100
0001
,
1000
0100
0010
0001
1000
0000
0010
0000
0110
0000
0100
0000
0010
0000
0001
0000
,
1000
0010
1000
0100
0010
0001
0100
0001
0010
0100
1000
0010
1000
0100
0010
0001
,
1000
0000
0000
0100
0000
0000
1000
0000
0000
0010
0000
0000
0100
0000
0000
0001
0000
0000
0010
0000
0000
0001
0000
0000
0100
0000
0000
0010
0000
0000
1000
0000
0000
0100
0000
0000
1000
0000
0010
0000
0100
0000
0001
0000
0010
0000
0100
0000
,
1000
0010
0100
0001
1000
0100
0010
0001
,
1000
0000
0010
0000
0100
0000
0001
0010
0100
0000
1000
0000
0002
0000
0003
0000
,
1000
0100
0010
0001
0100
0010
2000
3000
,
0100
0010
0001
0100
0010
1000
0200
0300
,
0010
0001
0100
0010
1000
0100
0020
0030
,
0001
0010
0100
1000
0010
0100
0002
0003
,
1001
0100
0010
0001
1001
0100
0010
0001
,
1001
0100
0010
0001
1001
0100
0010
0001
,
1001
0100
0010
0001
1001
0100
0010
0001
,
1001
0100
0010
0001
1001
0100
0010
0001
,
1000
0100
1000
0010
0100
0000
0002
0000
0003
0000
0001
0010
0001
0000
0100
0000
,
1000
0100
1000
0010
0100
0001
0010
0001
1000
0010
1000
0100
0010
0001
0100
0001
,
1000
0100
0010
0100
1000
0000
0010
0000
0100
0001
0100
0000
0001
0000
0010
0000
,
1000
0100
0010
0001
0100
0010
1000
0100
1000
0010
0100
0001
0010
0000
0100
0000
,
1000
0010
1000
0100
0010
0000
0001
0000
0100
0000
0010
1000
0100
0000
0010
0000
,
1000
0100
1000
0100
1000
0100
0010
0100
1000
0100
1000
0100
1000
0010
0100
0001
,
1000
0100
0010
0100
1000
0000
0100
0000
0010
0001
0100
0010
1000
0100
0010
0001
,
1000
0100
1000
0100
0010
0001
0010
0001
1000
0010
0100
0001
0010
0100
1000
0010
,
0220
0330
1001
0000
0110
0000
0011
0000
,
0110
0000
0000
0000
0000
0000
0000
0000
0000
0000
0000
0000
1000
0000
0000
0000
0000
0000
0100
0000
0000
0000
0000
0000
0010
0000
0000
0001
0000
0000
1000
0000
0010
0000
0100
0000
0001
0000
0000
0010
0000
0000
0001
0000
0000
0010
0000
0000
,
0100
1000
0100
1000
0001
0100
0001
0100
0010
1000
0010
1000
0002
0000
0000
0003
,
1000
0100
1000
0010
0100
0001
0010
0100
,
0010
0001
0100
0010
1000
0100
1000
0001
,
1000
0010
1000
0100
0010
0001
0100
0010
,
0100
0000
0001
0000
0010
0000
0100
0000
1000
0000
0010
0000
1000
0001
1000
0001
,
1000
0100
1000
0010
0100
0001
0010
0100
,
1000
0100
0010
0001
0100
0010
1000
0100
,
1000
0010
1000
0100
0010
0001
0100
0001
,
1000
0100
0010
0001
1000
0100
0010
0001
1000
0000
0010
0000
0100
0000
0010
0000
,
1000
0100
1000
0010
0100
0001
0010
0001
,
1000
0100
1000
0010
0100
0001
0010
0001
,
1000
0100
0010
0100
1000
0010
0100
0001
,
0010
0000
0000
0000
0000
0000
0100
0000
0000
0000
0000
0000
1000
0001
1000
0001
1000
0001
1000
0001
1000
0001
1000
0001
,
1000
0100
1000
0010
0100
0010
1000
0100
,
1000
0000
0010
0000
1000
0000
0100
0000
0010
0100
0010
0100
1000
0100
1000
0100
,
1000
0010
0100
0001
0010
0100
1000
0001
,
1000
0100
0010
0100
1000
0100
0010
0001
1000
0000
0000
0000
0001
0000
0000
0000
,
1000
0100
1000
0100
0010
0001
0010
0001
,
1000
0010
1000
0010
0100
0001
0100
0001
,
1000
0100
1000
0100
0010
0001
0010
0001
,
1000
0010
1000
0010
0100
0001
0100
0001
,
1000
0100
0010
0001
1000
0100
0010
0001
,
1000
0010
0100
0001
1000
0010
0100
0001
,
1000
0100
0010
0001
,
0100
0010
1000
0001
,
1000
0100
1000
0001
0100
0010
1000
0100
0010
0001
0010
0100
1000
0010
0100
0001
,
1000
0010
1000
0001
0010
0100
1000
0010
0100
0001
0100
0010
1000
0100
0010
0001
,
1000
0001
0100
0010
1000
0100
0010
0001
0100
0001
0010
0100
1000
0010
0100
0001
,
1000
0100
0010
0100
1000
0100
0010
0001
0010
0100
0010
0001
1000
0000
0000
0000
0000
0000
0100
0010
0100
0010
0100
0010
,
1000
1000
0100
0100
0010
0010
0001
0001
,
1000
1000
0010
0010
0100
0100
0001
0001
,
1000
0100
0010
0001
1000
0010
0100
0001
,
1000
0000
0000
0000
0000
0000
0100
0000
0000
0000
0000
0000
0010
0000
0000
0000
0000
0000
0001
0000
0000
0000
0000
0000
1000
0000
0100
0000
0010
0000
0001
0000
0010
0000
0100
0000
1000
0000
0000
0100
0000
0000
0010
0000
0000
0001
0000
0000
,
1000
0000
1000
0000
,
1000
0000
1000
0000
,
1100
1010
0110
0101
,
0011
0000
0101
0000
0110
0000
1010
0100
,
1000
0100
1000
0000
0001
0100
0001
0000
1000
0010
1000
0000
0001
0010
0001
0000
,
1000
0100
0010
0001
0100
0100
0010
0010
,
1000
0000
0100
0000
0010
0000
0001
0000
1000
0010
0100
0001
0010
0000
0100
0000
,
1000
0010
0100
0000
0010
0000
0100
0000
0001
0010
0100
0000
1000
0000
0001
0000
,
1000
1000
0100
0100
0010
0010
0001
0001
,
1000
0100
0010
0001
0100
0010
1000
0100
0010
0001
0100
0010
1000
0000
0001
0000
,
2000
0000
0000
0000
0010
0000
0000
0000
0010
0000
0000
0000
0010
0000
0000
3000
1000
0000
0000
0000
0001
0000
0000
0000
0100
0000
0010
0000
0100
0000
0010
0000
,
1000
0000
1000
0000
,
1000
0000
1000
0000
,
1000
1000
0100
0100
0001
0001
0100
0100
,
1000
0000
1000
0000
0010
0000
0010
0000
0001
0000
0001
0000
0010
0000
0010
0100
,
1000
1000
0100
0100
0010
0010
0001
0001
,
1001
0110
1001
0110
,
1000
0000
0100
0000
0010
0000
0001
0000
0100
0010
0100
0000
0010
0000
1000
0000
,
0100
0010
0100
0010
1000
0100
0010
0001
1000
0000
0001
0000
0100
0010
0100
0010
,
1000
0100
1000
0010
0100
0001
0010
0001
1000
0000
0010
0000
0100
0000
0001
0000
,
1000
0100
0010
0100
1000
0010
0100
0001
,
1000
0100
1000
0100
0010
0001
0010
0001
1000
0010
1000
0010
0100
0001
0100
0001
,
1001
0000
0000
0000
0000
0000
0000
0000
0000
0000
0000
0000
0000
0000
0000
0000
0000
0000
0100
0010
0100
0010
0100
0010
,
1000
0000
0100
0000
0010
0000
0001
0000
0010
0000
0100
0000
,
1000
0000
0010
0000
0100
0000
0001
0000
0100
0000
0010
0000
,
1000
0000
0100
0010
0100
0000
0010
0100
,
0010
0000
0000
0000
1000
0000
0001
0000
1000
0001
1000
0001
1000
0000
0010
0000
,
1000
0000
1000
0000
1000
0000
0100
0000
0100
0000
0100
0000
,
0010
0000
0010
0000
0010
0000
0001
0000
0001
0000
0001
0000
,
1000
0000
0100
0010
0001
0000
1000
0010
,
0100
0000
0001
0010
0100
0000
1000
0001
,
1000
0100
1000
0010
0100
0001
0010
0001
1000
0100
1000
0010
0100
0001
0010
0001
,
0010
0001
0010
0001
0100
0010
1000
0100
0010
0001
0010
0001
0100
0010
1000
0100
,
1000
0100
0010
0001
0100
0010
1000
0001
,
1000
0000
0000
0100
0000
0000
0010
0000
0000
0001
0000
0000
0100
0000
0000
0010
0000
0000
1000
0000
0000
0001
1000
0001
,
1000
0010
1000
0100
0010
0001
0100
0001
1000
0010
1000
0100
0010
0001
0100
0001
,
0100
0001
0100
0001
0010
0100
1000
0010
0100
0001
0100
0001
0010
0100
1000
0010
,
1000
0010
0100
0001
0010
0100
1000
0001
,
1000
0000
0000
0000
0010
0000
0000
0000
0100
0001
0100
0001
0100
0001
0100
0001
0100
0000
0000
0000
0010
0000
0000
0000
1000
0001
1000
0001
1000
0001
1000
0001
,
1000
0000
1000
0000
,
1000
0000
1000
0000
,
1000
0100
0010
0001
,
1000
0100
0000
0000
0100
0010
0000
0000
0010
0001
0000
0000
0001
0010
0100
0010
,
1100
0000
0000
0010
0110
0000
0000
0000
,
0011
0000
0000
0010
0110
0000
0000
0100
,
1100
0000
1010
0000
,
MMMM
0000
0000
0000
,
1000
0100
1000
0100
1000
0100
1000
0000
0000
0000
0000
0000
0001
0100
0001
0100
0001
0100
0001
0000
0000
0000
0000
0000
,
1000
0010
1000
0010
1000
0010
1000
0000
0000
0000
0000
0000
0001
0010
0001
0010
0001
0010
0001
0000
0000
0000
0000
0000
,
1000
0100
1000
0100
1000
0100
0010
0001
0010
0001
0010
0001
0100
0010
0100
0010
0100
0010
1000
0001
1000
0001
0000
0000
,
1000
0010
1000
0010
1000
0010
0100
0001
0100
0001
0100
0001
0010
0100
0010
0100
0010
0100
1000
0001
1000
0001
0000
0000
,
1000
1000
0000
0000
,
0000
0000
0000
0000
,
0000
0000
0000
0000
,
0000
0000
MMMM
0000
;

//--------------- dance-single - ALL SYSTEMS GO ----------------
#NOTEDATA:;
#STEPSTYPE:dance-single;
#DESCRIPTION:ALL SYSTEMS GO;
#DIFFICULTY:Edit;
#METER:21;
#RADARVALUES:0,0,0,0,0;
#OFFSET:-0.310;
#BPMS:0.000=228.563
,235.000=114.281
,236.000=914.252
,364.000=457.126
,396.000=228.563
,646.000=57.141
;
#STOPS:224.000=0.790;
#NOTES:
1000
0100
0000
0100
0001
0000
0000
0000
1000
0010
0000
0010
0001
0000
0000
0000
,
0000
0000
0220
0330
,
0000
0000
0220
0330
,
0000
0000
0000
0000
,
1000
0100
0000
0010
0001
0000
0010
0000
0100
0010
1000
0100
1000
0010
1000
0010
,
0100
0000
0100
0000
0100
0000
0100
0000
1000
0010
0100
0001
0010
0100
1000
0000
,
1000
0000
0000
0000
0001
0000
0010
0000
0001
0000
0000
0000
0100
0000
0000
0000
0010
0100
0000
0000
0010
0100
0000
0000
0010
0100
0000
0000
0010
0100
0000
0000
,
1000
0000
0000
0000
0000
0000
0010
0000
0000
0000
0000
0000
0100
0000
0000
0001
0000
0000
1000
0000
0000
0000
0000
0000
0010
0000
0100
0000
0010
0000
0100
0000
0010
0000
0100
0000
0010
0000
0000
0001
0000
0000
0100
0000
0000
0010
0000
0000
,
1000
0100
0010
0100
1000
0010
0100
0010
,
1000
0000
0000
0000
0100
0000
0000
0000
0010
0000
0000
0000
0001
0000
0000
0000
0100
0010
0100
0010
0100
0000
0000
0000
1000
0000
0000
0000
0001
0000
0000
0000
,
1000
0100
1000
0010
0100
0001
0010
0001
1000
0010
1000
0010
0100
0000
0000
0000
,
1000
0010
1000
0100
0010
0001
0100
0001
1000
0100
1000
0100
0010
0000
0000
0000
,
1000
0100
0010
0000
0100
0010
1000
0000
,
0001
0000
0010
0000
0010
0000
0000
0000
1000
0100
1000
0100
0010
0001
0010
0001
,
0100
0010
0010
0001
0100
0100
1000
0001
,
0100
0010
1000
0001
0010
0000
0100
0000
0110
0000
0010
0000
0100
0001
1000
0100
,
1000
0010
0000
0100
0001
0010
0001
0100
0001
0010
0000
0100
1000
0010
0100
0001
,
1000
0100
0000
0010
0001
0100
0001
0010
0001
0100
0000
0010
1000
0001
1000
0001
,
1000
0001
0100
0100
0001
1000
0010
0010
,
1000
0000
0000
0000
0001
0000
0000
0000
0010
0000
0000
0000
1000
0000
0000
0000
0010
0100
0010
0100
0010
0000
0000
0000
1000
0000
0000
0000
0001
0000
0000
0000
,
1000
0100
0000
0100
0001
0010
0001
0100
0001
0010
0000
0010
1000
0100
0010
0001
,
1000
0000
0010
0000
0000
0000
0010
0000
0001
0000
0100
0000
0001
0000
0010
0000
0001
0010
0001
0010
0000
0000
1000
0100
1000
0000
0010
0000
0100
0000
0001
0000
,
1000
0000
0100
0010
0100
0000
0001
0000
0010
0100
0010
0000
1000
0100
1000
0000
,
1000
0100
1000
0100
0010
0001
0010
0001
1000
0010
1000
0010
0100
0001
0100
0001
,
1000
0100
0001
0100
1000
0010
0001
0010
,
1000
0100
0001
0100
1000
0010
0001
0010
,
1000
1000
0100
0100
0010
0010
0001
0001
,
0100
0100
0010
0010
1000
1000
0001
0001
,
1000
0100
1000
0010
0100
0001
0010
0001
0100
0010
1000
0100
1000
0010
0100
0001
,
1000
0000
0000
0010
0000
0000
1000
0000
0000
0100
0000
0000
0010
0000
0000
0001
0000
0000
0100
0000
0000
0001
0000
0000
0010
0000
0100
0000
1000
0000
0010
0000
0000
1000
0000
0000
0100
0000
0010
0000
0001
0000
0010
0000
0100
0000
1000
0000
,
0001
0001
0010
0010
0100
0100
1000
1000
,
0010
0000
0000
0010
0000
0000
0100
0000
0000
0100
0000
0000
0001
0000
0000
0001
0000
0000
1000
0001
1000
0001
1000
0001
,
1000
1000
1000
1000
0100
0100
0100
0100
,
0010
0010
0010
0010
0001
0001
0001
0001
,
1000
0100
0010
0001
1000
0010
0100
0001
,
1000
0100
0010
0001
1000
0000
0010
0000
0110
0000
0100
0000
0010
0000
0001
0000
,
1000
0010
1000
0100
0010
0001
0100
0001
0010
0100
1000
0010
1000
0100
0010
0001
,
1000
0000
0000
0100
0000
0000
1000
0000
0000
0010
0000
0000
0100
0000
0000
0001
0000
0000
0010
0000
0000
0001
0000
0000
0100
0000
0000
0010
0000
0000
1000
0000
0000
0100
0000
0000
1000
0000
0010
0000
0100
0000
0001
0000
0010
0000
0100
0000
,
1000
0010
0100
0001
1000
0100
0010
0001
,
1000
0000
0010
0000
0100
0000
0001
0010
0100
0000
1000
0000
0002
0000
0003
0000
,
1000
0100
0010
0001
0100
0010
2000
3000
,
0100
0010
0001
0100
0010
1000
0200
0300
,
0010
0001
0100
0010
1000
0100
0020
0030
,
0001
0010
0100
1000
0010
0100
0002
0003
,
1001
0100
0010
0001
1001
0100
0010
0001
,
1001
0100
0010
0001
1001
0100
0010
0001
,
1001
0100
0010
0001
1001
0100
0010
0001
,
1001
0100
0010
0001
1001
0100
0010
0001
,
1000
0100
1000
0010
0100
0000
0002
0000
0003
0000
0001
0010
0001
0000
0100
0000
,
1000
0100
1000
0010
0100
0001
0010
0001
1000
0010
1000
0100
0010
0001
0100
0001
,
1000
0100
0010
0100
1000
0000
0010
0000
0100
0001
0100
0000
0001
0000
0010
0000
,
1000
0100
0010
0001
0100
0010
1000
0100
1000
0010
0100
0001
0010
0000
0100
0000
,
1000
0010
1000
0100
0010
0000
0001
0000
0100
0000
0010
1000
0100
0000
0010
0000
,
1000
0100
1000
0100
1000
0100
0010
0100
1000
0100
1000
0100
1000
0010
0100
0001
,
1000
0100
0010
0100
1000
0000
0100
0000
0010
0001
0100
0010
1000
0100
0010
0001
,
1000
0100
1000
0100
0010
0001
0010
0001
1000
0010
0100
0001
0010
0100
1000
0010
,
0220
0330
1001
0000
0110
0000
0011
0000
,
0110
0000
0000
0000
0000
0000
0000
0000
0000
0000
0000
0000
1000
0000
0000
0000
0000
0000
0100
0000
0000
0000
0000
0000
0010
0000
0000
0001
0000
0000
1000
0000
0010
0000
0100
0000
0001
0000
0000
0010
0000
0000
0001
0000
0000
0010
0000
0000
,
0100
1000
0100
1000
0001
0100
0001
0100
0010
1000
0010
1000
0002
0000
0000
0003
,
1000
0100
1000
0010
,
0100
0001
0010
0100
,
0010
0001
0100
0010
,
1000
0100
1000
0001
,
1000
0010
1000
0100
,
0010
0001
0100
0010
,
0100
0001
0010
0100
,
1000
0000
0010
0000
1000
0001
1000
0001
,
1000
0100
1000
0010
,
0100
0001
0010
0100
,
1000
0100
0010
0001
,
0100
0010
1000
0100
,
1000
0010
1000
0100
,
0010
0001
0100
0001
,
1000
0100
0010
0001
1000
0100
0010
0001
,
1000
0010
0100
0010
,
1000
0100
1000
0010
,
0100
0001
0010
0001
,
1000
0100
1000
0010
,
0100
0001
0010
0001
,
1000
0100
0010
0100
,
1000
0010
0100
0001
,
0010
0000
0100
0000
,
1000
0001
1000
0001
1000
0001
1000
0001
1000
0001
1000
0001
,
1000
0100
1000
0010
,
0100
0010
1000
0100
,
1000
0010
1000
0100
,
0010
0100
0010
0100
1000
0100
1000
0100
,
1000
0010
0100
0001
,
0010
0100
1000
0001
,
1000
0100
0010
0100
1000
0100
0010
0001
,
1000
0000
0001
0000
,
1000
0100
1000
0100
0010
0001
0010
0001
,
1000
0010
1000
0010
0100
0001
0100
0001
,
1000
0100
1000
0100
0010
0001
0010
0001
,
1000
0010
1000
0010
0100
0001
0100
0001
,
1000
0100
0010
0001
1000
0100
0010
0001
,
1000
0010
0100
0001
1000
0010
0100
0001
,
1000
0100
0010
0001
,
0100
0010
1000
0001
,
1000
0100
1000
0001
0100
0010
1000
0100
0010
0001
0010
0100
1000
0010
0100
0001
,
1000
0010
1000
0001
0010
0100
1000
0010
0100
0001
0100
0010
1000
0100
0010
0001
,
1000
0001
0100
0010
1000
0100
0010
0001
0100
0001
0010
0100
1000
0010
0100
0001
,
1000
0100
0010
0100
1000
0100
0010
0001
0010
0100
0010
0001
1000
0000
0000
0000
0000
0000
0100
0010
0100
0010
0100
0010
,
1000
1000
0100
0100
0010
0010
0001
0001
,
1000
1000
0010
0010
0100
0100
0001
0001
,
1000
0100
0010
0001
1000
0010
0100
0001
,
1000
0000
0000
0000
0000
0000
0100
0000
0000
0000
0000
0000
0010
0000
0000
0000
0000
0000
0001
0000
0000
0000
0000
0000
1000
0000
0100
0000
0010
0000
0001
0000
0010
0000
0100
0000
1000
0000
0000
0100
0000
0000
0010
0000
0000
0001
0000
0000
,
1000
0000
1000
0000
,
1000
0000
1000
0000
,
1100
1010
0110
0101
,
0011
0000
0101
0000
0110
0000
1010
0100
,
1000
0100
1000
0000
0001
0100
0001
0000
1000
0010
1000
0000
0001
0010
0001
0000
,
1000
0100
0010
0001
0100
0100
0010
0010
,
1000
0000
0100
0000
0010
0000
0001
0000
1000
0010
0100
0001
0010
0000
0100
0000
,
1000
0010
0100
0000
0010
0000
0100
0000
0001
0010
0100
0000
1000
0000
0001
0000
,
1000
1000
0100
0100
0010
0010
0001
0001
,
1000
0100
0010
0001
0100
0010
1000
0100
0010
0001
0100
0010
1000
0000
0001
0000
,
2000
0000
0000
0000
0010
0000
0000
0000
0010
0000
0000
0000
0010
0000
0000
3000
1000
0000
0000
0000
0001
0000
0000
0000
0100
0000
0010
0000
0100
0000
0010
0000
,
1000
0000
1000
0000
,
1000
0000
1000
0000
,
1000
1000
0100
0100
0001
0001
0100
0100
,
1000
0000
1000
0000
0010
0000
0010
0000
0001
0000
0001
0000
0010
0000
0010
0100
,
1000
1000
0100
0100
0010
0010
0001
0001
,
1001
0110
1001
0110
,
1000
0000
0100
0000
0010
0000
0001
0000
0100
0010
0100
0000
0010
0000
1000
0000
,
0100
0010
0100
0010
1000
0100
0010
0001
1000
0000
0001
0000
0100
0010
0100
0010
,
1000
0100
1000
0010
0100
0001
0010
0001
1000
0000
0010
0000
0100
0000
0001
0000
,
1000
0100
0010
0100
1000
0010
0100
0001
,
1000
0100
1000
0100
0010
0001
0010
0001
1000
0010
1000
0010
0100
0001
0100
0001
,
1001
0000
0000
0000
0000
0000
0000
0000
0000
0000
0000
0000
0000
0000
0000
0000
0000
0000
0100
0010
0100
0010
0100
0010
,
1000
0000
0100
0000
0010
0000
0001
0000
0010
0000
0100
0000
,
1000
0000
0010
0000
0100
0000
0001
0000
0100
0000
0010
0000
,
1000
0000
0100
0010
0100
0000
0010
0100
,
0010
0000
0000
0000
1000
0000
0001
0000
1000
0001
1000
0001
1000
0000
0010
0000
,
1000
0000
1000
0000
1000
0000
0100
0000
0100
0000
0100
0000
,
0010
0000
0010
0000
0010
0000
0001
0000
0001
0000
0001
0000
,
1000
0000
0100
0010
0001
0000
1000
0010
,
0100
0000
0001
0010
0100
0000
1000
0001
,
1000
0100
1000
0010
0100
0001
0010
0001
1000
0100
1000
0010
0100
0001
0010
0001
,
0010
0001
0010
0001
0100
0010
1000
0100
0010
0001
0010
0001
0100
0010
1000
0100
,
1000
0100
0010
0001
0100
0010
1000
0001
,
1000
0000
0000
0100
0000
0000
0010
0000
0000
0001
0000
0000
0100
0000
0000
0010
0000
0000
1000
0000
0000
0001
1000
0001
,
1000
0010
1000
0100
0010
0001
0100
0001
1000
0010
1000
0100
0010
0001
0100
0001
,
0100
0001
0100
0001
0010
0100
1000
0010
0100
0001
0100
0001
0010
0100
1000
0010
,
1000
0010
0100
0001
0010
0100
1000
0001
,
1000
0000
0000
0000
0010
0000
0000
0000
0100
0001
0100
0001
0100
0001
0100
0001
0100
0000
0000
0000
0010
0000
0000
0000
1000
0001
1000
0001
1000
0001
1000
0001
,
1000
0000
1000
0000
,
1000
0000
1000
0000
,
1000
0100
0010
0001
,
1000
0100
0000
0000
0100
0010
0000
0000
0010
0001
0000
0000
0001
0010
0100
0010
,
1100
0000
0000
0010
0110
0000
0000
0000
,
0011
0000
0000
0010
0110
0000
0000
0100
,
1100
0000
1010
0000
,
MMMM
0000
0000
0000
,
1000
0100
1000
0100
1000
0100
1000
0000
0000
0000
0000
0000
0001
0100
0001
0100
0001
0100
0001
0000
0000
0000
0000
0000
,
1000
0010
1000
0010
1000
0010
1000
0000
0000
0000
0000
0000
0001
0010
0001
0010
0001
0010
0001
0000
0000
0000
0000
0000
,
1000
0100
1000
0100
1000
0100
0010
0001
0010
0001
0010
0001
0100
0010
0100
0010
0100
0010
1000
0001
1000
0001
0000
0000
,
1000
0010
1000
0010
1000
0010
0100
0001
0100
0001
0100
0001
0010
0100
0010
0100
0010
0100
1000
0001
1000
0001
0000
0000
,
1000
1000
0000
0000
,
0000
0000
0000
0000
,
0000
0000
0000
0000
,
0000
0000
MMMM
0000
;
