#TITLE:5.1.1.;
#SUBTITLE:;
#ARTIST:dj nagureo;
#TITLETRANSLIT:;
#SUBTITLETRANSLIT:;
#ARTISTTRANSLIT:;
#GENRE:;
#CREDIT:;
#MUSIC:5.1.1..ogg;
#BANNER:5.1.1.-bn.png;
#BACKGROUND:5.1.1.-bg.png;
#CDTITLE:;
#SAMPLESTART:48.209;
#SAMPLELENGTH:19.010;
#SELECTABLE:YES;
#OFFSET:-0.090;
#BPMS:0.000=101.000;
#STOPS:;
#BGCHANGES:;
#FGCHANGES:;

//--------------- dance-single - ----------------
#NOTES:
     dance-single:
     :
     Beginner:
     1:
     0,0,0,0,0:
0000
0000
0000
0000
,
0000
0000
0000
0000
,
0000
0000
0000
0000
,
0000
0000
0000
0000
,
0000
1000
0000
0000
,
0000
0100
0000
0000
,
0000
0010
0000
0000
,
0000
0001
0000
0000
,
0000
1000
0000
0010
,
0000
0100
0000
0010
,
0000
1000
0000
0000
,
0000
1000
0000
0000
,
0000
0001
0000
0000
,
0000
0010
0000
0000
,
0000
0100
0000
0000
,
0000
1000
0000
0000
,
0000
0001
0000
0100
,
0000
0010
0000
0100
,
0000
0001
0000
0000
,
0000
0001
0000
0000
,
0000
1000
0000
0000
,
0000
0100
0000
0000
,
0000
0010
0000
0000
,
0000
0001
0000
0000
,
0000
0100
0000
0000
,
0000
0010
0000
0000
,
0000
1000
0000
0000
,
0000
0001
0000
0000
;

//--------------- dance-single - ----------------
#NOTES:
     dance-single:
     :
     Easy:
     1:
     0,0,0,0,0:
0000
1001
0000
1000
,
0000
0100
0000
1000
,
0000
1100
0000
1000
,
0000
0100
0000
0000
0010
0000
0000
0001
,
0000
1001
0000
0000
,
0000
0110
0000
0000
,
0000
1001
0000
0000
,
0000
0110
0000
0000
,
0000
1000
0000
0100
,
0000
0001
0000
0100
,
0000
1000
0000
0000
,
0000
1000
0000
0000
,
0000
1001
0000
0000
,
0000
0110
0000
0000
,
0000
1001
0000
0000
,
0000
0110
0000
0000
,
0000
0001
0000
0010
,
0000
1000
0000
0010
,
0000
0001
0000
0000
,
0000
0001
0000
0000
,
0000
1000
0000
0000
,
0000
0100
0000
0000
,
0000
0010
0000
0000
,
0000
0001
0000
0000
,
0000
0100
0000
0010
,
0000
1000
0000
0100
,
0000
1000
0000
0010
,
0000
0100
0000
0001
,
0000
1001
0000
0000
;

//--------------- dance-single - ----------------
#NOTES:
     dance-single:
     :
     Medium:
     2:
     0,0,0,0,0:
0000
1001
0000
1000
,
0010
1000
0010
1000
,
0010
1010
0000
0100
,
0000
0010
0000
0000
0001
0000
0000
1000
,
0000
1001
0000
0100
,
0000
1001
0000
0010
,
0000
1001
0000
0100
,
0000
1001
0000
0010
,
0000
1000
0100
0010
,
0100
1000
0010
0100
,
0010
0000
1000
0000
0000
1000
0000
0000
,
0000
0000
1000
0000
0000
1000
0000
0000
,
0000
1001
0000
0010
,
0000
1001
0000
0100
,
0000
1001
0000
0010
,
0000
1001
0000
0100
,
0000
1000
0010
0100
,
0010
1000
0100
0010
,
0100
0000
1000
0000
0000
1000
0000
0000
,
0000
0000
1000
0000
0000
1000
0000
0000
,
0000
1000
0000
0000
,
1000
0100
0000
0000
,
0100
0010
0000
0000
,
0010
0001
0000
0000
,
0001
1000
0000
0100
,
0000
0010
0000
0100
,
0000
1000
0000
0010
,
0000
0100
0000
0010
,
0000
1001
0000
0000
;

//--------------- dance-single - ----------------
#NOTES:
     dance-single:
     :
     Hard:
     2:
     0,0,0,0,0:
0000
0000
1001
0000
0000
0000
1000
0010
,
1000
0010
1000
0010
1000
0010
1000
0010
,
1000
0010
1010
0000
0000
0000
0100
0000
,
0000
0010
0000
0000
0001
0000
0000
1000
,
0000
1001
0000
0000
,
0000
0110
0000
0000
,
0000
1010
0000
0000
,
0000
0011
0000
0000
,
0000
1000
0100
0001
,
0100
1000
0010
0001
,
0010
0000
1000
0000
0000
0100
0000
0000
,
0000
0000
0010
0000
0000
0001
0000
0000
,
0000
1100
0000
0000
,
0000
0101
0000
0000
,
0000
0011
0000
0000
,
0000
1010
0000
0000
,
0000
1000
0010
0001
,
0010
1000
0100
0001
,
0100
0000
1000
0000
0000
0010
0000
0000
,
0000
0000
0100
0000
0000
0001
0000
0000
,
0000
0000
1100
0000
0000
1000
0000
0000
,
1000
0000
1010
0000
0000
0010
0000
0000
,
0010
0000
0110
0000
0000
0100
0000
0000
,
0100
0000
0101
0000
0000
0001
0000
0000
,
0001
0011
0000
0101
,
0000
0110
0000
1010
,
0000
1100
0000
0101
,
0000
0011
0000
1010
,
0000
1001
0000
0000
;

//--------------- dance-single - ----------------
#NOTES:
     dance-single:
     :
     Challenge:
     6:
     0,0,0,0,0:
0000
0000
0000
0000
1000
0000
0010
0000
0100
0000
0001
0000
1000
0100
1000
0100
,
1000
0100
1000
0100
1000
0100
1000
0100
1000
0100
1000
0100
1000
0100
1000
0100
,
1000
0100
1000
0100
1100
0000
0000
0000
0000
0000
0000
0000
1010
0000
0000
0000
,
0000
0110
0000
0000
0101
0000
0000
0011
,
0000
1001
0000
0000
,
0000
0110
0000
0000
,
1000
0100
0011
0000
0000
0110
0000
0000
,
1010
0000
0101
0000
0000
0110
0000
0000
,
1100
0000
1000
0100
1000
0010
0100
0001
,
0010
0001
1000
0100
0010
0001
1000
0010
,
0100
0001
0110
0000
0000
1001
0000
0000
,
0000
0000
0110
0000
0000
1001
0000
0000
,
0000
1010
0000
0000
,
0000
0010
0011
0000
0000
0000
0000
0000
,
0000
0001
0101
0000
0000
0000
0000
0000
,
0000
0100
1100
0000
0000
0000
0000
0000
,
0000
0001
1000
0010
1000
0100
0010
0001
,
0100
0001
1000
0010
0100
0001
1000
0100
,
0010
0001
1001
0000
0000
0110
0000
0000
,
0000
0000
1001
0000
0000
0110
0000
0000
,
0000
0000
1100
0000
0000
0110
0000
0000
,
0011
0000
1100
0000
0000
0110
0000
0000
,
0011
0000
1010
0000
0000
0110
0000
0000
,
0101
0000
1010
0000
0000
0110
0000
0000
,
0101
1100
0000
1010
,
0000
0110
0000
0101
,
0000
0011
0000
0101
,
0000
0110
0000
1010
,
0000
1001
0000
0000
;
