#TITLE:5.1.1.;
#SUBTITLE:(ANOTHER);
#ARTIST:dj nagureo;
#TITLETRANSLIT:;
#SUBTITLETRANSLIT:;
#ARTISTTRANSLIT:;
#GENRE:;
#CREDIT:;
#MUSIC:5.1.1. (ANOTHER).ogg;
#BANNER:5.1.1. (ANOTHER)-bn.png;
#BACKGROUND:5.1.1. (ANOTHER)-bg.png;
#CDTITLE:;
#SAMPLESTART:48.295;
#SAMPLELENGTH:19.010;
#SELECTABLE:YES;
#OFFSET:-0.176;
#BPMS:0.000=101.000;
#STOPS:;
#BGCHANGES:;
#FGCHANGES:;

//--------------- dance-single - ----------------
#NOTES:
     dance-single:
     :
     Beginner:
     2:
     0,0,0,0,0:
0000
1001
0000
1000
,
0100
1000
0100
1000
,
0100
1100
0000
1000
,
0000
0100
0000
0000
0010
0000
0000
0001
,
0000
1001
0000
0000
,
0000
0110
0000
0000
,
0000
1001
0000
0000
,
0000
0110
0000
0000
,
0000
1000
0000
0100
,
0000
0001
0000
0100
,
0000
0000
1000
0000
0000
1000
0000
0000
,
0000
0000
1000
0000
0000
1000
0000
0000
,
0000
1001
0000
0000
,
0000
0110
0000
0000
,
0000
1001
0000
0000
,
0000
0110
0000
0000
,
0000
0001
0000
0010
,
0000
1000
0000
0010
,
0000
0000
0001
0000
0000
0001
0000
0000
,
0000
0000
0001
0000
0000
0001
0000
0000
,
0000
1000
0000
0000
,
0100
0010
0000
0000
,
0001
0010
0000
0000
,
0100
1000
0000
0000
,
0010
0100
0000
0010
,
0000
1000
0000
0100
,
0000
0010
0000
0001
,
0000
0100
0000
0010
,
0000
1000
0000
0100
,
0010
0100
0010
1000
,
0010
0110
0000
0010
,
0100
0010
0100
0001
,
0100
0110
0000
0100
,
0010
0100
0010
0001
,
0010
0110
0000
0010
,
0100
0010
0100
1000
,
0100
0010
0000
0000
0000
0000
0000
0000
;

//--------------- dance-single - ----------------
#NOTES:
     dance-single:
     :
     Easy:
     3:
     0,0,0,0,0:
0000
0000
1001
0000
0000
0000
1000
0100
,
1000
0100
1000
0100
1000
0100
1000
0100
,
1000
0100
1100
0000
0000
0000
0100
0000
,
0000
0010
0000
0000
0001
0000
0000
1000
,
0000
1001
0000
0000
,
0000
0110
0000
0000
,
0000
1001
0000
0000
,
0000
0110
0000
0000
,
0000
1000
0100
0010
,
0100
1000
0010
0100
,
0001
0000
1000
0000
0000
1000
0000
0000
,
0000
0000
1000
0000
0000
1000
0000
0000
,
0000
1001
0000
0000
,
0000
0110
0000
0000
,
0000
1001
0000
0000
,
0000
0110
0000
0000
,
0000
0001
0010
0100
,
0010
0001
0100
0010
,
1000
0000
0001
0000
0000
0001
0000
0000
,
0000
0000
0001
0000
0000
0001
0000
0000
,
0000
1000
0100
0010
,
0100
1000
0100
0010
,
0001
0010
0100
0010
,
0100
1000
0100
0010
,
0001
1000
0010
0100
,
0010
1000
0010
0100
,
0001
0100
0010
0100
,
0010
1000
0010
0100
,
0001
0000
1001
0000
0000
0000
0100
0010
,
0100
0010
0100
0010
0100
0010
1000
0010
,
0100
0010
0110
0000
0000
0000
0010
0100
,
0010
0100
0010
0100
0010
0100
0001
0100
,
0010
0100
0110
0000
0000
0000
0100
0010
,
0100
0010
0100
0010
0100
0010
0001
0010
,
0100
0010
0110
0000
0000
0000
0010
0100
,
0010
0100
0010
0100
0010
0100
1000
0100
,
0010
0100
0000
0000
0000
0000
0000
0000
;

//--------------- dance-single - ----------------
#NOTES:
     dance-single:
     :
     Medium:
     5:
     0,0,0,0,0:
0000
0000
1001
0000
0000
0000
1000
0100
,
1000
0100
1000
0100
1000
0100
1000
0100
,
1000
0100
1100
0000
0000
0000
1010
0000
,
0000
0011
0000
0000
0101
0000
0000
1100
,
0000
0000
0000
0000
1001
0000
0100
0000
0000
0100
0000
0000
0100
0000
0000
0100
,
0000
0000
0100
0000
1010
0000
0100
0000
0000
0100
0000
0000
0100
0000
0000
0100
,
0000
0000
0100
0000
0011
0000
0100
0000
0000
0100
0000
0000
0100
0000
0000
0100
,
0000
0000
0100
0000
1001
0000
0100
0000
0000
0100
0000
0000
0100
0000
0000
0100
,
0000
0100
1000
0010
0100
0010
1000
0100
,
0010
0001
0100
0010
0100
0010
1000
0100
,
0010
0000
0001
0000
1001
0000
0100
0000
0000
0100
0000
0000
0100
0000
0000
0100
,
0000
0000
0100
0000
0110
0000
0100
0000
0000
0100
0000
0000
0100
0000
0000
0100
,
0000
0000
0100
0000
1001
0000
0010
0000
0000
0010
0000
0000
0010
0000
0000
0010
,
0000
0000
0010
0000
1100
0000
0010
0000
0000
0010
0000
0000
0010
0000
0000
0010
,
0000
0000
0010
0000
0101
0000
0010
0000
0000
0010
0000
0000
0010
0000
0000
0010
,
0000
0000
0010
0000
1001
0000
0010
0000
0000
0010
0000
0000
0010
0000
0000
0010
,
0000
0010
1000
0100
0010
0100
1000
0010
,
0100
0001
0010
0100
0010
0100
1000
0010
,
0100
0000
0001
0000
1001
0000
0010
0000
0000
0010
0000
0000
0010
0000
0000
0010
,
0000
0000
0010
0000
0110
0000
0010
0000
0000
0010
0000
0000
0010
0000
0000
0010
,
0000
0010
1000
0100
0010
0100
1000
0100
,
0010
0001
0010
0100
0010
0100
1000
0100
,
0010
0001
1000
0010
0100
0010
1000
0010
,
0100
0001
0100
0010
0100
0010
1000
0010
,
0100
0001
1000
0100
0010
0100
1000
0010
,
0100
0001
0010
0100
0010
0100
1000
0010
,
0100
0001
1000
0010
0100
0010
1000
0100
,
0010
0001
0100
0010
0100
0010
1000
0100
,
0010
0000
0001
0000
1001
0000
0010
0000
0000
0010
0000
0000
0010
0000
0000
0010
,
0000
0000
0010
0000
0000
0000
0010
0000
0000
0010
0000
0000
0010
0000
0000
0010
,
0000
0000
0010
0000
1001
0000
0100
0000
0000
0100
0000
0000
0100
0000
0000
0100
,
0000
0000
0100
0000
0000
0000
0100
0000
0000
0100
0000
0000
0100
0000
0000
0100
,
0000
0000
0100
0000
1001
0000
0010
0000
0000
0010
0000
0000
0010
0000
0000
0010
,
0000
0000
0010
0000
0000
0000
0010
0000
0000
0010
0000
0000
0010
0000
0000
0010
,
0000
0000
0010
0000
1001
0000
0100
0000
0000
0100
0000
0000
0100
0000
0000
0100
,
0000
0000
0100
0000
0000
0000
0100
0000
0000
0100
0000
0000
0100
0000
0000
0100
,
0000
0100
0000
0000
0000
0000
0000
0000
;

//--------------- dance-single - ----------------
#NOTES:
     dance-single:
     :
     Hard:
     9:
     0,0,0,0,0:
0000
0000
0000
0000
1001
0000
0000
0000
0000
0000
0000
0000
1000
0100
1000
0100
,
1000
0100
1000
0100
1000
0100
1000
0100
1000
0100
1000
0100
1000
0100
1000
0100
,
1000
0100
1000
0100
1100
0000
0000
0000
0000
0000
0000
0000
1010
0000
0000
0000
,
0000
0110
0000
0000
0101
0000
0000
0011
,
0000
1001
0000
0000
,
0000
0110
0000
0000
,
0000
1001
0000
0000
,
0000
0110
0000
0000
,
0000
0000
1000
0100
0010
0100
1000
0100
,
0010
0001
0010
0100
0010
0100
1000
0100
,
0010
0001
1001
0000
0000
0110
0000
0000
,
0000
0000
1001
0000
0000
0110
0000
0000
,
0000
1010
0000
0000
,
0000
0010
0011
0000
0000
0000
0000
0000
,
0000
0001
0101
0000
0000
0000
0000
0000
,
0000
0100
1100
0000
0000
0000
0000
0000
,
0000
0001
1000
0010
0100
0010
1000
0010
,
0100
0001
0100
0010
0100
0010
1000
0010
,
0100
0001
1001
0000
0000
0110
0000
0000
,
0000
0000
0000
0000
1001
0000
0000
0000
0000
0000
0110
0000
0000
0000
1000
0001
,
0010
0100
1000
0100
0010
0100
1000
0100
,
0010
0100
1000
0100
0010
0001
1000
0100
,
0010
0001
1000
0010
0100
0010
1000
0010
,
0100
0010
1000
0010
0100
0001
1000
0010
,
0100
0001
1000
0100
0010
0100
1000
0010
,
0100
0001
0010
0100
0010
0100
1000
0010
,
0100
0001
1000
0010
0100
0010
1000
0100
,
0010
0001
0100
0010
0100
0010
1000
0100
,
0010
0000
0001
0000
1001
0000
0000
0000
0000
0000
0000
0000
0100
0010
0100
0010
,
0100
0010
0100
0010
0100
0010
0100
0010
0100
0010
0100
0010
1000
0010
0100
0010
,
0100
0010
0100
0010
0110
0000
0000
0000
0000
0000
0000
0000
0010
0100
0010
0100
,
0010
0100
0010
0100
0010
0100
0010
0100
0010
0100
0010
0100
0001
0100
0010
0100
,
0010
0100
0010
0100
0110
0000
0000
0000
0000
0000
0000
0000
0100
0010
0100
0010
,
0100
0010
0100
0010
0100
0010
0100
0010
0100
0010
0100
0010
0001
0010
0100
0010
,
0100
0010
0100
0010
0110
0000
0000
0000
0000
0000
0000
0000
0010
0100
0010
0100
,
0010
0100
0010
0100
0010
0100
0010
0100
0010
0100
0010
0100
1000
0100
0010
0100
,
0010
0100
0010
0100
0000
0000
0000
0000
0000
0000
0000
0000
0000
0000
0000
0000
;

//--------------- dance-single - ----------------
#NOTES:
     dance-single:
     :
     Challenge:
     10:
     0,0,0,0,0:
0000
0000
0000
0000
1001
0000
0000
0000
0000
0000
0000
0000
1000
0100
1000
0100
,
1000
0100
1000
0100
1000
0100
1000
0100
1000
0100
1000
0100
1000
0100
1000
0100
,
1000
0100
1000
0100
1100
0000
0000
0000
0000
0000
0000
0000
0110
0000
0000
0000
,
0000
0011
0000
0000
0110
0000
0000
0101
,
0000
1001
0000
0000
,
0000
0110
0000
0000
,
1000
0001
0110
0000
0000
0011
0000
0000
,
0110
0000
1100
0000
0000
1010
0000
0000
,
0101
0000
0000
0000
1000
0100
1000
0100
0010
0100
0010
0100
0010
0001
0010
0001
,
1000
0001
1000
0001
1000
0010
1000
0010
0100
0010
0100
0010
0100
0001
0100
0001
,
1000
0001
1000
0001
1001
0000
0000
0000
0000
0000
1010
0000
0000
0000
0000
0000
,
0000
0000
0110
0000
0000
0011
0000
0010
,
0100
1000
1001
0000
0000
0000
0000
0000
,
0000
0010
0110
0000
0000
0000
0000
0000
,
0000
1000
1100
0000
0000
0000
0000
0000
,
0000
0001
0101
0000
0000
0000
0000
0000
,
0000
0000
0000
0000
1000
0010
1000
0010
0100
0010
0100
0010
0100
0001
0100
0001
,
1000
0001
1000
0001
1000
0100
1000
0100
0010
0100
0010
0100
0010
0001
0010
0001
,
1000
0001
1000
0001
1001
0000
0000
0000
0000
0000
0011
0000
0000
0000
0000
0000
,
0000
0000
0000
0000
0110
0000
0000
0000
0000
0000
1010
0000
0000
0000
1000
0100
,
0010
0000
0100
0000
1000
0100
0010
0001
0010
0100
1000
0100
0010
0001
0010
0100
,
1000
0100
0010
0001
1000
0010
0100
0001
0100
0010
1000
0010
0100
0001
0100
0010
,
1000
0010
0100
0001
1000
0100
0010
0001
0100
0010
1000
0010
0100
0001
0010
0100
,
1000
0100
0010
0001
1000
0010
0100
0001
0010
0100
1000
0100
0010
0001
0100
0010
,
1000
0010
0100
0001
1000
0100
0010
0100
1000
0100
0010
0001
1000
0010
0100
0010
,
1000
0010
0100
0001
1000
0100
0010
0100
1000
0010
0100
0001
1000
0010
0100
0010
,
1000
0100
0010
0001
1000
0100
0010
0001
1000
0100
0010
0001
1000
0010
0100
0001
,
1000
0010
0100
0001
1000
0100
0010
0100
1000
0100
0010
0001
1000
0010
0100
0010
,
1000
0100
0010
0001
1001
0000
1000
0100
0010
0000
0001
0000
0100
0010
0100
0010
,
0100
0010
0100
0010
0100
0010
0100
0010
0100
0010
0100
0010
1000
0010
0100
0010
,
0100
0010
0100
0010
0110
0000
0001
0010
0100
0000
1000
0000
0010
0100
0010
0100
,
0010
0100
0010
0100
0010
0100
0010
0100
0010
0100
0010
0100
1000
0100
0010
0100
,
0010
0100
0010
0100
0110
0000
1000
0010
0100
0000
0001
0000
0100
0010
0100
0010
,
0100
0010
0100
0010
0100
0010
0100
0010
0100
0010
0100
0010
0001
0010
0100
0010
,
0100
0010
0100
0010
0110
0000
0001
0100
0010
0000
1000
0000
0010
0100
0010
0100
,
0010
0100
0010
0100
0010
0100
0010
0100
0010
0100
0010
0100
0001
0010
0100
1000
,
0001
0100
0010
1000
0000
0000
0000
0000
0000
0000
0000
0000
0000
0000
0000
0000
;
