#TITLE:1950;
#SUBTITLE:;
#ARTIST:SLAM;
#TITLETRANSLIT:;
#SUBTITLETRANSLIT:;
#ARTISTTRANSLIT:;
#GENRE:;
#CREDIT:;
#MUSIC:1950.ogg;
#BANNER:1950-bn.png;
#BACKGROUND:1950-bg.png;
#CDTITLE:;
#SAMPLESTART:11.603;
#SAMPLELENGTH:19.200;
#SELECTABLE:YES;
#OFFSET:-0.203;
#BPMS:0.000=200.000
,98.000=100.000
,100.000=200.000
,164.000=50.000
,172.000=200.000
,296.000=100.000
,298.000=200.000
,362.000=66666.667
,376.000=200.000
;
#STOPS:362.000=2.750;
#DISPLAYBPM:200.000;
#BGCHANGES:-0.203=1950.avi=1.000=0=0=0=StretchNoLoop====,
99999.000=-nosongbg-=1.000=0=0=0=StretchNoLoop====
;
#FGCHANGES:;

//--------------- dance-single - ----------------
#NOTES:
     dance-single:
     :
     Beginner:
     9:
     0,0,0,0,0:
0000
0000
0000
0000
,
0000
0000
0000
0000
,
0000
0000
0000
0000
,
0000
0000
0000
0000
,
0000
0000
0000
0000
,
0000
0000
0000
0000
,
0000
0000
0000
0000
,
0000
0000
0000
0000
,
0000
0000
0000
0000
1000
0100
0001
0100
,
1000
0010
0001
0010
1000
0000
0100
0000
,
0010
0001
1000
0010
,
0100
0001
1000
1000
,
0001
0000
0001
0000
0100
0100
0100
0100
,
0100
0100
0100
0100
1000
0000
0010
0000
,
0100
0001
1000
0100
,
0010
0001
1000
1000
,
0001
0000
0001
0000
1000
0100
0010
0001
,
1000
0010
0100
0001
1000
0000
0100
0000
,
0010
0001
1000
0010
,
0100
0001
1000
1000
,
0001
0000
0001
0000
0010
0010
0010
0010
,
0010
0010
0010
0010
1000
0000
0010
0000
,
0100
0001
1000
0100
,
0010
0001
1000
1000
,
0001
0000
0000
0000
0001
0000
0000
0000
2002
0000
0000
0000
0000
0000
0000
3003
,
1001
1010
1100
1010
,
1001
1010
1100
1001
,
0101
0011
0101
1001
,
0000
0110
0000
0000
1001
0000
0000
0000
,
0101
0110
1100
0110
,
0101
0110
1100
0101
,
1001
0000
0000
1001
0000
0000
1001
0000
,
1001
0000
0000
1001
0000
0000
1001
0000
,
1010
0110
0011
0110
,
1010
0110
0011
1010
,
1000
0000
0000
0000
0100
0000
0000
0000
0010
0000
0000
0000
0001
0000
0000
1000
0000
0000
0001
0000
0000
0000
0000
0000
,
0000
0000
0010
0000
0000
0000
0000
0000
1000
0100
0000
0010
0001
0000
1000
0000
,
1001
0101
0011
0110
,
1010
1100
1010
1001
,
1000
0100
0010
0001
,
0100
0000
0010
0000
0100
0000
0010
0000
0100
0000
0010
0000
0100
0010
0100
0010
,
0200
0000
0000
0000
0000
0000
0000
0000
0000
0000
0000
0000
0002
0000
0000
0000
2303
3000
0000
0000
0000
0000
0000
0000
0000
0000
0000
0000
0020
0000
0000
0000
,
2032
0000
0000
0000
0000
0000
0000
0000
0000
0000
0000
3003
0000
0000
0000
0000
,
1000
1000
0100
0100
,
0010
0010
0001
0001
,
1000
0000
0000
0000
,
0001
0000
0000
0000
,
1000
1000
0010
0010
,
0100
0100
0001
0001
,
1000
0000
0000
0000
,
0001
0000
0000
0000
,
1000
0100
1000
0100
0010
0001
0010
0001
,
1000
0010
1000
0010
0100
0001
0100
0001
,
1000
0001
1000
0001
0100
0010
0100
0010
,
1000
0100
0010
0001
0100
0010
1000
0000
,
0001
0010
0001
0010
0100
1000
0100
1000
,
0001
0100
0001
0100
0010
1000
0010
1000
,
0001
0000
1000
0000
,
1000
0010
0001
0010
1000
0100
0001
0100
,
1000
0100
0010
0001
,
1000
0010
0100
0001
,
0100
0100
0010
0010
,
1000
1000
1000
1000
1000
1000
1000
1000
,
1000
0010
0100
0001
,
1000
0100
0010
0001
,
0100
0100
0010
0010
,
1000
0100
0010
0100
1000
0010
0100
0010
,
1000
0100
0010
0001
,
1000
0010
0100
0001
,
0100
0100
0010
0010
,
0001
0001
0001
0001
0001
0001
0001
0001
,
1000
0010
0100
0001
,
1000
0100
0010
0001
,
0100
0100
0010
0010
,
1001
0000
1000
0100
,
0010
0001
1000
0010
,
0100
0001
1000
0100
,
0010
0001
1000
0010
,
0100
0001
1000
0100
,
0010
0001
1000
0010
,
0100
0001
1000
0000
,
0000
0000
0001
0000
,
0000
0000
0000
0000
1000
0100
0010
0100
,
1000
0001
0100
0010
1000
0100
0001
0100
,
1000
0000
0010
0000
0100
0001
1000
0001
1000
0000
0100
0000
0010
0000
0001
0000
,
1000
0010
0100
0001
1000
0000
1100
0000
,
0001
0000
0101
0000
1000
0010
0001
0010
,
1000
0100
0010
0001
1000
0010
0100
0001
,
1000
0100
0001
0100
1000
0100
0010
0001
,
1000
0010
0100
0001
1000
0100
0010
0001
,
1000
0010
0100
0001
2002
0000
0000
0000
,
0000
0000
0000
0000
,
0000
0000
0000
0000
,
3003
0000
0000
0000
;

//--------------- dance-single - ----------------
#NOTES:
     dance-single:
     :
     Easy:
     13:
     0,0,0,0,0:
0000
0000
0000
0000
,
0000
0000
0000
0000
,
0000
0000
0000
0000
,
0000
0000
0000
0000
,
0000
0000
0000
0000
,
0000
0000
0000
0000
1000
0100
0010
0001
,
1000
0010
0100
0001
1000
0100
0010
0001
,
1000
0010
0100
0001
1000
0100
0010
0001
,
1000
0000
0010
0000
0100
0000
0001
0000
1000
0001
1000
0001
1000
0001
1000
0001
,
1000
0001
1000
0001
1000
0001
1000
0001
1000
0000
0000
0000
0100
0000
0000
0000
,
0001
0100
1000
0010
,
0001
0010
1000
0100
,
0010
0000
0001
0000
1000
1000
1000
1000
,
1000
0001
1000
0001
1000
0000
0010
0000
,
0001
0010
1000
0100
,
0001
0100
1000
0010
,
0100
0000
0001
0000
1000
0100
0010
0100
,
1000
0010
0100
0010
1000
0000
0100
0000
,
0001
0100
1000
0010
,
0001
0010
1000
0010
,
0100
0000
0001
0000
1000
1000
1000
1000
,
1000
0001
1000
0001
1000
0000
0010
0000
,
0001
0010
1000
0100
,
0001
0100
1000
0100
,
0010
0000
0000
0000
0001
0000
0000
0000
2002
0000
0000
0000
0000
0000
0000
3003
,
1000
0100
0010
0001
1000
0010
0100
0001
,
1000
0100
0010
0001
0100
0010
1000
0000
,
0001
0010
0100
1000
0010
0100
0001
0000
,
0000
0000
0000
0000
0000
0000
0000
0000
1000
0000
0000
0100
0000
0000
0010
0000
,
0001
0100
0010
1000
0001
0010
0100
1000
,
0001
0100
0010
1000
0100
0010
0001
0000
,
0000
0000
0000
0000
,
1000
0100
0010
0001
,
1000
0010
0100
0001
1000
0100
0010
0001
,
1000
0010
0100
0001
0010
0100
1000
0000
,
0001
0010
0100
1000
0100
0010
0001
0010
0100
1000
0000
0000
,
0000
0000
0000
0000
0000
0000
0000
0000
0100
0010
0000
0010
0100
0000
0100
1000
,
0001
0010
0100
1000
0001
0100
0010
1000
,
0001
0010
0100
1000
0010
0100
0001
0000
,
1000
0100
0010
0001
0100
0010
1000
0100
0010
0001
0100
0010
,
0100
0000
0000
0000
0000
0000
0010
0000
0000
0000
0000
0000
0100
0000
0000
0000
0010
0000
0000
0000
0100
0000
0000
0000
0010
0000
0000
0100
0000
0000
0010
0000
0000
0100
0000
0000
0010
0000
0100
0000
0010
0000
0100
0000
0010
0000
0100
0000
,
0020
0000
0000
0000
0000
0000
0000
0000
0000
0000
0000
0000
0002
0000
0000
0000
2033
3000
0000
0000
0000
0000
0000
0000
0000
0000
0000
0000
0200
0000
0000
0000
,
2302
0000
0000
0000
0000
0000
0000
0000
0000
0000
0000
3003
0000
0000
0000
0000
,
1000
0100
0010
0001
,
1000
0010
0100
0001
,
1000
0000
0000
0000
,
0001
0000
0000
0000
,
1000
0010
0100
0001
,
1000
0100
0010
0001
,
1000
0000
0000
0000
,
0001
0000
0000
0000
,
1000
0100
0010
0001
1000
0010
0100
0001
,
1000
0100
0010
0100
1000
0010
0100
0010
,
1000
0100
0001
0100
1000
0010
0001
0010
,
1000
0100
0010
0001
1000
0100
0010
0001
1000
0100
0010
0001
1000
0000
0001
0000
,
1000
0100
0010
1000
0100
0001
1000
0010
,
0001
0100
0010
0001
1000
0010
0100
0001
,
1000
0000
0001
0000
,
1000
0001
1000
0001
1000
0001
1000
0001
1000
0001
1000
0001
1000
0001
1000
0001
,
1000
1000
0100
0100
,
0010
0010
0001
0001
,
0100
0100
0010
0010
,
1000
1000
1000
1000
1000
0001
1000
0001
,
1000
1000
0010
0010
,
0100
0100
0001
0001
,
0010
0010
0100
0100
,
1000
0010
0100
0010
1000
0100
0010
0100
,
1000
1000
0100
0100
,
0010
0010
0001
0001
,
0100
0100
0010
0010
,
1000
1000
1000
1000
1000
0001
1000
0001
,
1000
1000
0010
0010
,
0100
0100
0001
0001
,
0010
0010
0100
0100
,
2002
0000
0000
0000
0000
0000
0000
3003
1000
0000
0000
0000
0001
0000
0000
0000
,
1000
0000
0000
0001
1000
0001
1000
0000
0000
0000
0000
0000
1000
0001
1000
0001
0000
0000
0001
1000
0001
1000
0000
0000
,
1000
0000
0000
0000
0000
0000
0001
0010
0001
0010
0001
0010
0001
0000
0000
0000
0000
0000
0010
0000
0000
0000
0000
0000
,
0100
0000
0000
0000
0000
0000
1000
0010
1000
0010
1000
0010
1000
0000
0000
0001
0100
0001
0100
0000
0000
0000
0000
0000
,
0001
0000
0000
0000
0000
0000
1000
0000
0000
0000
0000
0000
0100
0000
0000
0000
0000
0000
1000
0000
0000
1000
0010
1000
,
0010
1000
0010
1000
0000
0000
0100
0000
0000
0000
0000
0000
0001
0010
0001
0010
0000
0000
0100
0010
0100
0010
0000
0000
,
1000
0000
0000
0001
1000
0001
1000
0000
0000
0000
0000
0000
0001
0000
0000
0000
0000
0000
0000
0000
0000
0000
0000
0000
,
0000
0000
1000
0000
,
0000
0000
0000
0000
1000
0100
0010
0100
,
1000
0010
0001
0010
1000
0100
0010
0001
,
0100
0000
0000
0000
0000
0000
0000
0000
0000
0000
0000
0000
0000
0000
0000
0000
0000
0000
0000
0000
0000
0000
0000
0000
0010
0000
0000
0000
0000
0000
0000
0000
0000
0000
0000
0000
0000
0000
0000
0000
0000
0000
0000
0000
0000
0000
0000
0000
1000
0000
0000
0000
0000
0000
0000
0000
0000
0000
0001
0000
0000
0000
0000
0000
0000
0000
0000
1000
0000
0000
0000
0000
0000
0000
0000
0000
0000
0001
0000
0000
0000
0000
0000
0000
0000
0000
1000
0000
0000
0000
0000
0000
0000
0000
0000
0000
0001
0000
0000
0000
0000
0000
0000
0000
0000
0000
0000
0000
0000
0000
0000
0000
0000
0000
0000
0000
0000
0000
0000
0000
0010
0000
0000
0000
0000
0000
0000
0000
0000
0000
0000
0000
0000
0000
0000
0000
0000
0000
0000
0000
0000
0000
0000
0000
0100
0000
0000
0000
0000
0000
0000
0000
0000
0000
0000
0000
0000
0000
0000
0000
0000
0000
0000
0000
0000
0000
0000
0000
0010
0000
0000
0000
0000
0000
0000
0000
0000
0000
0000
0000
0000
0000
0000
0000
0000
0000
0000
0000
0000
0000
0000
0000
,
1000
0000
0000
0100
0000
0000
0010
0000
0000
0001
0000
0000
1000
0000
0100
0000
1000
0000
0100
0000
0000
0000
0000
0000
,
0001
0000
0100
0000
0001
0000
0100
0000
0000
0000
0000
0000
1000
0000
0000
0100
0000
0000
0001
0000
0000
0100
0000
0000
,
1000
0010
0100
0010
1000
0100
0010
0100
,
1000
0000
0010
0000
0001
0000
0010
0000
1000
0100
1000
0100
0010
0001
0010
0001
,
1000
0010
1000
0010
0100
0001
0100
0001
1000
0100
0010
0001
1000
0010
0100
0001
,
1000
0100
0010
0001
1000
0010
0100
0001
2002
0000
0000
0000
0000
0000
0000
0000
,
0000
0000
0000
0000
,
0000
0000
0000
0000
,
3003
0000
0000
0000
;

//--------------- dance-single - ----------------
#NOTES:
     dance-single:
     :
     Medium:
     15:
     0,0,0,0,0:
0000
0000
0000
0000
,
0000
0000
0000
0000
1000
0100
0010
0100
,
1000
0100
0010
0100
1000
0100
0010
0100
,
1000
0100
0010
0100
1000
0010
0100
0010
,
1000
0010
0100
0010
1000
0010
0100
0010
,
1000
0010
0100
0010
1000
0100
0010
0001
,
1000
0100
0010
0001
1000
0100
0010
0001
,
1000
0100
0010
0001
1000
0010
0100
0001
,
1000
0000
0010
0000
0100
0000
0001
0000
1000
0001
1000
0001
1000
0001
1000
0001
,
1000
0001
1000
0001
1000
0001
1000
0001
1000
0000
0100
0000
0010
0000
0001
0000
,
1000
0010
0100
0001
1000
0100
0001
0100
,
1000
0010
0001
0010
1000
0100
0010
0100
,
1000
0010
0100
0010
1000
1000
1000
1000
,
1000
0100
1000
0100
1000
0100
1000
0100
1000
0000
0100
0000
0010
0000
0001
0000
,
1000
0010
0100
0010
1000
0100
0010
0100
,
1000
0010
0100
0001
1000
0100
0001
0100
,
1000
0000
0010
0000
0001
0000
0010
0000
1000
0100
1000
0100
1000
0100
1000
0100
,
0010
0001
0010
0001
0010
0001
0010
0001
1000
0000
0010
0000
0100
0000
0001
0000
,
1000
0100
0010
0001
1000
0010
0001
0010
,
1000
0100
0001
0100
1000
0010
0100
0010
,
1000
0100
0010
0100
1000
1000
1000
1000
,
1000
0010
1000
0010
1000
0010
1000
0010
1000
0000
0010
0000
0100
0000
0001
0000
,
1000
0100
0010
0100
1000
0010
0100
0010
,
1000
0100
0010
0001
1000
0010
0001
0010
,
1000
0100
0001
0100
2000
0000
0000
0000
,
3001
0000
0001
0000
0001
0000
0001
0000
0001
0000
0001
0010
0001
0000
0001
0000
,
0001
0000
0001
0000
0001
0000
0001
1000
0001
0000
0001
0100
0001
0000
0000
0000
,
0010
0000
0010
0000
0010
0000
0010
0000
0010
0000
0010
0100
0010
0000
0000
0000
,
0000
0000
1000
0000
0000
0000
0100
0010
0001
0000
0000
0010
0000
0000
0100
0000
,
1000
0000
1000
0000
1000
0000
1000
0000
1000
0000
1000
0100
1000
0000
1000
0000
,
1000
0000
1000
0000
1000
0000
1000
0001
1000
0000
1000
0010
1000
0000
0000
0000
,
1000
0000
0001
0000
0000
0000
0010
0000
0000
0000
0100
0001
1000
0000
0000
0000
,
1000
0100
1000
0100
0010
0001
0010
0001
1000
0001
1000
0001
1000
0000
0000
0000
,
0010
0000
0010
0000
0010
0000
0010
0100
0010
0000
0010
0000
0010
0000
0010
0001
,
0010
0000
0010
1000
0010
0000
0010
0000
0010
0100
0010
0100
0010
0000
0000
0000
,
1000
0100
0010
1000
0100
0010
1000
0100
0001
1000
0000
0000
,
0000
0000
0001
0000
0000
0000
0000
0000
1000
1000
0000
0010
0010
0000
0001
0001
,
0100
0000
0100
0000
0100
0000
0100
0010
0100
0000
0100
0000
0100
0000
0100
1000
,
0100
0000
0100
0001
0100
0000
0100
0000
0100
0010
0100
0010
0100
0000
0000
0000
,
1000
0100
0001
0010
0100
1000
0010
0001
0100
0010
1000
0100
,
0010
0000
0000
0000
0000
0000
0100
0000
0000
0000
0000
0000
0010
0000
0000
0000
0000
0000
0100
0000
0000
0000
0000
0000
0010
0000
0000
0000
0000
0000
0100
0000
0000
0000
0000
0000
0010
0000
0000
0000
0000
0000
0100
0000
0000
0000
0000
0000
0010
0000
0000
0000
0100
0000
0000
0000
0010
0000
0000
0000
0100
0000
0000
0000
0010
0000
0000
0000
0100
0000
0000
0000
0010
0000
0000
0100
0000
0000
0010
0000
0000
0100
0000
0000
0010
0000
0000
0100
0000
0000
0010
0000
0000
0100
0000
0000
,
0020
0000
0000
0000
0000
0000
2030
0000
3200
0000
0320
0000
0032
0000
2003
3000
,
2000
3200
0320
0032
2003
3020
0230
0302
2003
3200
0320
0032
0003
0000
0000
0000
,
1000
1000
0100
0100
0010
0010
0001
0001
,
1000
0100
1000
0100
0010
0001
0010
0001
0100
0000
0100
0000
0010
0000
0010
0000
,
1000
1000
0000
1000
0000
1000
1000
0000
,
1000
0100
0010
0001
0100
0010
1000
0100
0010
0001
0000
0000
,
1000
1000
0010
0010
0100
0100
0001
0001
,
1000
0010
1000
0010
0100
0001
0100
0001
0010
0000
0010
0000
0100
0000
0100
0000
,
1000
0000
1000
0000
0000
0000
1000
0000
0000
0000
1000
0000
1000
0000
0100
0010
,
0001
0010
0100
1000
0020
0000
0000
0000
,
1030
0100
1000
0100
0010
0001
0010
0001
1000
0010
1000
0010
0100
0001
0100
0001
,
1000
0100
1000
0100
0010
0001
0010
0001
1000
0010
1000
0010
0100
0001
0100
0001
,
1000
0100
0010
0001
1000
0010
0100
0001
1000
0100
0010
0001
1000
0010
0100
0001
,
1000
0100
1000
0001
0100
0010
1000
0100
0001
0100
1000
0010
0100
0001
0010
0100
,
1000
0100
1000
0100
0010
0001
0010
0001
1000
0010
1000
0010
0100
0001
0100
0001
,
0010
0100
0010
0100
1000
0001
1000
0001
0100
0010
0100
0010
1000
0001
1000
0001
,
1000
0000
0000
0000
0000
0000
0200
0010
0301
0000
0000
0000
0000
0000
0000
0000
,
1000
0100
0010
0001
0100
0010
1000
0100
0010
0001
0100
0010
1000
0100
0010
0001
,
1000
0100
0010
0100
1000
0100
0010
0100
,
1000
0010
0100
0010
1000
0010
0100
0010
,
1000
0100
0010
0001
1000
0100
0010
0001
,
0100
0000
0100
0000
0100
0000
0100
0000
0100
0010
0100
0010
0100
0010
0100
0010
,
1000
0100
0010
0100
1000
0100
0010
0100
,
1000
0010
0100
0010
1000
0010
0100
0010
,
1000
0010
0100
0001
1000
0010
0100
0001
,
1000
0100
0010
0001
0100
0010
1000
0100
0010
0100
0010
0100
0010
0100
0010
0100
,
1000
0010
0100
0010
1000
0010
0100
0010
,
1000
0100
0010
0100
1000
0100
0010
0100
,
1000
0010
0100
0001
1000
0010
0100
0001
,
0010
0000
0010
0000
0010
0000
0010
0000
0010
0100
0010
0100
0010
0100
0010
0100
,
1000
0010
0100
0010
1000
0010
0100
0010
,
1000
0100
0010
0100
1000
0100
0010
0100
,
1000
0100
0010
0001
1000
0010
0100
0001
1000
0100
0010
0001
1000
0010
0100
0001
,
2000
0000
0000
0000
3001
0010
0100
1000
,
0001
0000
0000
1000
0100
0010
0001
0000
0000
0001
0000
0000
0010
0001
1000
0010
0000
0000
0001
0100
0010
1000
0000
0000
,
0001
0000
0000
1000
0000
0000
0100
0010
0001
0100
1000
0010
0100
0000
0000
0001
0000
0000
1000
0000
0000
0010
0000
0000
,
0100
0000
0000
0001
0000
0000
1000
0100
0010
0100
0001
0010
1000
0000
0000
0100
0001
0010
0100
0000
0000
0001
0000
0000
,
1000
0000
0000
0000
0000
0000
0000
0000
0000
1000
0000
0000
0000
0000
0000
0000
0000
0000
1000
0000
0000
0000
0000
0000
1000
0000
0000
0000
0000
0000
0100
0000
0000
0000
0000
0000
0001
0000
0000
0000
0000
0000
0010
0000
0100
0000
0001
0000
,
0010
0100
1000
0010
0000
0000
0001
0000
0000
1000
0000
0000
0100
0010
0001
0100
0000
0000
0010
0100
1000
0010
0000
0000
,
0001
0000
0000
1000
0100
0010
0001
0000
0000
0001
0000
0000
1000
0000
0000
1000
0000
0000
0000
0000
0000
1000
0000
0000
,
0000
1000
1000
0000
1000
0001
0000
1000
,
1000
0001
1000
0001
1000
0000
0001
0000
1000
0100
1000
0100
0010
0001
0010
0001
,
1000
0010
1000
0010
0100
0001
0100
0001
1000
0100
0010
0001
1000
0010
0100
0001
,
1000
0100
0010
0001
1000
0010
0100
0001
1000
0001
1000
0001
0100
0010
0100
0010
,
1000
0000
0000
0001
0000
0000
1000
0000
0000
0001
0000
0000
0010
0000
0000
0100
0000
0000
0010
0000
0000
0100
0000
0000
1000
0000
0000
0000
0100
0000
0000
0000
0010
0000
0000
0000
0001
0000
0000
0000
0000
0000
0000
0000
0000
0000
0000
0000
,
0001
0000
0000
0000
0100
0000
0000
0000
0010
0000
0000
0000
1000
0000
0000
0000
0000
0000
0000
0000
0000
0000
0000
0000
1000
0000
0000
0100
0000
0000
0010
0000
0000
0100
0000
0000
1000
0000
0000
0001
0000
0000
0100
0000
0000
0010
0000
0000
,
1000
0100
0001
0100
1000
0010
0100
0001
0010
0100
1000
0001
1000
0010
0100
0010
,
1000
0001
0010
0100
1000
0010
0001
0010
1000
0100
0010
0001
0100
0010
1000
0001
,
1000
0100
0010
0001
1000
0010
0100
0001
1000
0100
0001
0100
1000
0010
0001
0010
,
1000
0000
0000
0100
0000
0000
0001
0000
0000
0100
0000
0000
1000
0000
0001
0000
1000
0000
0001
0000
1000
0000
0001
0000
2002
0000
0000
0000
0000
0000
0000
0000
0000
0000
0000
0000
0000
0000
0000
0000
0000
0000
0000
0000
0000
0000
0000
0000
,
0000
0000
0000
0000
,
0000
0000
0000
0000
,
3003
0000
0000
0000
;

//--------------- dance-single - ----------------
#NOTES:
     dance-single:
     :
     Hard:
     16:
     0,0,0,0,0:
0000
0000
0000
0000
,
0000
0000
0000
0000
,
0000
0000
0000
0000
,
0000
0000
0000
0000
,
0000
0000
0000
0000
,
0000
0000
0000
0000
1000
0100
0010
0001
,
1000
0010
0100
0001
1000
0100
0010
0100
,
1000
0010
0100
0010
1000
0100
0001
0100
,
1000
0000
0010
0000
0001
0000
0010
0000
1000
0100
1000
0010
0100
0001
0010
1000
,
0010
0001
0100
0010
1000
0100
0010
0001
1001
0000
0100
0000
0010
0000
0001
0000
,
1000
0000
0010
0000
0100
0000
0001
0000
1000
0100
0010
0100
1000
0000
0000
0000
,
0001
0100
0010
0100
0001
0000
0000
0000
1000
0000
0100
0000
0010
0000
0001
0000
,
0100
0010
1000
0001
1100
1100
0110
0110
,
1000
0100
1000
0100
0010
0100
0010
0100
1000
0000
0010
0000
0100
0000
0001
0000
,
1000
0000
0100
0000
0010
0000
0001
0000
1000
0010
0100
0010
1000
0000
0000
0000
,
0001
0010
0100
0010
0001
0000
0000
0000
1000
0000
0010
0000
0001
0000
0010
0000
,
1000
0000
0100
0000
0001
0000
0100
0000
1000
0010
0001
0100
1000
0100
0001
0010
,
0100
0010
0100
0010
0100
0010
0100
0010
1000
0000
0100
0000
0010
0000
0100
0000
,
1000
0000
0010
0000
0100
0000
0010
0000
1000
0100
0010
0001
1000
0000
0000
0000
,
0001
0100
0010
1000
0001
0000
0000
0000
1000
0000
0010
0000
0100
0000
0001
0000
,
1000
0100
0010
0001
1010
1010
1001
1001
,
1000
0010
1000
0010
1000
0001
1000
0001
1000
0000
0010
0000
0100
0000
0010
0000
,
1000
0100
0010
0100
1000
0010
0100
0001
,
1000
0100
0010
0001
1000
0100
0001
0100
,
1000
0000
0010
0000
0100
0000
0001
0000
2002
0000
0000
0000
0000
0000
0000
3003
,
1001
0000
1000
0000
1010
0000
1000
0000
1100
0000
1000
0010
1000
0000
1000
0000
,
1001
0000
1000
0000
1100
0000
1000
0001
1000
0000
0010
0100
0010
0000
0000
0000
,
1010
0000
0010
0000
0010
0000
0011
0000
0010
0000
0010
0100
1001
0000
0000
0000
,
0000
0000
0110
0000
0000
0000
0010
0100
1001
0000
0000
1001
0000
0000
1001
0000
,
1001
0000
0001
0000
0011
0000
0001
0000
0101
0000
0001
0010
0001
0000
0001
0000
,
1001
0000
0001
0000
0101
0000
0001
0010
0001
0000
0100
0010
0100
0000
0000
0000
,
1001
0000
1001
0000
0000
0000
1001
0000
0000
0000
0010
0100
1001
0000
0000
0000
,
1000
0100
0010
1000
0100
0001
1000
0010
0001
0100
0010
0001
1000
0000
0000
0000
,
0101
0000
0100
0000
0110
0000
0100
1000
0100
0000
0100
0000
0110
0000
0100
0001
,
0100
0000
0100
1000
0100
0000
0100
0000
0100
0010
0100
0010
1001
0000
0000
0000
,
1000
0100
0010
0001
0100
0010
1000
0100
0010
0001
0000
0000
,
0000
0000
0110
0000
0000
0000
0000
0000
1001
0001
0000
0110
0100
0000
1010
0010
,
1010
0000
0010
0000
0110
0000
0010
0001
0010
0000
0010
0000
0110
0000
0010
1000
,
0010
0000
0010
0001
0010
0000
0010
0000
0010
0100
0010
0100
1001
0000
0000
0000
,
1000
0010
0100
0001
0010
0100
1000
0010
0100
0001
0010
0100
,
1000
0000
0000
0001
0000
0000
1000
0000
0000
0001
0000
0000
1000
0000
0000
0001
0000
0000
1000
0000
0000
0001
0000
0000
1000
0000
0001
0000
1000
0000
0001
0000
1000
0000
0001
0000
1000
0000
0001
0000
1000
0000
0001
0000
1000
0000
0001
0000
,
2001
3200
0320
0032
2003
3020
0230
0302
2003
0200
3302
0200
2303
0020
3032
0020
,
1033
0000
0100
0010
0000
0001
0010
0100
1000
0000
0010
0100
0000
0001
0100
0010
1000
0000
0100
0010
0000
0001
1000
0001
0000
0000
0000
0000
0000
0000
0000
0000
,
1001
0110
0011
1010
,
1000
0100
0001
0100
1000
0100
0001
0100
1000
0000
0000
0000
0110
0000
0000
0000
,
1100
0101
0000
0110
0000
1001
1001
0000
,
1000
0100
0010
0100
1000
0010
0100
0010
1000
0001
0000
0000
,
1001
0000
0000
0000
1100
0000
0000
0000
0101
0000
0000
0000
0110
0000
1000
0100
,
0010
0000
0001
0100
0010
0000
1000
0001
1000
0010
0001
0010
1000
0000
0000
0000
,
1010
0000
0011
0000
0000
0000
0110
0000
0000
0000
1001
0000
1001
0000
1000
0001
,
1000
0100
0010
0001
0002
0000
0000
0000
,
1003
0100
1000
0010
0100
0001
0010
1000
0010
0001
1000
0001
0100
0010
1000
0100
,
1000
0010
0100
0010
1000
0100
0010
0100
1000
0010
0001
0010
1000
0100
0001
0100
,
1000
0010
0100
0001
1000
0100
0010
0001
1000
0100
0010
0001
1000
0010
0100
0001
,
1000
0100
0010
0100
1000
0010
0100
0001
1000
0100
0010
0001
1000
0010
0100
0010
1000
0100
0020
0000
0000
0030
0000
0000
,
1000
0100
0010
0100
1000
0010
0001
0100
1000
0010
0100
0010
1000
0100
0001
0010
,
1000
0100
0010
1000
0100
0001
1000
0010
0001
0100
0010
0001
1000
0010
0100
0001
,
1000
0000
0000
0000
0000
0000
0001
0100
0010
0000
0000
0000
0000
0000
0000
0000
,
1000
0001
1000
0001
1000
0100
0010
1000
0100
0001
1000
0010
0001
0100
0010
0001
,
1001
0000
0000
0000
0110
0000
0000
0000
1000
0100
0010
0100
1000
0010
0100
0010
,
1000
0100
0001
0010
1000
0010
0001
0100
,
1100
0101
0011
1010
,
1100
0000
1100
0000
0101
0000
0101
0000
1000
0100
1000
0100
0001
0100
0001
0100
,
1001
0000
0000
0000
0110
0000
0000
0000
1000
0100
0010
0001
1000
0010
0100
0001
,
1000
0100
0001
0100
1000
0010
0001
0010
,
1010
0011
0101
1100
,
1000
0100
0001
0010
0100
1000
0010
0001
0100
0010
0100
0010
0100
0010
0100
0010
,
0110
0000
0000
0000
1001
0000
0000
0000
1000
0010
0100
0010
1000
0100
0010
0100
,
1000
0010
0001
0100
1000
0100
0001
0010
,
1010
1100
0101
0011
,
1010
0000
1010
0000
0011
0000
0011
0000
1000
0010
1000
0010
0001
0010
0001
0010
,
0110
0000
0000
0000
1001
0000
0000
0000
1000
0010
0100
0001
1000
0100
0010
0001
,
1000
0010
0001
0010
1000
0100
0001
0100
,
1100
1010
0011
0101
,
2002
0000
0000
0000
0000
0000
0000
3003
1000
0000
0100
0000
0010
0000
0001
0000
,
1000
0000
0000
0000
0001
1000
0001
1000
0001
0000
0000
0000
0010
0000
0000
0000
0100
0010
0100
0010
0100
0000
0000
0000
0010
0100
0010
0000
1000
0000
0000
0000
,
0100
0000
0000
0000
0010
0000
0000
0000
0001
0010
0001
0010
0001
0010
0001
0010
0001
0000
0000
0000
0010
0000
0000
0000
0100
0000
0000
0000
1000
0000
0000
0000
,
0001
0000
0000
0000
1000
0000
0000
0000
1000
0100
1000
0100
1000
0100
1000
0100
1000
0000
0000
0000
0001
0100
0001
0100
0001
0000
0000
0000
0010
0000
0000
0000
,
1000
0000
0000
0000
0000
0000
0000
0000
0000
0000
0000
0000
0000
0000
0000
0000
0100
0000
0000
0000
0000
0000
0000
0000
0000
0000
0000
0000
0000
0000
0000
0000
0010
0000
0000
0000
0000
0000
0000
0000
0000
0000
0000
0000
0000
0000
0000
0000
0001
0000
0000
0000
0000
0000
0000
0000
0000
0000
0000
0000
0010
0000
0000
0000
0000
0000
0000
0000
0000
0000
0000
0000
0100
0000
0000
0000
0000
0000
0000
0000
0000
0000
0000
0000
1000
0000
0000
0010
0000
0000
1000
0000
0000
0010
0000
0000
,
1000
0010
1000
0010
1000
0000
0000
0000
0100
0000
0000
0000
0010
0000
0000
0000
0001
0010
0001
0010
0001
0000
0000
0000
1000
0010
1000
0010
1000
0000
0000
0000
,
0001
0000
0000
0000
0100
0001
0100
0001
0100
0000
0000
0000
0000
0000
0000
0000
0110
0000
0000
0000
0110
0000
0000
0000
0000
0000
0000
0000
0110
0000
0000
0000
,
0000
1001
1001
0000
1001
1001
0000
1001
,
1000
0001
1000
0001
1000
0000
0000
0000
1000
0100
0010
0100
1000
0010
0001
0010
,
1000
0100
0010
0001
1000
0010
0100
0010
1000
0000
0100
0010
0000
0010
0001
0000
,
0001
0000
1000
0000
0001
0000
1000
0000
0001
0010
0100
0010
0001
0010
0100
0010
0001
0000
0010
0000
0100
0000
0010
0000
1000
0000
0100
0000
0010
0000
0001
0000
,
1000
0000
0000
0010
0000
0000
0100
0000
0000
0001
0000
0000
1000
0000
0000
0100
0000
0000
0010
0000
0000
0001
0000
0000
1000
0000
0000
0000
0100
0000
0000
0000
1000
0000
0000
0000
1010
0000
0000
0000
0000
0000
0000
0000
0000
0000
0000
0000
,
0001
0000
0000
0000
0010
0000
0000
0000
0001
0000
0000
0000
0101
0000
0000
0000
0000
0000
0000
0000
0000
0000
0000
0000
1001
0000
0000
0000
0000
0000
0000
0000
0000
0000
0000
0000
1000
0000
0000
0100
0000
0000
0001
0000
0000
0010
0000
0000
,
0100
0000
1000
0000
0000
0000
0000
0000
0100
0000
0010
0000
1000
0000
0001
0000
0010
0100
0000
0000
0000
0000
1000
0100
0000
0000
0000
0000
0010
0001
0000
0000
,
1000
0000
0000
0001
0000
0000
1000
0000
0000
0001
0000
0000
1000
0000
0000
0000
0000
0000
0001
0000
0000
0000
0000
0000
1000
0000
0000
0000
0000
0000
0001
0000
0100
0000
0001
0000
0100
0000
0000
0010
0000
0000
0100
0000
0000
0001
0000
0000
,
1000
0000
0000
0000
0000
0000
0001
0000
0010
0000
0001
0000
0010
0000
0000
0100
0000
0000
0010
0000
0000
0001
0000
0000
1000
0000
0100
0000
0010
0000
0100
0000
1000
0000
0010
0000
0100
0000
0001
0000
0010
0000
0100
0000
1000
0000
0010
0000
,
0100
0010
1000
0100
0010
0001
1000
0000
0000
0001
0000
0000
2002
0000
0000
0000
0000
0000
0000
0000
0000
0000
0000
0000
,
0000
0000
0000
0000
,
0000
0000
0000
0000
,
3003
0000
0000
0000
;

//--------------- dance-single - ----------------
#NOTES:
     dance-single:
     :
     Challenge:
     20:
     0,0,0,0,0:
0000
0000
0000
0000
,
0000
0000
0000
0000
1001
1001
1000
0100
,
0001
0010
0100
1000
1001
1001
0001
0010
,
1000
0100
0010
0001
1001
1001
1000
0010
,
0001
0100
0010
1000
1001
1001
0001
0100
,
1000
0010
0100
0001
1001
1001
1000
0010
,
0001
0100
0010
0100
0101
1100
0001
0100
,
1000
0010
0100
0010
1010
0011
1000
0100
,
0010
0000
0001
0000
0100
0000
0010
0000
1000
0100
0010
1000
0100
0001
1000
0010
,
0001
0100
0010
0001
0010
0100
0001
0010
1000
0000
0100
0000
0001
0000
0010
0000
,
1000
0000
0000
0100
0000
0000
0001
0000
0000
0010
0000
0000
1000
0000
0000
0010
0000
0000
0001
0000
0000
0100
0000
0000
1000
0000
0000
0000
0000
0000
0010
0000
0100
0000
0010
0000
0100
0000
0000
0000
0000
0000
0001
0000
0000
0000
0000
0000
,
0010
0000
0000
0100
0010
0100
0010
0000
0000
1000
0000
0000
0100
0000
0000
0001
0000
0000
1000
0000
0000
0100
0000
0000
,
0010
0001
0100
1000
1100
0101
1100
0101
,
1000
0100
0010
1000
0100
0001
0010
0100
1000
0000
0100
0000
0001
0000
0010
0000
,
1000
0000
0010
0000
0100
0000
0001
0000
1000
0100
0001
0010
1000
0000
1000
0000
,
0001
0010
1000
0100
0001
0000
0001
0000
1000
0000
0100
0000
0001
0000
0010
0000
,
1000
0000
0010
0000
0001
0000
1000
0000
0001
0010
0100
0001
0010
1000
0001
0100
,
1000
0010
0100
1000
0001
0100
1000
0010
0001
0000
0010
0000
1000
0000
0100
0000
,
0001
0000
0010
0000
0100
0000
1000
0000
0001
0010
0100
0010
1000
0010
0100
0010
,
1000
0100
0010
0100
0001
0100
0010
0100
0001
0000
0010
0000
1000
0000
0100
0000
,
0001
0100
1000
0010
1010
0011
1010
0011
,
1000
0100
0001
0010
1000
0010
0001
0100
1000
0000
0010
0000
0001
0000
1000
0000
,
0100
0010
1000
0100
0001
0100
0010
0001
,
1000
0000
0010
0000
0001
0000
0100
0000
1000
0100
0010
0000
0001
0010
0100
0000
,
1000
0010
0100
0000
0001
0100
0010
0000
2002
0000
0000
0000
0000
0000
0000
3003
,
1100
0000
0110
0000
0101
0000
0110
0000
1100
0000
0100
0010
0100
0000
0101
0000
,
1100
0000
0110
0000
1100
0000
0100
0001
0100
0000
0100
1000
0110
0000
0000
0000
,
1001
0000
0001
0100
0001
0010
1001
0000
1000
0100
1000
0010
1001
0000
0000
0000
,
0000
0000
0110
0000
0000
0000
0000
1100
0101
0000
0011
0000
0000
1010
0000
0000
,
0110
0000
1010
0000
0011
0000
1010
0000
0110
0000
0010
0100
0010
0000
0011
0000
,
1010
0000
0110
0000
0011
0000
0010
1000
0010
0000
0010
0001
0110
0000
0000
0000
,
1001
0000
0110
0000
0000
0000
0110
0000
0000
0000
0110
0010
1001
0000
0000
0000
,
1000
0100
0010
1000
0100
0001
1000
0010
0001
0100
0010
0001
1000
0000
0000
0000
,
1001
0000
1100
0000
1010
0000
1000
0001
1000
0000
1010
0000
1100
0000
1001
0010
,
1000
0000
1001
0100
1000
0000
1100
0000
1000
0010
1000
0100
1001
0000
0000
0000
,
1000
0100
0010
1000
0100
0001
0100
0010
0001
1000
0000
0000
,
0000
0000
0110
0000
0000
0000
0000
0000
1010
0011
0000
0101
1100
0000
0110
1001
,
1001
0000
0011
0000
0101
0000
0001
1000
0001
0000
0101
0000
0011
0000
1001
0100
,
0001
0000
1001
0010
0001
0000
0101
0000
0001
0010
0001
0100
1001
0000
0001
0000
,
1000
0100
0001
0010
1000
0010
0001
0100
1000
0100
0010
0001
,
0100
0000
0000
0000
0000
0000
0010
0000
0000
0000
0000
0000
0100
0000
0000
0000
0000
0000
0010
0000
0000
0000
0000
0000
0100
0000
0000
0000
0000
0000
0010
0000
0000
0000
0000
0000
0100
0000
0000
0000
0010
0000
0000
0000
0100
0000
0000
0000
0010
0000
0000
0000
0100
0000
0000
0000
0010
0000
0000
0000
0100
0000
0000
0000
0010
0000
0000
0000
0100
0000
0000
0000
0010
0000
0000
0100
0000
0000
0010
0000
0000
0100
0000
0000
0010
0000
0000
0100
0000
0000
0010
0000
0000
0100
0000
0000
,
0020
0000
0000
0000
0000
0000
0000
0000
0000
0000
0000
0000
0002
0000
0000
0000
2030
3003
0000
0000
0000
0000
0000
0000
0000
0000
0000
0000
0200
0000
0000
0000
,
2302
0000
0000
3003
,
1001
0100
0011
1000
0101
0010
1100
0001
,
0110
0010
0001
0100
1000
0100
0010
0001
1000
0000
0001
0000
0110
0000
0010
0000
,
1100
1100
0000
0110
0000
0101
0101
0000
,
1000
0000
0100
0000
0001
0000
1000
0000
0010
0000
0001
0000
1000
0000
0100
0000
0001
0000
1000
0000
0000
0001
0000
0000
,
0110
0000
0001
0000
1010
0000
0100
0000
0011
0000
1000
0000
0110
0000
0001
0010
,
1010
0000
1000
0100
0101
0000
0001
0100
1000
0010
0001
0010
1000
0000
0000
0000
,
0110
0000
0110
0000
0000
0000
1001
0000
0000
0000
1010
0000
1010
0000
1000
0100
,
0001
0000
0010
0000
0100
0000
0001
0000
1000
0001
1000
0001
1000
0001
1000
0001
,
1000
0000
0100
0000
0001
0000
0010
0000
1000
0000
0010
0000
0001
0000
0100
0000
1000
0000
0010
0000
0100
0001
0010
0100
1000
0000
0010
0000
0001
0000
0100
0000
,
1000
0100
0001
0010
1000
0100
0010
1000
0100
0001
1000
0010
0001
0100
0010
0001
,
1000
0100
0001
0100
1000
0100
0001
0010
1000
0010
0001
0010
1000
0100
0010
0001
,
1000
0000
0100
0000
0010
0000
1000
0000
0100
0000
0001
0000
1000
0000
0010
0000
0001
0000
0100
0000
0010
0000
0001
0000
0010
0000
0100
0000
0001
0000
0010
0000
1000
0000
0001
0000
1000
0000
0000
0001
0000
0000
1000
0000
0000
0001
0000
0000
,
1000
0000
0100
0000
0010
0000
0100
0000
0000
0001
0000
0000
1000
0000
0010
0000
0100
0000
0010
0000
0000
0001
0000
0000
1000
0000
0100
0000
0010
0000
0100
0000
0000
0001
0000
0000
0100
0000
0010
0000
0001
0000
0010
0000
0000
1000
0000
0000
,
0010
0000
0001
0000
1000
0000
0001
0000
0000
0100
0000
0000
0001
0000
1000
0000
0100
0000
1000
0000
0000
0010
0000
0000
1000
0000
0100
0000
0010
0000
0100
0000
0000
0001
0000
0000
0010
0000
0100
0000
1000
0000
0010
0000
0100
0000
0001
0000
,
1000
0000
0000
0000
0000
0000
0001
0010
1000
0000
0000
0000
1000
0000
0001
0000
,
1000
0100
0001
0010
1000
0100
0010
1000
0100
0001
1000
0010
0001
0100
0010
0001
,
1001
0000
0010
0000
0101
0000
0010
0000
1000
0100
0001
0010
1000
0010
0001
0100
,
1000
0000
0010
0001
1000
0000
0100
0000
0100
0000
0010
1000
0001
0000
0010
0000
,
1100
0010
0001
0100
1000
0100
0010
0001
,
0101
0000
1100
0000
1010
0000
0011
0000
1001
0100
0001
0010
1000
0010
0001
0100
,
1001
0000
0010
0000
1100
0000
0001
0000
0010
0100
1000
0100
0010
0001
0100
0010
,
1000
0000
0100
0010
0001
0000
1000
0000
1000
0000
0001
0100
1000
0000
0010
0000
,
1000
0100
0001
0010
1000
0010
0001
0100
,
1000
0100
0010
1000
0100
0001
1000
0010
0001
0100
0010
0001
1000
0010
0100
0001
,
1001
0000
0010
0000
0011
0000
0100
0000
1000
0010
0001
0100
1000
0010
0100
0001
,
1000
0000
0001
0010
1000
0000
0100
0000
0100
0000
0001
0100
1000
0000
0010
0000
,
1000
0100
0001
0010
1000
0100
0010
0001
,
0011
0000
1010
0000
1100
0000
0101
0000
1001
0010
0001
0100
1000
0100
0001
0010
,
1001
0100
0011
1000
0110
0001
1010
0001
,
1000
0100
1000
0100
0000
0000
0001
0100
0001
0100
0000
0000
1000
0010
1000
0010
0000
0000
0001
0010
0001
0010
0000
0000
,
1000
0100
0010
0001
0000
0000
1000
0010
0100
0001
0000
0000
0001
0010
0100
1000
0000
0000
0001
0100
0010
1000
0000
0000
,
2002
0000
0000
0000
0000
0000
0000
3003
1001
0000
0100
0000
0010
0000
0001
0000
,
1000
0000
0000
0000
0010
0100
0001
1000
0100
0000
0000
0000
0001
0000
0000
0000
0100
0010
1000
0001
0010
0000
0000
0000
1000
0010
0100
1000
0010
0000
0000
0000
,
0001
0000
0000
0000
0010
0000
0000
0000
0100
0010
1000
0100
0001
0010
0100
1000
0001
0000
0000
0000
0010
0000
0000
0000
0100
0000
1000
0000
0000
0000
1000
0000
,
0010
0000
0000
0000
0001
0000
0000
0000
0010
0001
0100
0010
0001
0100
0010
1000
0100
0000
0000
0000
0010
0001
0100
0010
1000
0000
0000
0000
0010
0000
0000
0000
,
1000
0001
0000
0000
0000
0000
0001
1000
0000
0000
0000
0000
1000
0001
0000
0000
1001
0000
0000
0000
0100
0000
0000
0000
0001
0000
0000
0000
0010
0100
1000
0010
,
0001
0100
0010
1000
0100
0000
0000
0000
0010
0000
0001
0000
1000
0000
0000
0000
0100
0010
1000
0001
0100
0000
0001
0000
0010
0100
0001
1000
0100
0000
0001
0000
,
1000
0000
0000
0000
0100
0010
0001
0100
1000
0000
0000
0000
0001
0000
0000
0000
1001
0000
0000
0000
0110
0000
0000
0000
0000
0000
0000
0000
0110
0000
0000
0000
,
0000
0000
0110
1000
1001
0000
0010
0000
1000
0100
0010
1000
0000
0001
0010
0100
,
1000
0010
0001
0100
1000
0000
0001
0000
1000
0100
0010
1000
0100
0001
0100
1000
,
0010
0100
1000
0001
0100
0010
0001
0100
0110
0000
0010
0110
0000
0100
0110
0000
,
0001
0000
0010
0000
0100
0000
0001
0000
0010
0100
1000
0001
0010
0100
0001
0010
1000
0000
0100
0000
0001
0000
0010
0000
1000
0000
0010
0000
0001
0000
0100
0000
,
0001
0000
0000
0010
0000
0000
0100
0000
0000
1000
0000
0000
0010
0000
0000
0100
0000
0000
1000
0000
0000
0001
0000
0000
1010
0000
0000
0000
0011
0000
0000
0000
0101
0000
0000
0000
1100
0000
0000
0000
0000
0000
0000
0000
0000
0000
0000
0000
,
1100
0000
0000
0000
0101
0000
0000
0000
0011
0000
0000
0000
1010
0000
0000
0000
0000
0000
0000
0000
0000
0000
0000
0000
1000
0000
0000
0000
0000
0000
0001
0000
0000
0010
0000
0000
1000
0000
0000
0100
0000
0000
0001
0000
0000
0010
0000
0000
,
0100
1000
0001
0100
0010
0001
1000
0001
1000
0100
0001
0100
1000
0010
0001
0010
,
1000
0000
0000
0000
0000
0000
0100
0000
0000
0000
0000
0000
0010
0000
0000
0000
0000
0000
0100
0000
0000
0000
0000
0000
0001
0000
0000
0000
0000
0000
0010
0000
0000
0000
0000
0000
0100
0000
0000
0000
0000
0000
0010
0000
0000
0000
0000
0000
1000
0000
0000
0000
0000
0000
0001
0000
0000
0000
0000
0000
0100
0000
0000
0010
0000
0000
1000
0000
0000
0001
0000
0000
0010
0000
0000
0000
0000
0000
0001
0000
0000
0000
0000
0000
0100
0000
0000
0000
0010
0000
0000
0000
1000
0000
0000
0000
,
0100
0000
0001
0000
0100
1000
0001
0010
1000
0000
0100
0000
0001
0000
0010
0000
0100
0000
1000
0000
0100
0010
0001
0100
1000
0010
0100
0001
0100
0010
0001
0100
,
0010
1000
0100
0001
0100
1000
0010
0000
1000
0000
0001
0000
0100
0000
0010
0000
2002
0000
0000
0000
0000
0000
0000
0000
0000
0000
0000
0000
0000
0000
0000
0000
,
0000
0000
0000
0000
,
0000
0000
0000
0000
,
3003
0000
0000
0000
;
