#VERSION:0.83;
#TITLE:1116;
#SUBTITLE:;
#ARTIST:BEMANI Sound Team "Dustup";
#TITLETRANSLIT:;
#SUBTITLETRANSLIT:;
#ARTISTTRANSLIT:Dustup;
#GENRE:1116;
#ORIGIN:;
#CREDIT:;
#BANNER:;
#BACKGROUND:;
#PREVIEWVID:;
#JACKET:;
#CDIMAGE:;
#DISCIMAGE:;
#LYRICSPATH:;
#CDTITLE:;
#MUSIC:1116.ogg;
#OFFSET:-0.049000;
#SAMPLESTART:1.312000;
#SAMPLELENGTH:10.105000;
#SELECTABLE:YES;
#DISPLAYBPM:1116.000000;
#BPMS:0.000=190.000,
68.000=1116.000,
116.000=380.000,
624.000=95.000,
640.000=190.000,
688.000=760.000,
827.000=190.000,
828.000=760.000,
852.000=1520.000,
860.000=380.000,
887.000=190.000,
888.000=760.000,
912.000=3040.000,
928.000=380.000,
944.000=190.000,
945.000=380.000,
952.000=190.000,
953.000=380.000,
960.000=190.000,
968.000=380.000,
984.000=190.000,
1186.000=573.000;
#STOPS:68.000=2.500,
945.000=0.100,
945.750=0.100,
946.250=0.100,
947.000=0.100,
947.500=0.050,
947.750=0.050,
948.000=0.050,
948.500=0.100,
949.000=0.100,
949.500=0.100,
950.250=0.100,
951.000=0.100,
951.500=0.050,
953.000=0.100,
953.750=0.100,
954.250=0.100,
955.000=0.100,
955.500=0.050,
955.750=0.050,
956.000=0.050,
956.500=0.100,
957.000=0.100,
957.500=0.100,
958.250=0.100,
959.000=0.100,
959.500=0.050;
#DELAYS:;
#WARPS:204.000=10.000,
214.333=10.000,
224.667=10.000,
235.000=10.000,
245.333=10.000,
255.667=10.000,
266.000=10.000,
276.333=10.000,
286.667=10.000,
297.000=10.000,
307.333=10.000,
317.667=10.000,
328.000=10.000,
338.333=10.000,
348.667=10.000,
359.000=10.000,
369.333=10.000,
379.667=10.000,
390.000=10.000,
426.000=10.000,
436.333=10.000,
446.667=10.000,
457.000=10.000,
467.333=10.000,
477.667=10.000,
488.000=10.000,
498.333=10.000,
508.667=10.000,
519.000=10.000,
529.333=10.000,
539.667=10.000,
550.000=10.000,
560.333=10.000,
570.667=10.000,
581.000=10.000,
591.333=10.000,
601.667=10.000,
612.000=10.000,
670.000=16.000,
816.000=11.000,
876.000=11.000,
984.000=10.000,
994.250=10.000,
1008.000=10.000,
1018.250=10.000,
1032.000=10.000,
1042.250=10.000,
1056.000=10.000,
1066.250=10.000,
1080.000=10.000,
1090.250=10.000,
1104.000=10.000,
1114.250=10.000,
1128.000=10.000,
1138.250=10.000,
1152.000=10.000,
1162.250=10.000,
1176.000=10.000;
#TIMESIGNATURES:0.000=4=4;
#TICKCOUNTS:0.000=4;
#COMBOS:0.000=1;
#SPEEDS:0.000=1.000=0.000=0;
#SCROLLS:0.000=2.000,
36.000=1.000,
984.000=2.000,
1172.250=1.000,
1186.000=1.948;
#FAKES:;
#LABELS:4.000=1,
16.000=6,
20.000=1,
32.000=6,
36.000=1,
48.000=6,
52.000=1,
64.000=6,
68.125=WE,
72.000=WON'T,
78.000=MAKE,
82.000=IT,
87.000=IN,
91.000=TIME,
98.000=FOR,
101.000=THIS,
106.000=SCHEDULE,
203.667=6111,
214.000=1611,
224.333=1161,
234.667=1116,
245.000=6111,
255.333=1611,
265.667=1161,
276.000=1116,
286.333=6111,
296.667=1611,
307.000=1161,
317.333=1116,
327.667=6111,
338.000=1611,
348.333=1161,
358.667=1116,
369.000=6111,
379.333=1611,
389.667=1161,
400.000=1116,
425.667=6111,
436.000=1611,
446.333=1161,
456.667=1116,
467.000=6111,
477.333=1611,
487.667=1161,
498.000=1116,
508.333=6111,
518.667=1611,
529.000=1161,
539.333=1116,
549.667=6111,
560.000=1611,
570.333=1161,
580.667=1116,
591.000=6111,
601.333=1611,
611.667=1161,
622.000=1116,
686.000=DEAD,
687.000=LINE,
932.000=I,
934.000=HAVE,
936.000=TO,
940.000=COLLABORATE,
1186.000=KONAMI;
#BGCHANGES:;
#KEYSOUNDS:;
#ATTACKS:
;

//---------------dance-single - ----------------
#NOTEDATA:;
#CHARTNAME:;
#STEPSTYPE:dance-single;
#DESCRIPTION:;
#CHARTSTYLE:;
#DIFFICULTY:Beginner;
#METER:7;
#RADARVALUES:0.291204,0.571104,0.430048,0.094611,0.167719,237.000000,187.000000,50.000000,11.000000,192.000000,0.000000,1.000000,0.000000,0.000000,0.291204,0.571104,0.430048,0.094611,0.167719,237.000000,187.000000,50.000000,11.000000,192.000000,0.000000,1.000000,0.000000,0.000000;
#CREDIT:;
#OFFSET:-0.049000;
#BPMS:0.000000=190.000000
;
#STOPS:68.000000=4.750000
;
#DELAYS:;
#WARPS:;
#TIMESIGNATURES:0.000000=4=4
;
#TICKCOUNTS:0.000000=4
;
#COMBOS:0.000000=1
;
#SPEEDS:0.000000=1.000000=0.000000=0
;
#SCROLLS:0.000000=2.000000
,36.000000=1.000000
;
#FAKES:;
#LABELS:0.000000=Song Start
;
#DISPLAYBPM:1116.000000;
#NOTES:
0000
0000
0000
0000
,
0MM0
MMM0
MMM0
00M0
00M0
00M0
00M0
MMMM
MMMM
0000
0000
0000
0000
0000
0000
0000
,
0MM0
MMM0
MMM0
00M0
00M0
00M0
00M0
MMMM
MMMM
0000
0000
0000
0000
0000
0000
0000
,
0MM0
MMM0
MMM0
00M0
00M0
00M0
00M0
MMMM
MMMM
0000
0000
0000
0000
0000
0000
0000
,
MMMM
MMMM
MM00
MM00
MMMM
M00M
M00M
MMMM
MMMM
0000
0000
0000
0000
0000
0000
0000
,
0MM0
MMM0
MMM0
00M0
00M0
00M0
00M0
MMMM
MMMM
0000
0000
0000
0000
0000
0000
0000
,
0MM0
MMM0
MMM0
00M0
00M0
00M0
00M0
MMMM
MMMM
0000
0000
0000
0000
0000
0000
0000
,
0MM0
MMM0
MMM0
00M0
00M0
00M0
00M0
MMMM
MMMM
0000
0000
0000
0000
0000
0000
0000
,
MMMM
MMMM
MM00
MM00
MMMM
M00M
M00M
MMMM
MMMM
0000
0000
0000
0000
0000
0000
0000
,
1001
0000
0000
0000
,
1001
0000
0000
0000
,
1001
0000
0000
0000
,
0110
0000
0000
0000
,
1001
0000
0000
0000
,
1001
0000
0000
0000
,
1001
0000
0000
0000
,
0110
0000
0000
0000
,
2002
3003
0000
0000
0000
0000
0000
0000
0000
0000
0000
0000
0000
0000
0000
0000
1001
0000
0000
0000
0000
0000
0000
0000
0000
0000
0000
0000
0000
0000
0000
0000
1000
0000
0000
0000
0000
0000
0000
0000
0000
0000
0000
0000
0000
0000
0000
0000
0100
0000
0000
0000
0000
0000
0000
0000
0000
0000
0000
0000
0000
0000
0000
0000
,
0010
0001
0010
0100
,
1000
0001
0010
0100
,
1000
0100
0010
0001
,
1000
1001
1000
0010
,
0100
0001
0100
0010
,
1000
0001
0100
0010
,
1000
0010
0100
0001
,
1000
1001
0000
0100
,
0000
0001
0000
0010
,
0000
1000
0000
0100
,
0000
0000
0001
0010
0100
1000
0100
0010
,
0001
1001
0000
0010
,
0000
1000
0000
0100
,
0000
0001
0000
0010
,
0000
0000
1000
0010
0100
0001
0100
0010
,
1000
1001
0000
0000
,
0000
0000
0000
0000
,
0000
0000
0000
0000
,
0000
1000
0100
0010
,
0001
1001
0000
0000
,
0000
0000
0000
0000
,
0000
0000
0000
0000
,
0000
0001
0010
0100
,
1000
1001
0000
0000
,
0000
1001
0000
0000
,
0000
1001
0000
0000
,
0000
1001
0000
0000
,
0000
1001
0000
1001
,
0000
1001
0000
1001
,
0000
1001
1001
1001
,
1001
2002
3003
MMMM
,
MMMM
1000
0100
1000
,
0100
0010
0100
1000
,
0100
0010
0001
0100
,
0010
0001
0010
0100
,
1000
1000
0100
0100
,
0010
0010
0001
0001
,
1000
0100
0010
0001
,
1000
2002
3003
0000
,
0000
MMMM
1001
0000
,
0000
0000
0000
0000
,
1000
0000
1001
0000
0000
0001
0000
0010
,
0000
0010
0000
0100
0000
0100
0000
1000
,
1000
MMMM
1001
0100
,
0010
0100
0010
0100
,
2002
0000
0000
3003
1001
0000
0000
0000
0100
0000
0000
0000
0010
0000
0000
0000
,
0001
0000
0010
0000
0000
0100
0000
0000
,
1000
0000
0000
0000
0001
0000
0000
0000
0010
0000
0000
0010
0000
0010
0000
0000
,
0010
0000
0010
0000
0010
0000
0010
0000
0010
0000
0010
0000
0000
0010
0000
0000
,
0010
0000
0010
0000
1000
0000
0000
0000
0100
0000
0000
0100
0000
0100
0000
0000
,
0100
0000
0100
0000
0100
0000
0100
0000
0100
0000
0100
0000
0000
0100
0000
0000
,
0100
0000
0000
0000
0000
0000
0000
0000
0100
0000
0000
0000
0000
0000
0000
0000
0002
0000
0000
0000
0000
0000
0000
0000
0000
0000
0000
4000
0000
0000
0000
0000
0000
0000
0000
0000
0000
0000
0000
0000
0000
0000
0000
0000
0000
0000
0000
0000
0000
0000
0000
0000
0000
0000
0000
0000
0000
0000
0000
0000
0000
0000
0000
0000
,
0000
0000
0000
0000
,
0000
3003
1001
0000
0000
0000
1001
0000
,
1001
1001
1001
1001
,
1001
1001
0000
0000
,
0000
1001
0000
0000
,
0000
1001
0000
0000
,
0000
1001
0000
0000
,
0000
1001
0000
0000
,
0000
1001
0000
0000
,
0000
1001
0000
0000
,
0000
1001
0000
0000
,
0000
2002
0000
0000
,
0000
0000
0000
0000
,
3003
0000
0000
0000
;

//---------------dance-single - ----------------
#NOTEDATA:;
#CHARTNAME:;
#STEPSTYPE:dance-single;
#DESCRIPTION:;
#CHARTSTYLE:;
#DIFFICULTY:Easy;
#METER:10;
#RADARVALUES:0.536946,0.949547,0.576265,0.111813,0.391344,437.000000,370.000000,67.000000,13.000000,192.000000,0.000000,0.000000,0.000000,0.000000,0.536946,0.949547,0.576265,0.111813,0.391344,437.000000,370.000000,67.000000,13.000000,192.000000,0.000000,0.000000,0.000000,0.000000;
#CREDIT:;
#OFFSET:-0.049000;
#BPMS:0.000000=190.000000
,133.000000=95.000000
,149.000000=190.000000
,181.000000=380.000000
,245.000000=190.000000
,246.000000=380.000000
,260.000000=190.000000
,269.000000=380.000000
,281.000000=760.000000
,285.000000=190.000000
,357.000000=380.000000
;
#STOPS:68.000000=4.750000
;
#DELAYS:;
#WARPS:;
#TIMESIGNATURES:0.000000=4=4
;
#TICKCOUNTS:0.000000=4
;
#COMBOS:0.000000=1
;
#SPEEDS:0.000000=1.000000=0.000000=0
;
#SCROLLS:0.000000=2.000000
,36.000000=1.000000
;
#FAKES:;
#LABELS:0.000000=Song Start
;
#DISPLAYBPM:1116.000000;
#NOTES:
0000
0000
0000
0000
,
0MM0
MMM0
MMM0
00M0
00M0
00M0
00M0
MMMM
MMMM
0000
0000
0000
0000
0000
0000
0000
,
0MM0
MMM0
MMM0
00M0
00M0
00M0
00M0
MMMM
MMMM
0000
0000
0000
0000
0000
0000
0000
,
0MM0
MMM0
MMM0
00M0
00M0
00M0
00M0
MMMM
MMMM
0000
0000
0000
0000
0000
0000
0000
,
MMMM
MMMM
MM00
MM00
MMMM
M00M
M00M
MMMM
MMMM
0000
0000
0000
0000
0000
0000
0000
,
0MM0
MMM0
MMM0
00M0
00M0
00M0
00M0
MMMM
MMMM
0000
0000
0000
0000
0000
0000
0000
,
0MM0
MMM0
MMM0
00M0
00M0
00M0
00M0
MMMM
MMMM
0000
0000
0000
0000
0000
0000
0000
,
0MM0
MMM0
MMM0
00M0
00M0
00M0
00M0
MMMM
MMMM
0000
0000
0000
0000
0000
0000
0000
,
MMMM
MMMM
MM00
MM00
MMMM
M00M
M00M
MMMM
MMMM
0000
0000
0000
0000
0000
0000
0000
,
1001
1000
0001
1000
,
1001
0001
1000
0001
,
1001
0010
0100
0010
,
0110
0100
0010
0100
,
1001
0000
1000
0001
0000
0001
1000
0000
,
1001
0000
0001
1000
0000
1000
0001
0000
,
1001
1000
0100
0010
0001
0010
0100
1000
,
0110
0000
0000
0000
,
2002
3003
0000
0000
0000
0000
0000
0000
0000
0000
0000
0000
0000
0000
0000
0000
2002
0000
3003
0000
0000
0000
0000
0000
0000
0000
0000
0000
1000
0000
0000
0000
0000
0000
0000
0000
0000
0000
0000
0000
0100
0000
0000
0000
0000
0000
0000
0000
0000
0000
0000
0000
0010
0000
0000
0000
0000
0000
0000
0000
0000
0000
0000
0000
,
0001
0000
0000
0000
1001
0000
0000
0001
0000
0000
0010
0000
0000
0100
0000
0000
,
1000
0000
0000
0000
1001
0000
0000
1000
0000
0000
0010
0000
0000
0100
0000
0000
,
0001
0000
0000
0000
1001
0000
0000
0001
0000
0000
0100
0000
0000
0010
0000
0000
,
1000
0000
0000
0000
0000
0000
0000
0000
2002
3003
0000
0000
0000
0000
1000
0000
0000
0000
0000
0000
0100
0000
0000
0000
0000
0000
0001
0000
0000
0000
0000
0000
,
0010
0000
0000
0000
1001
0000
0000
0001
0000
0000
0010
0000
0000
1000
0000
0000
,
0100
0000
0000
0000
1001
0000
0000
1000
0000
0000
0010
0000
0000
0001
0000
0000
,
0100
0000
0000
0000
1001
0000
0000
0001
0000
0000
0100
0000
0000
1000
0000
0000
,
0010
1001
0100
0010
,
0001
0000
1000
1000
1000
1000
0010
0010
,
0010
0010
0100
0000
0001
0000
0010
0000
,
1000
0000
0000
1000
0100
0010
0001
0010
0100
1000
0100
0010
,
0001
1001
0010
0100
,
1000
0000
0001
0001
0001
0001
0100
0100
,
0100
0100
0010
0000
1000
0000
0100
0000
,
0001
0000
0000
0001
0010
0100
1000
0100
0010
0001
0010
0100
,
1000
0000
1000
0100
0010
0001
1000
0010
,
0100
0000
0000
0001
0000
0000
1000
0000
0000
0100
0000
0000
0010
0000
0000
0001
0000
0000
1000
0100
0010
0001
0010
0100
,
1000
0100
0010
0001
0000
0000
1000
0000
0000
0010
0000
0000
0100
0000
0000
0001
0000
0000
1000
0000
0000
0100
0000
0000
,
0010
0000
0000
0001
0000
0000
1000
0000
0000
0010
0000
0000
0100
0000
0000
0001
0000
0000
1000
0010
0100
0001
0100
0010
,
1000
0010
0100
0001
0000
0000
1001
0000
0000
0000
0000
0000
1100
0000
0000
0000
0000
0000
0110
0000
0000
0000
0000
0000
,
0011
1001
0101
0110
,
1010
1001
1100
0110
,
0101
1001
0011
0110
,
1010
0000
1001
0001
1000
0000
0001
1000
,
0001
0000
0100
0010
0100
0000
0010
0100
,
0010
0000
1000
0100
0010
0001
0010
0100
,
1000
0001
0001
MMMM
,
MMMM
1001
0000
0100
,
0000
0010
0000
0001
,
0000
1000
0000
0010
,
0000
0100
0000
0001
,
0000
1000
0100
0010
,
0000
0001
0000
1000
,
0010
0100
0000
0001
,
0000
1000
1000
0001
,
0001
0001
0000
0010
,
0000
0100
0000
1000
,
0000
0001
0000
0100
,
0000
0010
0000
1000
,
0000
0001
0000
1000
,
0000
0010
0000
0100
,
0000
0001
0000
0000
,
0000
1000
0000
0002
,
0003
MMMM
1001
0000
,
1000
0000
0100
0000
,
0100
0000
0010
0000
,
0010
0000
0001
0000
,
0001
0000
0000
1000
0000
0100
0000
0010
,
0000
0001
0000
0010
0000
0100
1000
0000
,
MMMM
1000
0000
0100
,
0000
0000
0010
0000
0000
0002
0003
0000
,
0000
0010
0000
0100
,
0000
2000
0000
0000
,
3000
1000
0100
0010
,
0001
0000
0000
1000
0000
0100
0000
0010
0000
0001
0000
1000
,
0000
0000
0000
0000
0001
0000
0000
0000
0000
0000
0000
0000
1001
0000
0000
0000
0000
0000
0000
0000
0000
0000
0000
0000
0110
0000
0000
0000
0000
0000
0000
0000
0000
0110
0000
0000
0000
0000
0000
0110
0000
0000
0000
0000
0000
0000
0000
0000
,
0110
0000
0010
0000
0110
0000
0100
0000
0110
0000
0010
0000
0000
0110
0000
0000
,
0110
0000
0010
0000
1001
0000
0000
0000
0110
0000
0000
0110
0000
0110
0000
0000
,
0110
0000
0100
0000
0110
0000
0010
0000
0110
0000
0100
0000
0000
0110
0000
0000
,
0110
0000
0000
0000
0000
0000
0000
0000
0100
0000
0000
0000
0000
0000
0000
0000
1001
0000
0000
0000
0000
0000
0000
0000
0000
0000
0000
1000
0000
0000
0000
0000
0000
0000
0000
0000
0000
0000
0100
0000
0000
0000
0000
0000
0000
0000
0000
0000
0000
0010
0000
0000
0000
0000
0000
0000
0000
0000
0000
0000
0001
0000
0000
0000
,
0000
0000
0000
0000
0000
0000
0000
0100
0000
0000
0000
0000
0000
0000
0000
0000
0000
0000
0010
0000
0000
0000
0000
0000
0000
0000
0000
0000
0000
1000
0000
0000
0000
0000
0000
0000
0000
0000
0000
0000
1001
0000
0000
0000
0000
0000
0000
0000
0001
0000
0000
0000
0000
0000
0000
0000
1000
0000
0000
0000
0000
0000
0000
0000
,
0001
1000
0001
0010
0100
1000
0001
0010
,
0010
0100
0010
0010
0001
0010
0010
0100
,
1000
0001
1000
0001
1001
0000
0000
0000
0100
0000
0000
0000
0100
0000
0000
0000
,
0100
1001
0010
0010
,
0010
1001
1000
1000
,
1000
1001
0001
0001
,
0001
0000
1001
0000
1000
0001
0000
0001
,
1000
0000
1001
0000
0001
1000
0000
1000
,
0001
0000
1001
0000
0010
0100
0000
0100
,
0010
0000
1001
1000
0100
0000
0020
0000
,
0032
0003
2002
0000
0000
0000
0000
0000
,
0000
0000
0000
0000
,
0000
0000
0000
0000
,
3003
0000
0000
0000
;

//---------------dance-single - ----------------
#NOTEDATA:;
#CHARTNAME:;
#STEPSTYPE:dance-single;
#DESCRIPTION:;
#CHARTSTYLE:;
#DIFFICULTY:Medium;
#METER:12;
#RADARVALUES:0.798661,1.734385,0.722481,1.212736,0.709580,650.000000,566.000000,84.000000,141.000000,184.000000,0.000000,0.000000,0.000000,0.000000,0.798661,1.734385,0.722481,1.212736,0.709580,650.000000,566.000000,84.000000,141.000000,184.000000,0.000000,0.000000,0.000000,0.000000;
#CREDIT:;
#OFFSET:-0.049000;
#BPMS:0.000000=190.000000
,68.000000=1116.000000
,116.000000=190.000000
,180.000000=95.000000
,196.000000=190.000000
,228.000000=380.000000
,292.000000=190.000000
,293.000000=380.000000
,305.000000=760.000000
,309.000000=380.000000
,325.000000=190.000000
,326.000000=380.000000
,338.000000=760.000000
,342.000000=190.000000
,374.000000=380.000000
,390.000000=190.000000
,422.000000=573.000000
;
#STOPS:68.000000=2.500000
;
#DELAYS:;
#WARPS:;
#TIMESIGNATURES:0.000000=4=4
;
#TICKCOUNTS:0.000000=4
;
#COMBOS:0.000000=1
;
#SPEEDS:0.000000=1.000000=0.000000=0
;
#SCROLLS:0.000000=2.000000
,36.000000=1.000000
;
#FAKES:;
#LABELS:0.000000=Song Start
;
#DISPLAYBPM:1116.000000;
#NOTES:
0000
0000
0000
0000
,
0MM0
MMM0
MMM0
00M0
00M0
00M0
00M0
MMMM
MMMM
0000
0000
0000
0000
0000
0000
0000
,
0MM0
MMM0
MMM0
00M0
00M0
00M0
00M0
MMMM
MMMM
0000
0000
0000
0000
0000
0000
0000
,
0MM0
MMM0
MMM0
00M0
00M0
00M0
00M0
MMMM
MMMM
0000
0000
0000
0000
0000
0000
0000
,
MMMM
MMMM
MM00
MM00
MMMM
M00M
M00M
MMMM
MMMM
0000
0000
0000
0000
0000
0000
0000
,
0MM0
MMM0
MMM0
00M0
00M0
00M0
00M0
MMMM
MMMM
0000
0000
0000
0000
0000
0000
0000
,
0MM0
MMM0
MMM0
00M0
00M0
00M0
00M0
MMMM
MMMM
0000
0000
0000
0000
0000
0000
0000
,
0MM0
MMM0
MMM0
00M0
00M0
00M0
00M0
MMMM
MMMM
0000
0000
0000
0000
0000
0000
0000
,
MMMM
MMMM
MM00
MM00
MMMM
M00M
M00M
MMMM
MMMM
0000
0000
0000
0000
0000
0000
0000
,
1001
1000
0100
0010
0001
0010
0100
1000
,
1001
1000
0010
0100
0001
0100
0010
1000
,
1001
1000
0100
0010
0001
0100
0010
1000
,
0110
1000
0010
0100
0001
0010
0100
1000
,
1001
1000
0001
1000
0001
1000
0001
1000
,
1001
0100
0010
0100
0010
0100
0010
0100
,
1001
1000
0001
1000
0001
1000
0001
1000
0001
1000
0001
1000
0001
1000
0001
1000
,
0110
0000
0000
0000
,
2002
3003
0000
0000
0000
0000
0000
0000
0000
0000
0000
0000
0000
0000
0000
0000
0000
0000
0000
0000
0000
0000
0000
0000
0000
0000
0000
0000
0000
0000
0000
0000
0000
0000
0000
0000
0000
0000
0000
0000
0000
0000
0000
0000
0000
0000
0000
0000
0000
0000
0000
0000
0000
0000
0000
0000
0000
0000
0000
0000
0000
0000
0000
0000
,
0000
0000
0000
0000
,
0000
0000
0000
0000
,
0000
0000
0000
0000
,
0000
0000
0000
0000
,
0000
0000
0000
0000
,
0000
0000
0000
0000
,
0000
0000
0000
0000
,
0000
0000
0000
0000
,
0000
0000
0000
0000
,
0000
0000
0000
0000
,
0000
0000
0000
0000
,
1001
0000
1000
0100
0000
0100
0001
0000
0001
0010
0000
0010
1000
0000
0000
0000
,
1001
0000
0001
0010
0000
0010
1000
0000
1000
0100
0000
0100
0001
0000
0000
0000
,
1001
0000
1000
0010
0000
0010
0001
0000
0001
0100
0000
0100
1000
0000
0000
0000
,
1001
0000
0001
0100
0000
0100
1000
0000
1000
0010
0000
0010
0001
0000
0000
0000
,
1001
0000
1000
0100
1000
0100
1000
0100
1000
0000
0001
0010
0001
0010
0001
0010
,
0001
0000
1000
0010
1000
0010
1000
0010
1000
0000
0001
0100
0001
0100
0001
0100
,
0001
0000
1000
0100
0010
0000
0001
0010
0100
0000
1000
0010
0100
0000
0001
0100
,
0010
0000
1000
0001
1000
0001
1000
0000
1001
0000
0010
0000
1001
0000
0100
0000
,
1001
0100
0010
0001
1000
0100
0010
1000
,
0100
0001
1000
0010
0001
0100
0010
0001
,
1000
0100
0010
0001
1000
0010
0100
0001
,
1000
0100
1000
0010
0100
0001
0010
0001
0100
0010
1000
0100
1000
0000
0000
0000
,
1001
0010
0100
1000
0001
0010
0100
0001
,
0010
1000
0001
0100
1000
0010
0100
1000
,
0001
0010
0100
1000
0001
0100
0010
1000
,
0001
0010
0001
0100
0010
1000
0100
1000
0010
0100
0001
0010
0001
0000
0000
0000
,
2000
3200
0320
0032
2003
3200
0320
0032
2003
3020
0230
0302
2003
3020
0230
0302
,
2003
0000
3200
0000
0320
0000
0032
0000
2003
0000
3020
0000
0230
0000
0302
0000
2003
3002
2003
3002
2003
3002
2003
3002
2003
0000
3200
0000
0320
0000
0030
0000
,
2000
3020
0230
0302
2003
3020
0230
0302
2003
3200
0320
0032
2003
3200
0320
0032
,
2003
0000
3020
0000
0230
0000
0302
0000
2003
0000
3200
0000
0320
0000
0032
0000
2003
3002
2003
3002
2003
3002
2003
3002
2003
0000
3020
0000
0230
0000
0300
0000
,
1001
0000
0010
0100
1001
0000
0100
0010
,
1001
0000
0010
0100
1001
0000
0100
0010
,
1001
0000
0010
0100
1001
0000
0100
0010
,
1001
0000
0010
0100
1001
0000
0110
0000
,
1100
0100
1000
0100
0011
0010
0001
0010
,
1010
0010
1000
0010
0101
0100
0001
0100
,
0001
1000
0001
1000
0001
1000
0001
1000
0001
1000
0001
1000
0001
1000
0001
1000
,
0001
0001
0000
0000
,
2002
0003
3200
0000
,
0320
0000
0000
0000
0000
0000
0032
0000
0000
0000
0100
0000
,
0203
0000
0320
0000
,
2030
0000
0000
0000
0000
0000
3002
0000
0000
0000
1000
0000
,
2003
0000
3200
0000
0320
0000
0032
0000
0000
0000
0000
0000
,
2003
0000
0000
0000
0001
0000
3002
0000
0203
0000
0320
0000
,
2030
0000
3020
0000
,
0230
0000
0000
0320
0000
0000
2030
0000
0000
0000
0001
0000
,
3002
0000
0023
0000
0230
0000
2300
0000
3200
0000
0320
0000
,
0032
0000
0000
0000
2003
0000
0000
0010
,
3020
0000
2030
0000
,
3200
0000
0000
0000
0000
0000
0320
0000
0032
0000
0203
0000
,
0320
0000
2030
0000
,
3200
0000
0302
0000
,
0203
0000
2300
0000
,
3002
0000
2003
0000
3002
0000
0000
0003
,
MMMM
2002
0003
3200
,
0000
0000
0000
0320
0000
0000
0000
0001
0000
0032
0000
0000
,
0000
0203
0000
0320
,
0000
0030
2002
0000
0000
0000
0000
0000
,
0000
3003
2002
0000
3003
0000
0000
0000
,
1000
0000
0100
0000
,
0001
0000
0100
0000
,
1000
0000
0001
1000
,
0000
MMMM
2002
0003
,
3020
0000
0000
0000
0230
0000
0000
0002
,
0300
0000
0203
0000
,
0320
0000
0000
0030
2002
0000
0000
0000
,
0000
0000
3003
0000
1001
1000
0100
0010
,
0001
0000
1000
0000
0001
1000
0001
0000
1000
0000
0000
0100
0000
0000
0001
0000
,
0000
0100
0000
0000
1000
0000
0001
0000
1001
0000
0000
0000
0110
0000
0000
0110
,
0000
0110
0000
0000
0110
0000
0100
0010
0100
0000
0110
0000
0110
0000
0110
0000
,
0000
0110
0000
0000
0110
0000
0110
0000
1001
0000
0000
0000
0110
0000
0000
0110
,
0000
0110
0000
0000
0110
0000
0010
0100
0010
0000
0110
0000
0110
0000
0110
0000
,
0000
0000
0000
0000
0110
0000
0000
0000
0000
0000
0000
0000
0000
0000
0000
0000
0110
0000
0000
0000
0000
0000
0000
0000
0110
0000
0000
0000
0000
0000
0000
0000
1001
0000
0000
0000
0000
0000
0000
0000
0000
0000
0000
1100
0000
0000
0000
0000
0000
0000
0000
0000
0000
0000
0110
0000
0000
0000
0000
0000
0000
0000
0000
0000
,
0000
0011
0000
0000
0000
0000
0000
0000
0000
0000
0000
0000
1001
0000
0000
0000
0000
0000
0000
0000
0000
0000
0000
1010
0000
0000
0000
0000
0000
0000
0000
0000
0000
0000
0110
0000
0000
0000
0000
0000
0000
0000
0000
0000
0000
0101
0000
0000
0000
0000
0000
0000
0000
0000
0000
0000
1001
0000
0000
0000
0000
0000
0000
0000
,
1001
1001
0110
1001
1001
0000
1000
0000
,
0001
0010
0100
0000
1000
0000
0001
1000
,
0001
0000
1000
0001
1000
0000
0001
0000
,
1001
0000
1000
0000
0001
1000
0001
1000
,
0001
1000
0001
0000
1001
0100
0100
0100
,
0100
0100
0100
0100
1001
0010
0010
0010
,
0010
0010
0010
0010
1001
0100
0100
0100
,
0100
0100
0100
0100
1001
0010
0010
0010
,
0010
0010
0010
0010
1001
0100
0010
0100
,
0010
0100
0010
0100
1001
0010
0100
0010
,
0100
0010
0100
0010
1001
1000
0100
0010
,
0001
0010
0100
1000
1001
1000
0100
0010
,
0002
0000
2003
3000
2002
0000
0000
0000
,
0000
0000
0000
0000
,
0000
0000
0000
0000
,
0000
0000
0000
0000
,
3003
0000
0000
0000
;

//---------------dance-single - ----------------
#NOTEDATA:;
#CHARTNAME:;
#STEPSTYPE:dance-single;
#DESCRIPTION:;
#CHARTSTYLE:;
#DIFFICULTY:Hard;
#METER:15;
#RADARVALUES:1.078807,2.256894,1.814804,1.539573,0.855796,878.000000,667.000000,211.000000,179.000000,201.000000,0.000000,0.000000,0.000000,0.000000,1.078807,2.256894,1.814804,1.539573,0.855796,878.000000,667.000000,211.000000,179.000000,201.000000,0.000000,0.000000,0.000000,0.000000;
#CREDIT:;
#OFFSET:-0.049000;
#BPMS:0.000000=190.000000
,68.000000=1116.000000
,116.000000=380.000000
,244.000000=95.000000
,260.000000=190.000000
,292.000000=380.000000
,356.000000=190.000000
,357.000000=380.000000
,369.000000=760.000000
,373.000000=380.000000
,389.000000=190.000000
,390.000000=380.000000
,402.000000=1520.000000
,410.000000=380.000000
,426.000000=190.000000
,427.000000=380.000000
,434.000000=190.000000
,435.000000=380.000000
,442.000000=190.000000
,450.000000=380.000000
,466.000000=190.000000
,498.000000=573.000000
;
#STOPS:68.000000=2.500000
,427.000000=0.100000
,427.750000=0.100000
,428.250000=0.100000
,429.000000=0.100000
,429.500000=0.050000
,429.750000=0.050000
,430.000000=0.050000
,430.500000=0.100000
,431.000000=0.100000
,431.500000=0.100000
,432.250000=0.100000
,433.000000=0.100000
,433.500000=0.050000
,435.000000=0.100000
,435.750000=0.100000
,436.250000=0.100000
,437.000000=0.100000
,437.500000=0.050000
,437.750000=0.050000
,438.000000=0.050000
,438.500000=0.100000
,439.000000=0.100000
,439.500000=0.100000
,440.250000=0.100000
,441.000000=0.100000
,441.500000=0.050000
;
#DELAYS:;
#WARPS:;
#TIMESIGNATURES:0.000000=4=4
;
#TICKCOUNTS:0.000000=4
;
#COMBOS:0.000000=1
;
#SPEEDS:0.000000=1.000000=0.000000=0
;
#SCROLLS:0.000000=2.000000
,36.000000=1.000000
,498.000000=1.948000
;
#FAKES:;
#LABELS:4.000000=1
,16.000000=6
,20.000000=1
,32.000000=6
;
#DISPLAYBPM:1116.000000;
#NOTES:
0000
0000
0000
0000
,
0MM0
MMM0
MMM0
00M0
00M0
00M0
00M0
MMMM
MMMM
0000
0000
0000
0000
0000
0000
0000
,
0MM0
MMM0
MMM0
00M0
00M0
00M0
00M0
MMMM
MMMM
0000
0000
0000
0000
0000
0000
0000
,
0MM0
MMM0
MMM0
00M0
00M0
00M0
00M0
MMMM
MMMM
0000
0000
0000
0000
0000
0000
0000
,
MMMM
MMMM
MM00
MM00
MMMM
M00M
M00M
MMMM
MMMM
0000
0000
0000
0000
0000
0000
0000
,
0MM0
MMM0
MMM0
00M0
00M0
00M0
00M0
MMMM
MMMM
0000
0000
0000
0000
0000
0000
0000
,
0MM0
MMM0
MMM0
00M0
00M0
00M0
00M0
MMMM
MMMM
0000
0000
0000
0000
0000
0000
0000
,
0MM0
MMM0
MMM0
00M0
00M0
00M0
00M0
MMMM
MMMM
0000
0000
0000
0000
0000
0000
0000
,
MMMM
MMMM
MM00
MM00
MMMM
M00M
M00M
MMMM
MMMM
0000
0000
0000
0000
0000
0000
0000
,
1001
0000
1000
0100
0000
0010
0001
0000
1000
0001
1000
0000
0101
0000
0100
0000
,
1001
0000
0001
0100
0000
0010
1000
0000
0001
1000
0001
0000
1100
0000
1000
0001
,
1001
0000
1000
0010
0000
0100
0001
0000
0100
0010
0100
0000
0011
0000
0001
0000
,
0110
0000
0001
0010
0000
0100
1000
0000
0010
0100
0010
0000
1010
0000
0001
1000
,
1001
0100
0011
1000
0110
0001
1010
0100
,
1001
0010
1100
0001
0110
1000
0101
0010
,
1001
0100
0010
0001
1000
0100
0010
0001
1000
0010
0100
0001
1000
0010
0100
0001
,
0110
0000
0000
0000
,
2002
3003
0000
0000
0000
0000
0000
0000
0000
0000
0000
0000
0000
0000
0000
0000
0000
0000
0000
0000
0000
0000
0000
0000
0000
0000
0000
0000
0000
0000
0000
0000
0000
0000
0000
0000
0000
0000
0000
0000
0000
0000
0000
0000
0000
0000
0000
0000
0000
0000
0000
0000
0000
0000
0000
0000
0000
0000
0000
0000
0000
0000
0000
0000
,
M000
0000
0000
0000
,
0000
0000
0M00
0000
,
0000
0000
00M0
0000
,
0000
0000
0000
000M
,
0000
0000
0000
0M00
,
0000
0000
0000
0000
,
0000
0000
00M0
0000
,
0000
M000
0000
0000
,
0000
0000
0M00
0000
,
0000
0000
0000
00M0
,
0000
0000
0000
0000
,
1001
0000
1000
0100
0000
0100
0001
0000
,
0001
0010
1000
0010
0001
0100
1000
0100
,
0001
0000
0001
0010
0000
0010
1000
0000
,
1000
0100
0001
0100
1000
0010
0001
0010
,
1000
0000
1000
0010
0000
0010
0001
0000
,
0001
0100
1000
0100
0001
0010
1000
0010
,
0001
0000
0001
0100
0000
0100
1000
0000
,
1000
0010
0001
0010
1000
0100
0001
0100
,
1000
0000
1000
0100
0010
0001
1000
0100
,
0010
0001
1000
0100
0010
0001
1000
0001
,
1001
0000
0001
0100
0010
1000
0001
0100
,
0010
1000
0001
0100
0010
1000
0001
1000
,
1001
0000
1000
0010
0100
0001
1000
0010
,
0100
0001
1000
0010
0100
0001
1000
0001
,
1001
0000
0001
0010
0100
1000
0001
0010
,
0100
1000
0001
0010
0100
1000
0001
1000
,
1001
1001
0110
1001
,
0011
0011
1100
1100
,
1010
1010
0101
0101
,
0110
0110
1001
1001
,
0110
1100
0011
0110
,
0110
1010
0101
0110
,
2000
3200
2300
3200
2300
3200
2300
3200
2300
3200
2300
3200
,
2300
3020
2030
3020
2030
3020
2030
0000
0000
3000
0000
0000
,
1001
1001
0110
1001
,
1100
1100
0011
0011
,
0101
0101
1010
1010
,
0110
0110
1001
1001
,
0110
0011
1100
0110
,
0110
0101
1010
0110
,
0002
0023
0032
0023
0032
0023
0032
0023
0032
0023
0032
0023
,
0032
0203
0302
0203
0302
0203
0302
0000
0000
0003
0000
0000
,
2000
3200
0320
0032
2003
3200
0320
0032
2003
3020
0230
0302
2003
3020
0230
0302
,
2003
0000
0000
3200
0000
0000
0320
0000
0000
0032
0000
0000
2003
0000
0000
3020
0000
0000
0230
0000
0000
0302
0000
0000
2003
3002
2003
3002
2003
3002
2003
3002
2003
3002
2003
3002
2003
0000
0000
3200
0000
0000
0320
0000
0000
0030
0000
0000
,
2000
3020
0230
0302
2003
3020
0230
0302
2003
3200
0320
0032
2003
3200
0320
0032
,
2003
0000
0000
3020
0000
0000
0230
0000
0000
0302
0000
0000
2003
0000
0000
3200
0000
0000
0320
0000
0000
0032
0000
0000
2003
3002
2003
3002
2003
3002
2003
3002
2003
3002
2003
3002
2003
0000
0000
3020
0000
0000
0230
0000
0000
0300
0000
0000
,
2002
0000
3003
0000
0202
0303
2020
3030
0202
0000
0303
0000
2200
3300
0022
0033
,
2200
0000
3300
0000
0022
0033
2200
3300
0022
0000
0033
0000
2020
3030
0202
0303
,
2020
0000
3030
0000
2002
3003
0220
0330
2002
0000
3003
0000
0220
0330
2002
3003
,
0220
0000
0330
0000
2002
3003
2002
3003
2002
0000
3003
0000
0220
0000
0330
0000
,
1100
1100
1100
1100
1010
1010
1010
1010
,
0101
0101
0101
0101
0011
0011
0011
0011
,
1000
0100
0010
0001
1000
0100
0010
0001
1000
0010
0100
0001
1000
0010
0100
0001
,
1001
1001
MMMM
MMMM
,
1001
0000
1010
0000
,
0101
0000
0000
0000
0000
0000
0110
0000
0000
0000
0000
0001
,
0010
0000
1100
1000
,
1010
0000
0000
0010
0000
0000
1000
0000
0100
0000
0010
0000
,
0001
0000
0100
0000
0010
0000
1000
0000
0000
0000
0000
0000
,
1001
0000
0000
0000
0100
0000
0001
0000
0010
0000
0100
0000
,
1000
0000
1010
0000
,
0110
0000
0000
0011
0000
0000
1001
0000
0000
0000
1000
0000
,
0100
0000
0001
0000
0100
0000
1000
0000
0000
0001
0000
0000
,
1000
0000
0000
0000
0110
0000
0000
0001
,
0001
0000
1000
0100
,
0010
0000
0000
0000
0000
0000
1000
0000
0100
0000
0100
0000
,
0010
0000
0011
0000
,
1100
0000
0101
0000
,
0220
0330
1010
0000
,
2002
3003
0220
0330
2002
0000
3003
0000
,
MMMM
1001
0000
0011
,
0000
0000
0000
1100
0000
0000
0000
0001
0000
1000
0000
0000
,
0000
1010
0000
0101
,
0000
1000
0001
1000
,
0001
1001
0010
0100
,
0011
1000
0101
0010
,
1100
0001
1010
0100
,
1001
0010
1100
0110
,
0011
MMMM
1001
0000
,
0110
0000
0000
0000
0011
0000
0000
2000
,
3000
0000
1001
0000
,
0110
0000
2002
0000
,
0000
0000
0000
0000
,
0000
3003
1001
1001
,
1010
0000
1010
0000
0101
0000
0100
0001
,
0101
0000
0000
1100
0000
0000
0011
0000
0000
0000
1010
0000
,
0000
0000
1001
0000
0000
0000
1100
0000
0000
0000
0101
0000
,
0000
0000
0000
0000
0000
0000
0000
0000
0110
0000
0000
0000
0000
0000
0000
0000
0000
0000
0000
0000
0000
0000
0000
0000
1001
0000
0000
0000
0000
0000
0000
0000
0000
0000
0000
0000
0110
0000
0000
0000
0000
0000
0000
0000
0000
0110
0000
0000
,
0000
0110
0000
0000
0110
0000
0100
0010
0100
0000
0110
0000
0110
0000
0110
0000
,
0000
0110
0000
0000
0110
0000
0110
0000
1001
0000
0000
0000
0110
0000
0000
0110
,
0000
0110
0000
0000
0110
0000
0010
0100
0010
0000
0110
0000
0110
0000
0110
0000
,
0000
0000
0000
0000
0110
0000
0000
0000
0000
0000
0000
0000
0000
0000
0000
0000
0110
0000
0000
0000
0000
0000
0000
0000
0110
0000
0000
0000
0000
0000
0000
0000
1001
0000
0000
0000
0000
0000
0000
0000
0000
0000
0000
1100
0000
0000
0000
0000
0000
0000
0000
0000
0000
0000
0110
0000
0000
0000
0000
0000
0000
0000
0000
0000
,
0000
0011
0000
0000
0000
0000
0000
0000
0000
0000
0000
0000
1001
0000
0000
0000
0000
0000
0000
0000
0000
0000
0000
1010
0000
0000
0000
0000
0000
0000
0000
0000
0000
0000
0110
0000
0000
0000
0000
0000
0000
0000
0000
0000
0000
0101
0000
0000
0000
0000
0000
0000
0000
0000
0000
0000
1001
0000
0000
0000
0000
0000
0000
0000
,
1001
1001
0110
1001
1001
0000
1000
0100
,
1000
0100
0010
0000
0011
0000
0001
0010
,
1000
0000
0001
0010
1000
0000
0001
0010
,
1000
0100
0001
0100
1000
0010
0001
0010
,
1000
0000
0001
0000
1000
0000
0001
0000
1001
0000
1000
0100
0000
0100
0001
0000
,
0001
0010
0000
0010
1000
0000
0001
0000
1001
0000
0001
0010
0000
0010
1000
0000
,
1000
0100
0000
0100
0001
0000
1000
0000
1001
0000
1000
0100
0010
0001
0100
0010
,
1000
0010
0100
0001
0010
0100
1000
0000
1001
0000
1000
0001
1000
0000
0001
1000
,
0001
0000
0100
0010
0100
0000
0010
0100
1001
0000
1000
0010
0000
0010
0001
0000
,
0001
0100
0000
0100
1000
0000
0001
0000
1001
0000
0001
0100
0000
0100
1000
0000
,
1000
0010
0000
0010
0001
0000
1000
0000
1001
0000
0001
0010
0100
1000
0010
0100
,
0001
0100
0010
1000
0100
0010
0001
0000
1001
0000
0001
1000
0001
0000
1000
0001
,
2000
0000
3002
0003
2002
0000
0000
0000
,
0000
0000
0000
0000
,
0000
0000
0000
0000
,
0000
0000
0000
0000
,
3003
0000
0000
0000
;

//---------------dance-single - 1116----------------
#NOTEDATA:;
#CHARTNAME:;
#STEPSTYPE:dance-single;
#DESCRIPTION:1116;
#CHARTSTYLE:;
#DIFFICULTY:Challenge;
#METER:16;
#RADARVALUES:1.161131,5.418609,2.090035,1.659987,2.055631,945.000000,700.000000,243.000000,193.000000,212.000000,1.000000,0.000000,0.000000,1339.000000,1.161131,5.418609,2.090035,1.659987,2.055631,945.000000,700.000000,243.000000,193.000000,212.000000,1.000000,0.000000,0.000000,1339.000000;
#CREDIT:;
#DISPLAYBPM:1116.000000;
#NOTES:
// measure 0
0000
0000
0000
0000
,  // measure 1
0MM0
MMM0
MMM0
00M0
00M0
00M0
00M0
MMMM
MMMM
0000
0000
0000
0000
0000
0000
0000
,  // measure 2
0MM0
MMM0
MMM0
00M0
00M0
00M0
00M0
MMMM
MMMM
0000
0000
0000
0000
0000
0000
0000
,  // measure 3
0MM0
MMM0
MMM0
00M0
00M0
00M0
00M0
MMMM
MMMM
0000
0000
0000
0000
0000
0000
0000
,  // measure 4
MMMM
MMMM
MM00
MM00
MMMM
M00M
M00M
MMMM
MMMM
0000
0000
0000
0000
0000
0000
0000
,  // measure 5
0110
MMM0
MMM0
00M0
0010
00M0
00M0
MMMM
MMMM
0000
0000
0000
0010
0000
0000
0000
,  // measure 6
0110
MMM0
MMM0
00M0
0010
00M0
00M0
MMMM
MMMM
0000
0000
0000
0010
0000
0000
0000
,  // measure 7
0110
MMM0
MMM0
00M0
0010
00M0
00M0
MMMM
MMMM
0000
0000
0000
0010
0000
0000
0000
,  // measure 8
1MM1
MMMM
MM00
MM00
MMMM
M00M
M00M
MMMM
MMMM
0000
0000
0000
0000
0000
0000
0000
,  // measure 9
1MM1
0000
1000
0010
0000
0100
0001
0000
0001
0010
0011
0000
1100
0000
0010
0000
,  // measure 10
1MM1
0000
0000
0000
0000
0000
0001
0000
0000
0100
0000
0000
0000
0000
0000
0010
0000
0000
1000
0000
0000
0000
0000
0000
1000
0000
0000
0100
0000
0000
1100
0000
0000
0000
0000
0000
0011
0000
0000
0000
0000
0000
1000
0000
0001
0000
1000
0000
,  // measure 11
1MM1
0000
0010
0100
0000
0010
0100
0000
1000
0100
0011
0000
1100
0000
0010
0000
,  // measure 12
1MM1
0000
0000
0000
0000
0000
0100
0000
0000
0010
0000
0000
0000
0000
0000
0100
0000
0000
0010
0000
0000
0000
0000
0000
0001
0000
0000
0010
0000
0000
1100
0000
0000
0000
0000
0000
0011
0000
0000
0000
0000
0000
0001
0000
1000
0000
0001
0000
,  // measure 13
1MM1
1010
0011
0101
1100
0110
1001
0110
,  // measure 14
1MM1
0101
1100
1010
0011
1001
0110
1001
,  // measure 15
1MM1
1000
0100
0001
0100
1000
0001
0100
1000
0100
0001
1000
0100
0001
0100
1000
,  // measure 16
1MM1
0000
0000
0000
,  // measure 17
2002
3000
0000
0000
0000
0000
0000
0000
0000
0000
0000
0000
0000
0000
0000
0000
0000
0000
0000
0000
0000
0000
0000
0000
0000
0000
0000
0000
0000
0000
0000
0000
0000
0000
0000
0000
0000
0000
0000
0000
0000
0000
0000
0000
0000
0000
0000
0000
0000
0000
0000
0000
0000
0000
0000
0000
0000
0000
0000
0000
0003
0000
0000
0000
,  // measure 18
200M
0000
0000
0000
,  // measure 19
0000
0000
0000
0000
0000
0000
0000
3000
M200
0000
0000
0000
0000
0000
0000
0000
,  // measure 20
0000
0000
0000
0000
0000
0000
0000
0300
0M20
0000
0000
0000
0000
0000
0000
0000
,  // measure 21
0000
0000
0000
0000
0000
0000
0000
0000
0000
0000
0000
0030
00M2
0000
0000
0000
,  // measure 22
0000
0000
0000
0000
0000
0000
0000
0000
0000
0000
0000
0003
020M
0000
0000
0000
,  // measure 23
0000
0000
0000
0000
,  // measure 24
0000
0000
0000
0000
0000
0000
0000
0300
0M20
0000
0000
0000
0000
0000
0000
0000
,  // measure 25
0000
0000
0000
0030
20M0
0000
0000
0000
0000
0000
0000
0000
0000
0000
0000
0000
,  // measure 26
0000
0000
0000
0000
0000
0000
0000
3000
M200
0000
0000
0000
0000
0000
0000
0000
,  // measure 27
0000
0000
0000
0000
0000
0000
0000
0000
0000
0000
0000
0300
0M20
0000
0000
0000
,  // measure 28
0000
0000
0000
0000
0000
0000
0000
0000
0000
0000
0000
0000
0000
0000
0000
0030
,  // measure 29
1MM1
0001
1000
0100
0010
0100
0002
0013
,  // measure 30
0100
0010
1000
0100
0001
0100
1000
0010
,  // measure 31
0001
0010
1000
0100
0010
0001
2000
3010
,  // measure 32
0100
0001
0010
1000
0100
0001
1000
0010
,  // measure 33
1000
0010
0100
0010
0001
0100
0020
0130
,  // measure 34
1000
0100
0001
0010
1000
0100
0001
0100
,  // measure 35
1000
0001
0100
1000
0100
0001
1000
0010
,  // measure 36
0001
0010
1000
0001
0010
1000
0010
0001
,  // measure 37
1001
0100
0010
0001
1000
0100
0010
0001
,  // measure 38
1000
0010
0100
0001
1000
0010
0100
0001
,  // measure 39
1000
0100
0001
0010
1000
0010
0001
0100
,  // measure 40
1000
0100
0010
0001
1000
0100
0010
0001
,  // measure 41
1000
0100
0001
0100
1000
0001
0010
1000
,  // measure 42
0010
0001
1000
0010
0001
0010
1000
0001
,  // measure 43
0100
1000
0100
0001
1000
0100
0010
0001
,  // measure 44
1010
0110
0101
0011
,  // measure 45
1001
0100
0011
1000
,  // measure 46
0110
0011
1100
0110
,  // measure 47
0101
0101
1010
1010
,  // measure 48
0110
0110
1001
1001
,  // measure 49
1001
0010
1100
0001
,  // measure 50
0110
1100
0011
0110
,  // measure 51
0111
1011
1101
1110
1101
1011
0111
1101
1011
1110
1011
1101
,  // measure 52
0111
1011
1101
1110
1011
1101
0111
0000
0000
0000
0000
0000
,  // measure 53
0000
0000
0000
0000
0000
0000
0000
0000
0000
0000
0000
0000
2000
3000
1011
0000
1101
0000
1110
0000
1101
0000
1011
0000
,  // measure 54
0111
1101
1011
1110
1011
1101
0111
1011
1101
1110
1011
1101
,  // measure 55
0111
0000
0000
0000
,  // measure 56
0000
0000
0200
0300
1101
0000
1110
0000
1101
0000
1011
0000
0111
0000
1101
0000
1011
0000
1110
0000
1011
0000
1101
0000
,  // measure 57
0111
1011
1101
1110
1011
1101
0111
0000
0000
0000
0000
0000
,  // measure 58
0000
0000
0000
0000
0000
0000
0000
0000
0000
0000
0000
0000
0000
0000
0000
0000
0020
0030
1110
0000
1101
0000
1011
0000
,  // measure 59
0111
1101
1011
1110
1011
1101
0111
1011
1101
1110
1011
1101
,  // measure 60
0111
0000
0000
0000
,  // measure 61
0000
0000
0000
0000
0000
0000
0002
0003
1101
0000
1011
0000
0111
0000
1101
0000
1011
0000
1110
0000
1011
0000
1101
0000
,  // measure 62
0111
1011
1101
1110
1011
1101
0111
0000
0000
0000
0000
0000
,  // measure 63
0000
0000
0000
0000
0000
0000
0000
0000
0000
0000
0000
0000
0000
0000
0000
0000
0000
0000
0000
0000
0020
0030
1011
0000
,  // measure 64
0111
1101
1011
1110
1011
1101
0111
1011
1101
1110
1011
1101
,  // measure 65
0111
0000
0000
0000
,  // measure 66
0000
0000
0000
0000
0000
0000
0000
0000
0000
0000
0200
0300
0111
0000
1101
0000
1011
0000
1110
0000
1011
0000
1101
0000
,  // measure 67
0111
1011
1101
1110
1011
1101
0111
0000
0000
0000
0000
0000
,  // measure 68
0000
0000
0000
0000
,  // measure 69
2000
3000
1101
0000
1011
0000
1110
0000
1011
0000
1101
0000
0111
0000
1011
0000
1101
0000
1110
0000
1011
0000
1101
0000
,  // measure 70
0111
0000
0000
0000
,  // measure 71
0000
0000
0000
0000
0000
0000
0000
0000
0000
0000
0000
0000
0000
0000
0020
0030
1011
0000
1110
0000
1011
0000
1101
0000
,  // measure 72
0111
1011
1101
1110
1011
1101
0111
0000
0000
0000
0000
0000
,  // measure 73
0000
0000
0000
0000
,  // measure 74
0000
0000
0000
0000
0200
0300
1110
0000
1011
0000
1101
0000
0111
0000
1011
0000
1101
0000
1110
0000
1011
0000
1101
0000
,  // measure 75
0111
0000
0000
0000
,  // measure 76
0000
0000
0000
0000
0000
0000
0000
0000
0000
0000
0000
0000
0000
0000
0000
0000
0000
0000
0002
0003
1011
0000
1101
0000
,  // measure 77
0111
1011
1101
1110
1011
1101
0111
0000
0000
0000
0000
0000
,  // measure 78
0000
0000
0000
0000
,  // measure 79
0000
0000
0000
0000
0000
0000
0000
0000
0200
0300
1101
0000
0111
0000
1011
0000
1101
0000
1110
0000
1011
0000
1101
0000
,  // measure 80
0111
0000
0000
0000
,  // measure 81
0000
0000
0000
0000
0000
0000
0000
0000
0000
0000
0000
0000
0000
0000
0000
0000
0000
0000
0000
0000
0000
0000
0020
0030
,  // measure 82
0111
1011
1101
1110
1011
1101
0111
0000
0000
0000
0000
0000
,  // measure 83
0000
0000
0000
0000
,  // measure 84
0000
0000
0000
0000
0000
0000
0000
0000
0000
0000
0000
0000
2000
3000
1011
0000
1101
0000
1110
0000
1011
0000
1101
0000
,  // measure 85
0111
0000
0000
0000
,  // measure 86
0000
0000
0000
0000
,  // measure 87
0000
0000
0200
0300
1101
0000
1110
0000
1011
0000
1101
0000
0111
0000
0000
0000
0000
0000
0000
0000
0000
0000
0000
0000
,  // measure 88
0000
0000
0000
0000
,  // measure 89
0000
0000
0000
0000
0000
0000
0000
0000
0000
0000
0000
0000
0000
0000
0000
0000
0020
0030
1110
0000
1011
0000
1101
0000
,  // measure 90
0111
0000
0000
0000
,  // measure 91
0000
0000
0000
0000
,  // measure 92
0000
0000
0000
0000
0000
0000
0002
0003
1011
0000
1101
0000
0111
0000
0000
0000
0000
0000
0000
0000
0000
0000
0000
0000
,  // measure 93
0000
0000
0000
0000
,  // measure 94
0000
0000
0000
0000
0000
0000
0000
0000
0000
0000
0000
0000
0000
0000
0000
0000
0000
0000
0000
0000
0200
0300
1101
0000
,  // measure 95
0111
0000
0000
0000
,  // measure 96
0000
0000
0000
0000
,  // measure 97
0000
0000
0000
0000
0000
0000
0000
0000
0000
0000
0020
0030
0111
0000
0000
0000
0000
0000
0000
0000
0000
0000
0000
0000
,  // measure 98
0000
0000
0000
0000
,  // measure 99
0000
0000
0000
0000
,  // measure 100
2000
3000
0000
0000
0000
0000
0000
0000
0000
0000
0000
0000
1001
0000
0000
0000
0000
0000
0010
0000
0000
0000
0000
0000
,  // measure 101
1001
0010
0101
0011
,  // measure 102
1100
1010
0110
0110
,  // measure 103
1001
1001
0011
0011
,  // measure 104
1100
1100
1001
0100
,  // measure 105
1001
0100
1010
1100
,  // measure 106
0011
0000
0000
0101
0000
0000
1110
1101
1011
0111
1011
1101
,  // measure 107
1110
1011
1101
0111
1101
1011
1110
1101
1011
0111
1101
1011
,  // measure 108
1110
0000
0000
0000
,  // measure 109
0002
0003
1101
0000
1011
0000
0111
0000
1011
0000
1101
0000
1110
0000
1011
0000
1101
0000
0111
0000
1101
0000
1011
0000
,  // measure 110
1110
1101
1011
0111
1101
1011
1110
0000
0000
0000
0000
0000
,  // measure 111
0000
0000
0000
0000
0000
0000
0000
0000
0000
0000
0000
0000
0000
0000
0020
0030
1011
0000
0111
0000
1011
0000
1101
0000
,  // measure 112
1110
1011
1101
0111
1101
1011
1110
1101
1011
0111
1101
1011
,  // measure 113
1110
0000
0000
0000
,  // measure 114
0000
0000
0000
0000
0200
0300
0111
0000
1011
0000
1101
0000
1110
0000
1011
0000
1101
0000
0111
0000
1101
0000
1011
0000
,  // measure 115
1110
1101
1011
0111
1101
1011
1110
0000
0000
0000
0000
0000
,  // measure 116
0000
0000
0000
0000
0000
0000
0000
0000
0000
0000
0000
0000
0000
0000
0000
0000
0000
0000
2000
3000
1011
0000
1101
0000
,  // measure 117
1110
1011
1101
0111
1101
1011
1110
1101
1011
0111
1101
1011
,  // measure 118
1110
0000
0000
0000
,  // measure 119
0000
0000
0000
0000
0000
0000
0000
0000
0200
0300
1101
0000
1110
0000
1011
0000
1101
0000
0111
0000
1101
0000
1011
0000
,  // measure 120
1110
1101
1011
0111
1101
1011
1110
0000
0000
0000
0000
0000
,  // measure 121
0000
0000
0000
0000
0000
0000
0000
0000
0000
0000
0000
0000
0000
0000
0000
0000
0000
0000
0000
0000
0000
0000
0020
0030
,  // measure 122
1110
1011
1101
0111
1101
1011
1110
1101
1011
0111
1101
1011
,  // measure 123
1110
0000
0000
0000
,  // measure 124
0000
0000
0000
0000
0000
0000
0000
0000
0000
0000
0000
0000
0002
0003
1011
0000
1101
0000
0111
0000
1101
0000
1011
0000
,  // measure 125
1110
1101
1011
0111
1101
1011
1110
0000
0000
0000
0000
0000
,  // measure 126
0000
0000
0000
0000
,  // measure 127
0000
0000
0200
0300
1101
0000
0111
0000
1101
0000
1011
0000
1110
0000
1101
0000
1011
0000
0111
0000
1101
0000
1011
0000
,  // measure 128
1110
0000
0000
0000
,  // measure 129
0000
0000
0000
0000
0000
0000
0000
0000
0000
0000
0000
0000
0000
0000
0000
0000
0020
0030
0111
0000
1101
0000
1011
0000
,  // measure 130
1110
1101
1011
0111
1101
1011
1110
0000
0000
0000
0000
0000
,  // measure 131
0000
0000
0000
0000
,  // measure 132
0000
0000
0000
0000
0000
0000
2000
3000
1101
0000
1011
0000
1110
0000
1101
0000
1011
0000
0111
0000
1101
0000
1011
0000
,  // measure 133
1110
0000
0000
0000
,  // measure 134
0000
0000
0000
0000
0000
0000
0000
0000
0000
0000
0000
0000
0000
0000
0000
0000
0000
0000
0000
0000
0020
0030
1011
0000
,  // measure 135
1110
1101
1011
0111
1101
1011
1110
0000
0000
0000
0000
0000
,  // measure 136
0000
0000
0000
0000
,  // measure 137
0000
0000
0000
0000
0000
0000
0000
0000
0000
0000
0200
0300
1110
0000
1101
0000
1011
0000
0111
0000
1101
0000
1011
0000
,  // measure 138
1110
0000
0000
0000
,  // measure 139
0000
0000
0000
0000
,  // measure 140
0002
0003
1101
0000
1011
0000
0111
0000
1101
0000
1011
0000
1110
0000
0000
0000
0000
0000
0000
0000
0000
0000
0000
0000
,  // measure 141
0000
0000
0000
0000
,  // measure 142
0000
0000
0000
0000
0000
0000
0000
0000
0000
0000
0000
0000
0000
0000
0020
0030
1011
0000
0111
0000
1101
0000
1011
0000
,  // measure 143
1110
0000
0000
0000
,  // measure 144
0000
0000
0000
0000
,  // measure 145
0000
0000
0000
0000
0200
0300
0111
0000
1101
0000
1011
0000
1110
0000
0000
0000
0000
0000
0000
0000
0000
0000
0000
0000
,  // measure 146
0000
0000
0000
0000
,  // measure 147
0000
0000
0000
0000
0000
0000
0000
0000
0000
0000
0000
0000
0000
0000
0000
0000
0000
0000
2000
3000
1101
0000
1011
0000
,  // measure 148
1110
0000
0000
0000
,  // measure 149
0000
0000
0000
0000
,  // measure 150
0000
0000
0000
0000
0000
0000
0000
0000
0020
0030
1011
0000
1110
0000
0000
0000
0000
0000
0000
0000
0000
0000
0000
0000
,  // measure 151
0000
0000
0000
0000
,  // measure 152
0000
0000
0000
0000
0000
0000
0000
0000
0000
0000
0000
0000
0000
0000
0000
0000
0000
0000
0000
0000
0000
0000
0200
0300
,  // measure 153
1110
0000
0000
0000
,  // measure 154
0000
0000
0000
0000
,  // measure 155
0000
0000
0000
0000
0000
0000
0000
0000
0000
0000
0000
0000
0002
0003
0000
0000
0000
0000
0000
0000
0000
0000
0000
0000
,  // measure 156
2001
3200
0320
0032
2003
3200
0320
0032
2003
3020
0230
0302
2003
3020
0230
0302
,  // measure 157
2003
0000
0000
3200
0000
0000
0320
0000
0000
0032
0000
0000
2003
0000
0000
3020
0000
0000
0230
0000
0000
0302
0000
0000
2003
3200
0320
0032
2003
3200
0320
0032
2003
3200
0320
0032
2003
0000
0000
3200
0000
0000
0320
0000
0000
0030
0000
0000
,  // measure 158
2001
3020
0230
0302
2003
3020
0230
0302
2003
3200
0320
0032
2003
3200
0320
0032
,  // measure 159
2003
0000
0000
3020
0000
0000
0230
0000
0000
0302
0000
0000
2003
0000
0000
3200
0000
0000
0320
0000
0000
0032
0000
0000
2003
3020
0230
0302
2003
3020
0230
0302
2003
3020
0230
0302
2003
0000
0000
3020
0000
0000
0230
0000
0000
0300
0000
0000
,  // measure 160
2002
0000
3003
0000
2020
3030
0220
0330
0202
0000
0303
0000
0022
0033
0220
0330
,  // measure 161
2200
0000
3300
0000
0220
0330
2002
3003
0220
0000
0330
0000
0202
0303
2002
3003
,  // measure 162
2020
0000
3030
0000
2200
3300
2002
3003
0022
0000
0033
0000
2002
3003
0220
0330
,  // measure 163
2002
0000
3003
0000
2200
3300
0202
0303
0022
0000
0033
0000
2020
0000
3030
0000
,  // measure 164
1001
1001
1010
1010
1001
1001
0101
0101
,  // measure 165
0110
0110
1100
1100
0110
0110
0011
0011
,  // measure 166
1001
1000
0010
0001
0010
1000
0001
0010
1000
0010
0001
1000
0010
0001
0010
1000
,  // measure 167
1001
1001
1111
1111
,  // measure 168
2002
3003
2000
3000
,  // measure 169
2020
3030
0020
0030
,  // measure 170
0220
0330
0000
0000
,  // measure 171
0000
0000
MMMM
MMMM
,  // measure 172
1001
0000
1000
0000
,  // measure 173
1010
0000
0010
0000
,  // measure 174
0110
0000
0000
0000
,  // measure 175
0101
0000
0000
0000
0000
0000
0000
0000
0001
0000
0000
0000
,  // measure 176
0100
0000
0000
0000
,  // measure 177
1100
0000
1000
0000
,  // measure 178
1001
0000
0001
0000
,  // measure 179
0011
0000
0000
0000
0000
0000
0000
0001
0000
0000
0000
0010
,  // measure 180
0000
0000
0000
0100
0000
0000
0000
1000
0000
0000
0000
0001
,  // measure 181
0000
0000
0000
0000
,  // measure 182
1001
0000
0000
0000
0000
0000
0000
1000
0000
0000
0000
0100
,  // measure 183
0000
0000
0000
0010
0000
0000
0000
0001
0000
0000
0000
1000
,  // measure 184
0000
0000
0000
0000
,  // measure 185
1001
0000
0000
0000
,  // measure 186
0011
0000
0110
0000
,  // measure 187
1100
0000
0000
0000
0000
0000
0010
0000
0000
0000
0001
0000
,  // measure 188
0000
0000
0100
0000
0000
0000
0010
0000
0000
0000
1000
0000
,  // measure 189
0000
0000
0001
0000
,  // measure 190
1001
0000
0000
0000
,  // measure 191
0220
0330
0000
1000
,  // measure 192
1100
0000
0000
0000
,  // measure 193
0110
0000
0010
0000
,  // measure 194
0101
0000
0000
0000
,  // measure 195
1000
0000
0000
0000
0010
0000
0000
0000
0100
0000
0000
0000
,  // measure 196
0001
0000
0000
0000
,  // measure 197
1010
0000
0000
0000
,  // measure 198
0101
0000
0000
0000
,  // measure 199
1100
0000
0000
0000
,  // measure 200
0220
0000
0330
0000
,  // measure 201
0011
0000
0000
0000
,  // measure 202
2002
3003
0220
0330
,  // measure 203
2002
0000
0000
3003
,  // measure 204
1111
M00M
0000
0000
,  // measure 205
0000
0000
0000
0000
,  // measure 206
0000
0000
0000
MMMM
,  // measure 207
1001
0000
0000
0000
,  // measure 208
0110
0000
0000
0000
,  // measure 209
1001
0000
0000
0000
0000
0000
0000
0000
0001
0000
0000
0000
,  // measure 210
1001
0000
0000
0000
,  // measure 211
1001
0000
0000
0000
,  // measure 212
0110
0000
0000
0000
,  // measure 213
1000
0000
0000
0000
0001
0000
0000
0000
1000
0000
0000
0000
,  // measure 214
0001
0000
0000
0000
1000
0000
0000
0000
0001
0000
0000
0000
,  // measure 215
2002
3003
1001
0110
,  // measure 216
1000
0101
0010
1100
,  // measure 217
0001
1010
0100
1001
,  // measure 218
0010
1100
0001
0110
,  // measure 219
1111
1001
0000
0000
,  // measure 220
0000
0000
0000
0000
,  // measure 221
0000
0000
0000
MMMM
,  // measure 222
1001
0000
0000
0000
,  // measure 223
0110
0000
0000
0000
0000
0000
0000
0000
0001
0000
0000
0000
,  // measure 224
1001
0000
0000
1000
,  // measure 225
1001
0000
0000
0000
,  // measure 226
0101
0000
0000
0000
,  // measure 227
1010
0000
0000
0000
,  // measure 228
2002
0000
0000
0000
,  // measure 229
0000
0000
0000
0000
,  // measure 230
0000
0000
0000
0000
,  // measure 231
0000
0000
0000
3003
,  // measure 232
1001
1001
1100
1100
,  // measure 233
0011
0000
0011
0010
1010
0000
1010
0000
,  // measure 234
0110
0000
0000
0000
1010
0000
0000
0000
0011
0000
0000
0000
,  // measure 235
0110
0000
0000
0000
1100
0000
0000
0000
0101
0000
0000
0000
,  // measure 236
1001
0000
0000
0000
0110
0000
0000
0110
0000
0110
0000
0000
0110
0000
0110
0110
,  // measure 237
0110
0000
0110
0000
0110
0000
0110
0000
0000
0110
0000
0000
0110
0000
0110
0000
,  // measure 238
1001
0000
0000
0000
0110
0000
0000
0110
0000
0110
0000
0000
0110
0000
0110
0110
,  // measure 239
0110
0000
0110
0000
0110
0000
0110
0000
0000
0110
0000
0000
0110
0000
0110
0000
,  // measure 240
1001
0000
0000
0000
0000
0000
0000
0000
0000
0000
0000
1100
0000
0000
0000
0000
0000
0000
0000
0000
0000
0000
0110
0000
0000
0000
0000
0000
0000
0000
0000
0000
0000
0011
0000
0000
0000
0000
0000
0000
0000
0000
0000
0000
1001
0000
0000
0000
0000
0000
0000
0000
0000
0000
0000
1010
0000
0000
0000
0000
0000
0000
0000
0000
,  // measure 241
0000
0000
0110
0000
0000
0000
0000
0000
0000
0000
0000
0000
0000
0101
0000
0000
0000
0000
0000
0000
0000
0000
0000
0000
1001
0000
0000
0000
0000
0000
0000
0000
0110
0000
0000
0000
0000
0000
0000
0000
0011
0000
0000
0000
0000
0000
0000
0000
1100
0000
0000
0000
0000
0000
0000
0000
0110
0000
0000
0000
0000
0000
0000
0000
,  // measure 242
1001
0000
1000
0100
0010
0100
0101
0000
,  // measure 243
1001
0000
0001
0010
0100
0010
1010
0000
,  // measure 244
1001
0000
0010
0100
1001
0000
0110
0000
,  // measure 245
1000
0100
0001
0100
1000
0010
0001
0010
,  // measure 246
0MM0
0000
0000
0000
,  // measure 247
0000
0000
0000
0000
,  // measure 248
0000
0000
0000
0000
0000
0000
0000
0000
0110
MMM0
MMM0
00M0
00M0
00M0
MMMM
MMMM
,  // measure 249
0000
0000
0000
0000
,  // measure 250
0000
0000
0000
0000
,  // measure 251
0000
0000
1000
0100
0000
0100
0001
0000
0001
0010
0000
0010
1000
0000
0100
0000
,  // measure 252
0MM0
0000
0000
0000
,  // measure 253
0000
0000
0000
0000
,  // measure 254
0000
0000
0000
0000
0000
0000
0000
0000
0110
MMM0
MMM0
00M0
00M0
00M0
MMMM
MMMM
,  // measure 255
0000
0000
0000
0000
,  // measure 256
0000
0000
0000
0000
,  // measure 257
0000
0000
0001
0010
0000
0010
1000
0000
1000
0100
0000
0100
0001
0000
0010
0000
,  // measure 258
0MM0
0000
0000
0000
,  // measure 259
0000
0000
0000
0000
,  // measure 260
0000
0000
0000
0000
0000
0000
0000
0000
0110
MMM0
MMM0
00M0
00M0
00M0
MMMM
MMMM
,  // measure 261
0000
0000
0000
0000
,  // measure 262
0000
0000
0000
0000
,  // measure 263
0000
0000
1000
0100
0010
0001
0010
0100
1000
0010
0100
0001
0100
0010
1000
0000
,  // measure 264
M00M
0000
0000
0000
,  // measure 265
0000
0000
0000
0000
,  // measure 266
0000
0000
0000
0000
0000
0000
0000
0000
1MM1
MMMM
MM00
MM00
MMMM
M00M
M00M
MMMM
,  // measure 267
MMMM
0000
0000
0000
,  // measure 268
0000
0000
0000
0000
,  // measure 269
0000
0000
1000
0001
1000
0000
0001
1000
0001
0000
0100
0010
0100
0000
0010
0000
,  // measure 270
0MM0
0000
0000
0000
,  // measure 271
0000
0000
0000
0000
,  // measure 272
0000
0000
0000
0000
0000
0000
0000
0000
0110
MMM0
MMM0
00M0
00M0
00M0
MMMM
MMMM
,  // measure 273
0000
0000
0000
0000
,  // measure 274
0000
0000
0000
0000
,  // measure 275
0000
0000
1000
0010
0000
0010
0001
0000
0001
0100
0000
0100
1000
0000
0100
0000
,  // measure 276
0MM0
0000
0000
0000
,  // measure 277
0000
0000
0000
0000
,  // measure 278
0000
0000
0000
0000
0000
0000
0000
0000
0110
MMM0
MMM0
00M0
00M0
00M0
MMMM
MMMM
,  // measure 279
0000
0000
0000
0000
,  // measure 280
0000
0000
0000
0000
,  // measure 281
0000
0000
0001
0100
0000
0100
1000
0000
1000
0010
0000
0010
0001
0000
0010
0000
,  // measure 282
0MM0
0000
0000
0000
,  // measure 283
0000
0000
0000
0000
,  // measure 284
0000
0000
0000
0000
0000
0000
0000
0000
0110
MMM0
MMM0
00M0
00M0
00M0
MMMM
MMMM
,  // measure 285
0000
0000
0000
0000
,  // measure 286
0000
0000
0000
0000
,  // measure 287
0000
0000
0001
0010
0100
1000
0100
0010
0001
0100
0010
1000
0010
0100
0001
0000
,  // measure 288
M00M
0000
0000
0000
,  // measure 289
0000
0000
0000
0000
,  // measure 290
0000
0000
0000
0000
0000
0000
0000
0000
1MM1
MMMM
MM00
MM00
MMMM
M00M
M00M
MMMM
,  // measure 291
MMMM
0000
0000
0000
,  // measure 292
0000
0000
0000
0000
,  // measure 293
0000
0000
0001
1000
0001
0000
1000
0001
1000
0000
0000
0000
0010
0000
0000
0000
,  // measure 294
MMMM
0000
0000
0000
,  // measure 295
0000
0000
0000
0000
,  // measure 296
0000
0000
2222
0000
,  // measure 297
0000
0000
0000
0000
,  // measure 298
0000
0000
0000
0000
,  // measure 299
0000
0000
0000
0000
,  // measure 300
3333
0000
0000
0000
;
