#TITLE:ULTRAGLOSS;
#SUBTITLE:;
#ARTIST:DJ CAMGIRL;
#TITLETRANSLIT:;
#SUBTITLETRANSLIT:;
#ARTISTTRANSLIT:;
#GENRE:;
#CREDIT:;
#MUSIC:ULTRAGLOSS.ogg;
#BANNER:ULTRAGLOSS.png;
#BACKGROUND:ULTRAGLOSS-bg.png;
#CDTITLE:;
#SAMPLESTART:27.443;
#SAMPLELENGTH:16.457;
#SELECTABLE:YES;
#OFFSET:0.000;
#BPMS:0.000=175.000;
#STOPS:;
#ORIGIN:;
#TAGS:;
#PREVIEWVID:;
#JACKET:;
#CDIMAGE:;
#DISCIMAGE:;
#BGCHANGES:;
#FGCHANGES:;

//--------------- dance-single - X-Scale 7 ----------------
#NOTES:
     dance-single:
     X-Scale 7:
     Beginner:
     5:
     0,0,0,0,0:
0000
0000
0000
0000
,
0000
0000
0000
0000
,
0000
0000
0000
0000
,
0000
0000
0000
0000
,
1000
0100
1000
0100
,
0010
0001
0010
0001
,
1000
0010
0100
0001
,
1000
0100
0001
0100
,
1000
0000
0000
1000
0000
0000
1000
0000
,
0010
0010
0010
0010
,
0100
0000
0100
0000
,
0100
0000
0000
0100
0100
0000
0000
0100
,
0001
0000
0000
0001
0000
0000
0001
0000
,
0010
0010
0010
0010
,
0100
0000
0100
0000
,
0100
0000
0000
0100
0100
0000
0000
0100
,
1000
0000
0000
0000
,
0000
0000
0000
0000
,
0000
0000
0000
0000
,
0000
0000
0000
0000
,
0001
0010
1000
0010
,
0001
1000
0010
0010
,
1000
0001
0010
0001
,
1000
0000
0000
1000
0000
0000
0000
0000
0001
0000
0000
0001
0000
0000
1000
0000
,
0010
0001
0010
1000
,
0001
0001
0001
0001
,
0100
0010
0001
0010
,
1000
0000
0000
1000
0000
0000
0000
0000
0001
0000
0000
0001
0000
0000
0000
0000
,
1000
0000
0000
0100
0000
0000
0001
0000
,
0100
0000
0000
1000
0000
0000
0001
0000
,
0100
0000
0000
1000
0000
0000
0100
0000
,
0001
0000
0000
0010
0000
0000
0100
0000
,
1000
0000
0000
0010
0000
0000
0001
0000
,
0010
0000
0000
1000
0000
0000
0001
0000
,
0010
0000
0000
1000
0000
0000
0010
0000
,
0001
0000
0000
0100
0000
0000
0010
0000
,
1000
0000
0000
0000
,
1000
0000
0000
0000
,
0001
0000
0000
0001
,
0010
0001
0100
0001
,
1000
0000
0000
1000
0000
1000
0000
0000
,
0001
0000
0000
0001
0000
0001
0000
0000
,
0100
0000
0100
0010
,
0001
0010
1000
0001
,
0010
0000
0000
0010
0000
0010
0000
0000
,
0001
0000
0000
0001
0000
0001
0000
0000
,
1000
0000
1000
0100
,
0001
0100
0010
0100
,
1000
0000
0000
1000
0000
1000
0000
0000
,
0010
0000
0000
0010
0000
0010
0000
0000
,
0100
0000
0100
1000
,
0100
0001
0100
0000
,
0001
0000
0000
0001
0000
0000
0001
0000
,
0010
0000
0000
0010
0000
0000
0010
0000
,
0100
0100
0100
0100
,
0100
1000
1000
1000
,
0010
0000
0000
0010
0000
0000
0010
0000
,
0100
0000
0000
0100
0000
0000
0100
0000
,
0001
0001
0001
0001
,
0001
1000
1000
0000
,
0001
0000
0000
0001
0000
0000
0001
0000
,
0000
0001
0000
0000
0001
0000
0000
0000
,
1000
0000
0000
1000
0000
0000
1000
0000
,
0000
1000
0000
0000
1000
0000
0000
0000
,
0001
0000
0000
0010
0000
0000
1000
0000
,
0000
0010
0000
0000
0001
0000
1000
0000
,
0001
0000
0000
0100
0000
0000
1000
0000
,
0000
0100
0000
0000
0001
0000
0000
0000
,
1000
0100
1000
0001
,
0100
0010
0100
0000
,
0001
0010
0100
0010
,
0001
1000
0010
0000
,
1000
0100
1000
0010
,
0100
0001
0010
0000
,
0001
0100
0001
0010
,
0100
1000
0010
0000
,
1000
0100
0001
0100
,
1000
0001
0100
0000
,
0001
0010
1000
0010
,
0001
1000
0010
0100
,
0001
0100
1000
0100
,
0001
1000
0100
0000
,
1000
0010
0001
0010
,
1000
0001
0010
0001
;

//--------------- dance-single - X-Scale 11 ----------------
#NOTES:
     dance-single:
     X-Scale 11:
     Easy:
     7:
     0,0,0,0,0:
0000
0000
0000
0000
,
0000
0000
0000
0000
,
0000
0000
0000
0000
,
0000
0000
0000
0000
,
1000
0000
0000
0000
0100
0000
0000
1000
0000
0000
0010
0000
0100
0000
0000
0000
,
0001
0000
0000
0000
0010
0000
0000
0001
0000
0000
0100
0000
0010
0000
0000
0000
,
1000
0000
0000
0000
0100
0000
0000
0001
0000
0000
0100
0000
1000
0000
0000
0000
,
0001
0000
0000
0000
0100
0000
0000
1000
0000
0000
0100
0000
0001
0000
0000
0000
,
1000
0000
0000
0100
0000
0000
1000
0000
,
0001
0000
0000
0100
0000
0000
0001
0000
,
1000
0000
0000
0010
0000
0000
1000
0000
,
0001
0000
0000
0001
0000
0000
0001
0000
0001
0000
0000
0001
0000
0000
0001
0000
,
1000
0000
0000
0100
0000
0000
0010
0000
,
0001
0000
0000
0100
0000
0000
0010
0000
,
1000
0000
0000
0010
0000
0000
0100
0000
,
0001
0000
0000
0001
0000
0000
0001
0000
0001
0000
0000
0001
0000
0000
0001
0000
,
0002
0000
0000
0000
,
0000
0000
0000
0000
,
2003
0000
0000
0000
,
0000
0000
0000
0000
,
3001
0000
0010
0000
1000
0000
0010
0001
,
1000
0000
0010
0000
0100
0100
0000
0000
,
0001
0000
0010
0000
0001
0100
0010
1000
,
0100
0000
0000
0100
0000
0000
0100
0000
0010
0000
0000
0010
0000
0000
0002
0000
,
1003
0000
0010
0000
0001
0010
1000
0000
,
0001
0010
0100
0000
,
1000
0000
0001
0000
0010
0001
0100
0010
,
1000
0000
0000
1000
0000
0000
1000
0000
1000
0000
0000
1000
0000
0000
1000
0000
,
0001
0000
0000
0010
0000
0000
1000
0000
,
0010
0000
0000
0001
0000
0000
1000
0000
,
0010
0000
0000
0001
0000
0000
0010
0000
,
1000
0000
0000
0001
0000
0000
0100
0000
,
1000
0000
0000
0100
0000
0000
0001
0000
,
1000
0000
0000
0100
0000
0000
0001
0000
,
0100
0000
0000
1000
0000
0000
0001
0000
,
0100
0000
0000
0010
0000
0000
1000
0000
,
0001
0000
0000
0001
0000
0000
0001
0000
0000
0000
0001
0000
0000
0000
0001
0000
,
0001
0000
0000
0001
0000
0000
0001
0000
0000
0000
0001
0000
0000
0000
0001
0000
,
1000
0000
0000
1000
0000
0000
1000
0000
1000
0000
1000
0000
0010
0000
0100
0000
,
0001
0000
1000
0100
0010
0000
0100
1000
,
0010
0000
0000
0010
0000
0000
0010
0000
0000
0000
0010
0000
0000
0000
0010
0000
,
0010
0000
0000
0010
0000
0000
0010
0000
0000
0000
0010
0000
0000
0000
0010
0000
,
0100
0000
0000
0100
0000
0000
0100
0000
0100
0000
0100
0000
0001
0000
1000
0000
,
0100
0000
0010
0100
1000
0000
0001
0100
,
0010
0000
0000
0010
0000
0000
0010
0000
0000
0000
0010
0000
0000
0000
0010
0000
,
0010
0000
0000
0010
0000
0000
0010
0000
0000
0000
0010
0000
0000
0000
0010
0000
,
1000
0000
0000
1000
0000
0000
1000
0000
1000
0000
1000
0000
0001
0000
0010
0000
,
0001
0000
0100
0010
1000
0000
0100
1000
,
0001
0000
0000
0001
0000
0000
0001
0000
0000
0000
0001
0000
0000
0000
0001
0000
,
0001
0000
0000
0001
0000
0000
0001
0000
0000
0000
0001
0000
0000
0000
0001
0000
,
0010
0000
0000
0010
0000
0000
0010
0000
0010
0000
0010
0000
0100
0000
1000
0000
,
0001
0000
0100
0010
0100
0000
0001
0000
,
1000
0100
0010
1000
,
0010
0000
0001
0000
1000
0010
0100
0001
,
0010
0100
0001
0100
,
1000
0010
0100
0001
,
1000
0010
0100
1000
,
0100
0000
0001
0000
1000
0100
0010
0001
,
0100
0010
0001
0010
,
1000
0001
0010
0100
,
1000
0000
0000
1000
0000
0000
1000
0000
,
0000
0000
1000
0000
0000
0000
0000
0000
1000
0000
0000
0010
0000
0100
0000
0000
,
0001
0000
0000
0001
0000
0000
0001
0000
,
0000
0001
0000
0000
1000
0000
0000
1000
,
1000
0000
0001
0000
0010
0100
0010
0000
,
1000
0000
0010
0000
0001
1000
0010
0000
,
0100
0000
0001
0000
0100
1000
0100
0000
,
0001
0000
0010
0000
0100
1000
0001
0000
,
1000
0000
0000
1000
0000
0000
1000
0000
1000
0000
0000
1000
0000
0000
1000
0000
,
1000
0000
0000
1000
0000
0000
1000
0000
0010
0000
0000
0100
0000
0000
0001
0000
,
1000
0000
0000
1000
0000
0000
1000
0000
1000
0000
0000
1000
0000
0000
1000
0000
,
1000
0000
0000
1000
0000
0000
1000
0000
0001
0000
0000
0010
0000
0000
0001
0000
,
0001
0000
0000
0001
0000
0000
0001
0000
0001
0000
0000
0001
0000
0000
0001
0000
,
0001
0000
0000
0001
0000
0000
0001
0000
0010
0000
0000
0100
0000
0000
1000
0000
,
0001
0000
0000
0001
0000
0000
0001
0000
0001
0000
0000
0001
0000
0000
0001
0000
,
0001
0000
0000
0001
0000
0000
0001
0000
1000
0000
0000
0010
0000
0000
1000
0000
,
1000
0000
0000
0100
0000
0000
1000
0000
0001
0000
0000
0100
0000
0000
0010
0000
,
0100
0000
0000
1000
0000
0000
0100
0000
0001
0000
0000
0010
0000
0000
0100
0000
,
1000
0000
0000
0010
0000
0000
1000
0000
0001
0000
0000
0010
0000
0000
0100
0000
,
0010
0000
0000
1000
0000
0000
0010
0000
0001
0000
0000
1000
0000
0000
0001
0000
,
1000
0000
0000
0010
0000
0000
0100
0000
0010
0000
0000
1000
0000
0000
0001
0000
,
0010
0000
0000
1000
0000
0000
0010
0000
0001
0000
0000
0100
0000
0000
0010
0000
,
1000
0000
0000
0100
0000
0000
0010
0000
0100
0000
0000
1000
0000
0000
0001
0000
,
0100
0000
0000
1000
0000
0000
0100
0000
0001
0000
0000
0010
0000
0000
0100
0000
;

//--------------- dance-single - X-Scale 13 ----------------
#NOTES:
     dance-single:
     X-Scale 13:
     Medium:
     9:
     0,0,0,0,0:
0000
0000
0000
0000
,
0000
0000
0000
0000
,
0000
0000
0000
0000
,
0000
0000
0000
0000
,
1000
0000
0000
0000
0100
0000
1000
0010
0000
0000
0001
0000
0010
0000
1000
0000
,
0001
0000
0000
0000
0010
0000
0001
0100
0000
0000
0010
0000
1000
0000
0001
0000
,
0010
1000
0010
0001
1000
0010
0100
0001
,
1000
0100
0001
1000
0010
0001
0100
0010
,
1000
0000
0000
1000
0000
0000
1000
0000
0000
1000
0000
0000
1000
0000
1000
0000
,
0010
0000
0000
0010
0000
0000
0010
0000
0000
0010
0000
0000
0010
0000
0010
0000
,
0100
0000
0000
0100
0000
0000
0100
0000
0100
0000
0000
0100
0000
0000
0100
0000
,
0001
0000
0000
0001
0000
0000
0001
0000
0001
0000
0000
0001
0000
0000
0001
0000
,
0010
0000
0000
0010
0000
0000
0010
0000
0000
0010
0000
0000
0010
0000
0010
0000
,
0100
0000
0000
0100
0000
0000
0100
0000
0000
0100
0000
0000
0100
0000
0100
0000
,
1000
0000
0000
1000
0000
0000
1000
0000
1000
0000
0000
1000
0000
0000
1000
0000
,
0001
0000
0000
0001
0000
0000
0001
0000
0001
0000
0000
0001
0000
0000
0001
0000
,
2000
0000
0000
0000
,
0000
0000
0000
0000
,
3002
0000
0000
0000
,
0000
0000
0000
0000
,
1003
0100
1000
0001
0100
1000
0001
0010
,
1000
0000
0000
1000
0000
0000
1000
0000
0000
1000
0000
0000
1000
0000
1000
0000
,
0001
0010
0001
0100
0010
0100
0001
0010
,
0100
0000
0000
0100
0000
0100
1000
0000
1000
0000
0000
1000
0000
1000
0001
0000
,
0100
1000
0100
0001
1000
0100
0010
0001
,
0100
0000
0000
0100
0000
0000
0100
0000
0000
0100
0000
0000
0100
0000
0100
0000
,
0010
1000
0001
0010
0100
0010
0001
1000
,
0010
0000
0000
0010
0000
0010
0100
0000
0001
0000
1000
0000
0002
0000
0000
0000
,
1003
0000
0000
0100
0000
0000
1000
0000
0000
0100
0000
0000
1000
0000
0100
0000
,
0010
0000
0000
0001
0000
0000
0010
0000
0000
0001
0000
0000
0010
0000
0001
0000
,
1000
0000
0000
0010
0000
0000
1000
0000
0000
0010
0000
0000
1000
0000
0010
0000
,
0100
0000
0000
0001
0000
0000
0100
0000
0000
0001
0000
0000
0100
0000
0001
0000
,
1000
0000
0000
0100
0000
0000
0010
0000
0000
0100
0000
0000
1000
0000
0100
0000
,
0010
0000
0000
0001
0000
0000
0010
0000
0000
0100
0000
0000
0010
0000
0001
0000
,
1000
0000
0000
0010
0000
0000
0100
0000
0000
0010
0000
0000
1000
0000
0010
0000
,
0100
0000
0000
0001
0000
0000
0100
0000
0000
0010
0000
0000
0100
0000
0001
0000
,
1000
0000
0000
1000
0000
1000
0100
0000
0000
0000
1000
0000
0000
0000
1000
0000
,
1000
0000
1000
0100
0000
0000
1000
0000
0000
0000
1000
0000
0000
0000
1000
0000
,
0001
0100
0000
0001
0000
0001
0100
0000
0001
0000
0100
0000
0001
0000
1000
0000
,
0100
0001
0100
1000
0001
0100
1000
0100
,
0001
0010
0000
0001
0000
0001
0010
0000
0000
0000
0001
0000
0000
0000
0001
0000
,
0001
0000
0001
0010
0000
0000
0001
0000
0000
0000
0001
0000
0000
0000
0001
0000
,
1000
0010
0000
1000
0000
1000
0010
0000
1000
0000
0010
0000
1000
0000
0001
0000
,
0010
1000
0010
0001
1000
0010
0001
0010
,
1000
0010
0000
1000
0000
1000
0010
0000
0000
0000
1000
0000
0000
0000
1000
0000
,
1000
0000
1000
0010
0000
0000
1000
0000
0000
0000
1000
0000
0000
0000
1000
0000
,
0001
0010
0000
0001
0000
0001
0010
0000
0001
0000
0010
0000
0001
0000
1000
0000
,
0010
0001
1000
0100
0001
0010
0100
1000
,
0001
0100
0000
0001
0000
0001
0100
0000
0000
0000
0001
0000
0000
0000
0001
0000
,
0001
0000
0001
0100
0000
0000
0001
0000
0000
0000
0001
0000
0000
0000
0001
0000
,
1000
0100
0000
1000
0000
1000
0100
0000
1000
0000
0100
0000
1000
0000
0001
0000
,
0100
1000
0001
0010
1000
0001
0000
0000
,
1000
0100
0000
0100
0000
0000
0010
0000
0001
0000
1000
0000
0010
0000
0100
0000
,
0001
0000
0001
0010
0000
0000
0100
0000
1000
0000
0001
0000
1000
0000
0001
0000
,
0100
1000
0000
0100
0000
0000
0001
0000
1000
0000
0100
0000
0001
0000
0000
0100
,
0000
0000
1000
0000
0001
0000
0000
0100
0000
0000
0010
0000
1000
0000
0001
0000
,
0010
0100
0000
0010
0000
0000
0001
0000
0010
0000
1000
0000
0010
0000
0001
0000
,
1000
0000
0010
0100
0000
0000
0010
0000
0001
0000
0010
0000
0100
0000
0001
0000
,
1000
0100
0000
0100
0000
0000
0010
0000
0001
0000
1000
0000
0001
0000
0100
0000
,
0010
0000
1000
0000
0001
0010
0000
0010
0000
0000
0100
0000
0000
0000
0000
0000
,
1000
0000
0000
1000
0000
0000
1000
0000
0000
1000
0000
0000
1000
0000
0000
1000
,
0000
0000
1000
0000
0000
1000
0000
0000
1000
0000
0000
0010
0000
0100
0000
0000
,
0001
0000
0000
0001
0000
0000
0001
0000
0000
0001
0000
0000
0001
0000
0000
0001
,
0000
0000
0001
0000
0000
0001
0000
0000
1000
0000
0000
1000
0000
0000
1000
0000
,
0001
0000
0000
0010
0000
0000
0001
0000
0000
1000
0000
0000
0010
0000
0000
0001
,
0000
0000
0010
0000
0000
1000
0000
0000
0001
0000
0000
0010
0000
0100
0000
0000
,
1000
0000
0000
0001
0000
0000
0100
0000
0000
1000
0000
0000
0100
0000
0000
0001
,
0000
0000
1000
0000
0000
0100
0000
0000
0010
0000
0000
0001
0000
0000
1000
0000
,
0001
0000
0000
0001
0000
0000
0001
0000
0010
0000
0000
0010
0000
0000
0010
0000
,
0100
0000
0000
0100
0000
0000
0100
0000
1000
0000
0000
0010
0000
0000
0100
0000
,
0001
0000
0000
0001
0000
0000
0001
0000
0100
0000
0000
0100
0000
0000
0100
0000
,
0010
0000
0000
0010
0000
0000
0010
0000
1000
0000
0000
0001
0000
0000
1000
0000
,
0001
0000
0000
0010
0000
0000
0001
0000
1000
0000
0000
0010
0000
0000
1000
0000
,
0001
0000
0000
0100
0000
0000
0001
0000
1000
0000
0000
0100
0000
0000
0010
0000
,
0001
0000
0000
1000
0000
0000
0010
0000
1000
0000
0000
0001
0000
0000
0010
0000
,
0001
0000
0000
1000
0000
0000
0100
0000
1000
0000
0000
0001
0000
0000
1000
0000
,
0001
0000
0000
0010
0000
0000
1000
0000
0010
0000
0000
0001
0000
0000
1000
0000
,
0010
0000
0000
0001
0000
0000
0010
0000
1000
0000
0000
0100
0000
0000
0010
0000
,
0001
0000
0000
1000
0000
0000
0010
0000
0001
0000
0000
0010
0000
0000
1000
0000
,
0001
0000
0000
0010
0000
0000
1000
0000
0010
0000
0000
0001
0000
0000
1000
0000
,
0001
0000
0000
0100
0000
0000
1000
0000
0100
0000
0000
0001
0000
0000
1000
0000
,
0100
0000
0000
0001
0000
0000
0100
0000
1000
0000
0000
0010
0000
0000
0100
0000
,
0001
0000
0000
1000
0000
0000
0100
0000
0001
0000
0000
0100
0000
0000
1000
0000
,
0001
0000
0000
0100
0000
0000
1000
0000
0100
0000
0000
0001
0000
0000
1000
0000
;

//--------------- dance-single - X-Scale 15-16 ----------------
#NOTES:
     dance-single:
     X-Scale 15-16:
     Hard:
     10:
     0,0,0,0,0:
0000
0000
0000
0000
,
0000
0000
0000
0000
,
0000
0000
0000
0000
,
0000
0000
0000
0000
,
1000
0100
0000
01M0
0001
0000
0001
0010
0000
0M10
1000
0000
0001
0010
0001
0000
,
1000
0010
0000
0M10
0001
0000
0001
0100
0000
01M0
1000
0000
0001
0100
0010
1000
,
0001
0010
0000
0M10
1000
0000
0000
0100
0000
01M0
0001
0000
1000
0100
0000
0010
,
0001
0100
0000
0000
01M0
0000
1000
0010
0000
0M10
0001
0000
1000
0000
0001
1000
,
0001
0000
0000
0001
0000
0000
0001
0000
0000
0001
0000
0000
0001
0000
0001
0000
,
1000
0000
0100
1000
0000
0100
1000
0000
0100
1000
0000
0100
1000
0000
0100
0000
,
1000
0000
0000
1000
0000
0000
1000
0000
1000
0000
0000
1000
0000
0000
1000
0000
,
0010
0000
0000
0010
0000
0010
0100
0000
0100
0010
0000
0010
0000
0010
0100
0000
,
0001
0000
0000
0001
0000
0000
0001
0000
0000
0001
0000
0000
0001
0000
0001
0000
,
1000
0000
0010
1000
0000
0010
1000
0000
0010
1000
0000
0010
1000
0000
0010
0000
,
1000
0000
0000
1000
0000
0000
1000
0000
1000
0000
0000
1000
0000
0000
1000
0000
,
0100
0000
0000
0100
0000
0100
0010
0000
0010
0100
0000
0100
0000
0100
0010
0000
,
0002
0000
0000
0000
,
0000
0000
0000
0000
,
2003
0000
0000
0000
,
0000
0000
0000
0000
,
3001
0000
0010
0000
0001
0000
1000
0000
0010
0000
1000
0000
0100
0010
0100
0000
,
1000
0001
0100
1000
0100
0101
0002
0003
,
1000
0000
0100
0000
0001
0000
0000
0100
1000
0001
0100
0000
0101
0000
0001
0000
,
1000
0000
0000
1000
0000
1000
0100
0000
0100
0010
0000
0010
0001
0000
2000
0000
,
3001
0000
0010
0000
1000
0000
0001
0000
0100
0000
1000
0000
0001
0100
0001
0000
,
1000
0000
1000
0000
0100
0000
1000
0001
0000
0000
0000
0000
0000
0000
0100
0000
,
0001
0000
0010
0000
0100
0000
0000
0001
0100
1000
0001
0000
0001
0000
1000
0000
,
0001
0000
0000
0001
0000
0001
0100
0000
0100
0010
0000
0010
2000
0000
0000
0000
,
3001
0000
0000
0010
0000
0000
1000
0000
0000
0010
0000
0000
0001
0000
0000
0000
,
1000
0000
0000
0010
0000
0000
0001
0000
0000
0010
0000
0000
1000
0000
0001
0000
,
0010
0000
0000
1000
0000
0000
0001
0000
0000
0100
0000
0000
1000
0000
0000
0000
,
0010
0000
0000
0001
0000
0000
1000
0000
0000
0100
0000
0000
0001
0000
1000
0000
,
0100
0000
0000
0010
0000
0000
1000
0000
0000
0010
0000
0000
0001
0000
0000
0000
,
0100
0000
0000
0010
0000
0000
0001
0000
0000
0010
0000
0000
1000
0000
0001
0000
,
0010
0000
0000
0100
0000
0000
0001
0000
0000
0100
0000
0000
1000
0000
0000
0000
,
0010
0000
0000
0100
0000
0000
1000
0000
0000
0100
0000
0000
0001
0000
1000
0000
,
0100
0000
0000
0100
0000
0100
0010
0000
0000
0000
0010
0000
0000
0000
0010
0000
,
0001
0000
0001
1000
0000
0000
1000
0000
0000
0000
1000
0000
0000
0000
1000
0000
,
1000
0010
0000
0010
0000
0010
0100
0000
0100
0001
0100
0000
0000
0000
0001
0000
,
0000
0000
0010
0000
0000
0000
1000
0000
0000
0100
0000
0000
0000
0001
1000
0001
,
1000
0001
0000
0001
0000
0001
0010
0000
0000
0000
0010
0000
0000
0000
0010
0000
,
0010
0000
0010
0100
0000
0000
0100
0000
0000
0000
0100
0000
0000
0000
0100
0000
,
0100
1000
0000
1000
0000
1000
0010
0000
0010
0100
0001
0000
0000
0000
0010
0000
,
0000
0000
1000
0000
0000
0010
0000
0000
0001
1000
0000
0000
0000
0010
0100
0001
,
1000
0100
0000
0100
00M0
0100
0001
0000
0000
0000
0001
0000
0000
0000
0001
0000
,
0001
0000
0001
0010
0000
0000
0010
0000
0000
0000
0010
0000
0000
0000
0010
0M00
,
0010
1000
0000
1000
0000
1000
0001
0000
0010
0100
0010
0000
0000
0000
0001
0000
,
0000
0000
1000
0000
0010
0000
0000
0100
1000
0000
0000
0000
0000
0100
0001
1000
,
0001
0100
0000
0100
00M0
0100
1000
0000
0000
0000
1000
0000
0000
0000
1000
0000
,
1000
0000
1000
0010
0000
0000
0010
0000
0000
0000
0010
0000
0000
0000
0010
0M00
,
0010
0001
0000
0001
0000
0001
1000
0000
0010
0100
0010
0000
0000
0000
1000
0000
,
0000
0000
0001
0000
0010
0000
0000
1000
0010
0000
0100
0000
0000
0000
0000
0000
,
1000
0100
0000
0001
0000
0000
0100
0000
0000
0000
1000
0000
0000
0000
0001
0000
,
0100
0000
0000
1000
0000
0000
0100
0000
0000
0000
0001
0000
0000
0000
1000
0000
,
0100
1000
0000
0010
0000
0100
0001
0000
0010
0001
1000
0000
0010
0100
0000
0001
,
0000
1000
0100
0000
0010
0100
0000
0001
0000
0100
0010
0001
1000
0000
0010
0100
,
0001
0010
0000
1000
0000
0000
0010
0000
0000
0000
0001
0000
0000
0000
1000
0000
,
0010
0000
0000
0001
0000
0000
0010
0000
0000
0000
1000
0000
0000
0000
0001
0000
,
0010
0001
0000
0100
0000
0010
1000
0000
0100
1000
0001
0000
0010
0100
0000
1000
,
0000
0001
0100
0000
0010
0100
0000
1000
0000
0100
0010
1000
0000
0000
0000
0000
,
0001
0000
0000
0001
0000
0000
0001
0000
0000
0001
0000
0000
0001
0000
0000
0001
,
0000
0000
0001
0000
0000
0001
0000
0000
1000
0000
0000
0010
0000
0100
0001
0000
,
1000
0000
0000
1000
0000
0000
1000
0000
0000
1000
0000
0000
1000
0000
0000
1000
,
0000
0000
1000
0000
0000
1000
0000
0000
0001
0000
0000
0001
0000
0000
0001
0000
,
1000
0000
0000
0100
0000
0000
0001
0000
0000
1000
0000
0000
0010
0000
0000
0001
,
0000
0000
1000
0000
0000
0010
0000
0000
0001
0000
0000
0010
0000
1000
0001
0000
,
1000
0000
0000
0010
0000
0000
0001
0000
0000
1000
0000
0000
0100
0000
0000
0001
,
0000
0000
0010
0000
0000
1000
0000
0000
0001
0000
0000
0100
0000
0000
1000
0000
,
0001
0010
0000
0001
0100
0000
0001
0000
1000
0100
0000
1000
0010
0000
1000
0000
,
0001
0010
0000
0100
1000
0000
0001
0000
1000
0010
0000
0010
0100
0000
0001
0000
,
1000
0010
0000
1000
0100
0000
1000
0000
0001
0100
0000
0001
0010
0000
0001
0000
,
1000
0010
0000
0100
0001
0000
1000
0000
0001
0010
0000
0010
0000
0000
0100
0000
,
1000
0010
0000
0001
0010
0000
1000
0000
0001
0010
0000
1000
0010
0000
0001
0000
,
1000
0010
0000
0001
0010
0000
1000
0000
0010
0001
0000
1000
0100
0000
0001
0000
,
1000
0100
0000
0001
0100
0000
1000
0000
0001
0100
0000
1000
0100
0000
0001
0000
,
1000
0100
0000
0001
0100
0000
1000
0000
0100
0001
0000
1000
0000
0000
0010
0000
,
0001
0000
0000
0100
0000
0000
0001
0010
0100
0000
0000
1000
0000
0000
0010
0000
,
1000
0000
0000
0001
0000
0010
1000
0000
0010
0000
0001
0100
0000
0000
0010
0000
,
1000
0000
0000
0100
0000
1000
0010
0000
0100
0000
0001
0010
0000
0000
0001
0000
,
1000
0000
0000
0010
0000
0000
0001
0000
0010
0000
0000
1000
0000
0001
0010
0100
,
1000
0000
0000
0010
0000
0000
1000
0100
0010
0000
0000
0001
0000
0000
0100
0000
,
0001
0000
0000
1000
0000
0100
0001
0000
0100
0000
1000
0010
0000
0000
0100
0000
,
0001
0000
0000
0010
0000
0001
0100
0000
0010
0000
1000
0100
0000
0000
1000
0000
,
0001
0000
0000
0100
0000
0000
1000
0000
0100
0000
0000
0001
0000
1000
0100
0010
;

//--------------- dance-single - X-Scale 18 ----------------
#NOTES:
     dance-single:
     X-Scale 18:
     Challenge:
     13:
     0,0,0,0,0,0,0,0,0,0,0,0,0,0,0,0,0,0,0,0,0,0,0,0,0,0,0,0:
0000
0000
0000
0000
,
0000
0000
0000
0000
,
0000
0000
0000
0000
,
0000
0000
0000
0000
,
1000
0100
0000
1000
0001
0000
0100
0010
0000
0100
1000
0000
0100
0001
1000
0100
,
0010
0001
0000
1000
0010
0000
0001
0010
0000
1000
0001
0000
0010
0100
1000
0001
,
0100
0010
0000
0001
0010
0000
1000
0001
0000
0010
0001
0000
0100
0010
1000
0100
,
1000
0001
0000
0000
0100
0000
1000
0100
0000
0001
1000
0000
0100
0000
0010
0001
,
1000
0000
0000
1000
0000
0000
1000
0000
0000
1000
0000
0000
1000
0000
1000
0000
,
0001
0000
0100
0001
0000
0100
0001
0000
0100
0001
0000
0100
0001
0000
0100
0000
,
0001
0000
0000
0001
0000
0000
0001
0000
0001
0000
0000
0001
0000
0000
0001
0000
,
1100
0000
0000
1100
0000
0100
1000
0000
1000
0100
0000
1100
0000
1000
0100
1000
,
0001
0000
0000
0001
0000
0000
0001
0000
0000
0001
0000
0000
0001
0000
0001
0000
,
1000
0000
0010
1000
0000
0010
1000
0000
0010
1000
0000
0010
1000
0000
0001
0000
,
0010
0000
0000
0010
0000
0000
0010
0000
0010
0000
0000
0010
0000
0000
0010
0000
,
0011
0000
0000
0011
0000
0001
0010
0000
0010
0001
0000
0011
0000
0001
0010
0001
,
2000
0000
0000
0000
,
0010
0000
0000
0010
0000
0000
0010
0000
0000
0010
0000
0000
0010
0000
0010
0000
,
0002
0000
0000
3000
,
0010
0000
0000
0010
0000
0000
0010
0000
0010
0000
0000
0010
0000
0000
0010
0000
,
1003
0000
0100
0000
1100
0000
0001
0000
0100
0010
1000
0000
0001
0010
0100
0010
,
0001
0000
1000
0010
0000
1000
0001
0000
1000
0100
0000
1000
0001
0000
0001
0000
,
0100
0000
0010
0000
1010
0000
0000
1000
0100
0000
0011
0000
0011
0000
0001
0000
,
1001
0000
0000
1000
0001
0100
0001
1000
0100
0010
0100
1000
0001
0000
4000
0000
,
3001
0000
0100
0000
0101
0000
1000
0000
0100
0000
0011
0000
0001
1000
0010
0000
,
1000
0000
0001
0100
0000
0001
1000
0000
0021
0000
0001
0000
0001
0000
0031
0000
,
1000
0000
0010
0000
0100
0001
0010
0001
1000
0000
1100
0000
1100
0000
0100
0000
,
1000
0000
0000
1000
0001
0100
0001
0010
0100
1000
0002
0000
0403
0000
0000
0000
,
0301
0100
0001
0100
0000
0000
0010
1000
0010
1000
0000
0000
0010
0001
0010
0000
,
1000
0100
1000
0100
0000
0000
0010
0001
0010
0001
0000
0000
1000
0010
0100
0001
,
1000
0100
0010
0100
0000
0000
0010
0001
1000
0010
0000
0000
0101
0000
0101
0000
,
1000
0100
1000
0001
0000
0000
0100
0010
0100
0001
0000
0000
1000
0100
0000
0010
,
0001
0010
0001
0010
0000
0000
0100
1000
0100
1000
0000
0000
0100
0001
0100
0000
,
1000
0010
1000
0010
0000
0000
0100
0001
0100
0001
0000
0000
1000
0100
0010
0100
,
1000
0001
0100
0002
0000
0003
0011
0000
0001
0020
0000
0030
0001
1000
0010
0000
,
1020
0000
0000
2030
0000
0000
3001
0000
0011
0000
0001
1000
0010
0100
0001
1000
,
0001
0010
0000
0010
0000
0010
0100
0000
0000
0000
0100
0000
0000
0000
0100
0000
,
0100
0000
0100
1000
0000
0000
1000
0000
0000
0000
1000
0000
0000
0000
1000
0000
,
1000
0010
0000
0010
0000
0010
0100
0000
0100
0001
0100
0000
0001
1000
0100
0010
,
0100
1000
0001
0100
0010
1000
0001
0010
0001
1000
0010
1000
0100
0010
0100
1000
,
0001
0100
0000
0100
0000
0100
0010
0000
0001
0000
0010
0000
0100
0000
0010
0000
,
0010
0000
0010
1000
0000
0000
1000
0000
1001
0000
1000
0000
0010
0000
1000
0000
,
1000
0100
0000
0100
0000
0100
0010
0000
0010
0001
0010
0000
0001
1000
0010
1000
,
0100
0010
0100
1000
0001
0010
0001
0100
0010
1000
0100
1000
0001
0100
0010
0100
,
0001
1000
0000
1000
0000
1000
0100
0000
0001
0000
0100
0000
1000
0000
0100
0000
,
0100
0000
0100
0010
0000
0000
0010
0000
0011
0000
0010
0000
1000
0000
0010
0000
,
0010
0001
0000
0001
0000
0001
0100
0000
0100
0010
0100
0000
0001
0010
0001
1000
,
0010
0100
0001
0010
0001
1000
0100
1000
0001
0100
0010
1000
0001
0010
0100
0010
,
0001
1000
0000
1000
0000
1000
0010
0000
0001
0000
0010
0000
1000
0000
0010
0000
,
0010
0000
0010
0100
0000
0000
0100
0000
0101
0000
0100
0000
1000
0000
0100
0000
,
0100
0001
0000
0001
0000
0001
0010
0000
0010
0100
1000
0000
0010
0100
0001
1000
,
0100
0010
0100
1000
0001
0100
0001
1000
0010
1000
0001
0010
0000
0000
0000
0000
,
0001
0100
0000
0100
0000
0100
0010
0000
1000
0100
1000
0000
0001
0000
1000
0000
,
1000
0000
1000
0100
0000
0001
0100
0000
1000
0001
0100
0010
0100
0001
1000
0100
,
0010
0001
0000
0001
0000
0001
1000
0000
0010
0100
0010
0000
1000
0100
0000
0100
,
0000
0100
0010
0000
0010
1000
0000
0010
0000
0001
1000
0010
0100
0000
0001
1000
,
0001
0010
0000
0010
0000
0010
0100
0000
0001
0100
1000
0000
0010
0000
0100
0000
,
0010
0000
0010
1000
0000
0000
1000
0000
0100
0010
0100
1000
0001
0100
0010
1000
,
0001
0010
0000
0010
0000
0010
1000
0000
0010
0001
1000
0000
0010
0100
0000
0100
,
0000
0100
0001
0000
1000
0100
0000
0100
1000
0010
0100
0002
0003
0000
2000
0000
,
3010
0000
0000
0010
0000
0000
0010
0000
0000
0010
0000
0000
0010
0000
0000
0010
,
0000
0000
0010
0000
0000
0010
0000
0000
0010
0000
0000
1000
0000
0001
0010
0000
,
0010
0000
0000
0010
0000
0000
0010
0000
0000
0010
0000
0000
0010
0000
0000
0010
,
0000
0000
0010
0000
0000
0010
0000
0000
0001
0000
0000
0001
0000
0000
0001
0000
,
1000
0100
0000
1000
0000
0010
1000
0000
0001
0010
0001
0000
0100
0000
0000
0010
,
1000
0000
0001
0000
0000
0010
1000
0000
0010
0001
0000
1000
0010
0100
0001
1000
,
0100
0010
0000
0100
0000
0001
0100
0000
1000
0100
0000
0000
0010
0001
1000
0000
,
0010
0000
0100
1000
0000
0100
0010
0000
0100
0001
0000
1000
0200
0000
1300
0000
,
0001
0010
0000
0001
0100
0000
0001
0010
0100
1000
0000
0100
0010
0000
0100
1000
,
0010
0100
0000
0010
1000
0000
0010
0100
0001
0000
1000
0100
0000
0000
0010
0001
,
1000
0010
0000
1000
0100
0000
1000
0000
0010
0001
0000
0010
0100
0000
0010
0000
,
1000
0001
0000
0010
0001
0000
0100
0000
0010
0000
0000
1000
0000
0000
0001
0000
,
1000
0100
0000
1000
0010
0000
1000
0100
0010
0001
0000
0010
0100
0000
0010
0001
,
0100
0010
0000
1000
0010
0000
0100
0010
1000
0001
0000
0010
1000
0000
0010
0001
,
1000
0010
0000
0100
0010
0000
0001
0000
0010
0100
0000
0001
0010
0000
0100
1000
,
0001
0100
0000
1000
0100
0000
0001
0000
1000
0000
0000
0100
0000
0000
0010
0000
,
0001
0000
1000
0010
0000
0000
0100
0001
0100
0000
0010
0001
0000
0010
1000
0000
,
0001
0000
0010
0001
0000
0100
0010
0000
0001
0000
0000
0010
0000
0000
1000
0000
,
0001
0000
0000
1000
0000
0100
0010
0000
0001
0000
0010
0100
0000
1000
0001
0000
,
0100
0000
1000
0100
0000
0001
1000
0000
0100
0000
1000
0010
0000
0100
0001
0010
,
0001
0000
0000
0010
0000
0000
0100
1000
0100
0000
0010
0001
0000
1000
0010
0000
,
0001
0010
1000
0001
0010
0001
1000
0000
0010
0000
0000
0100
0000
0000
0001
0000
,
1000
0100
0000
1000
0000
0010
0100
0000
0001
0000
0010
0001
0010
0000
1000
0000
,
0010
0001
0000
1000
0010
1000
0000
0001
0010
0000
0010
0100
0000
0100
1000
0100
;
