#TITLE:want to LIVE;
#SUBTITLE:;
#ARTIST:Unholy Orpheus;
#TITLETRANSLIT:;
#SUBTITLETRANSLIT:;
#ARTISTTRANSLIT:;
#GENRE:;
#CREDIT:;
#MUSIC:want to LIVE.ogg;
#BANNER:;
#BACKGROUND:;
#CDTITLE:;
#SAMPLESTART:56.062;
#SAMPLELENGTH:13.714;
#SELECTABLE:YES;
#OFFSET:-0.348;
#BPMS:0.000=140.000;
#STOPS:;
#BGCHANGES:;
#FGCHANGES:;

//--------------- dance-single - Pax_Vesania ----------------
#NOTES:
     dance-single:
     Pax_Vesania:
     Beginner:
     3:
     0,0,0,0,0:
0000
0000
0000
0000
,
0000
0000
0000
0000
,
0000
0000
0000
0000
,
0000
0000
0000
0000
,
0000
0000
1000
0000
,
0000
0000
0000
0000
,
0000
0000
0001
0000
,
0000
0000
0100
0000
,
0100
0000
0000
0000
,
0000
0000
0000
0000
,
1001
0000
0000
0000
,
0000
0000
0000
0000
,
0001
0000
0001
0000
,
0000
0000
0010
0000
,
0000
0000
0100
0000
,
0000
0000
1000
0000
,
0000
0000
0010
0000
,
0000
0000
0010
0000
,
0000
0000
0001
0000
,
0000
0000
1000
0000
,
0000
0000
1001
0000
,
0000
0000
0110
0000
,
0000
0000
1001
0000
,
0000
0000
0110
0000
,
0000
0000
0001
0000
,
0000
0000
0001
0000
,
0000
0000
1000
0000
,
0000
0000
1000
0000
,
0000
0000
0100
0000
,
0000
0000
0010
0000
,
0000
0000
0100
0000
,
0000
0000
0001
0000
,
0001
0000
2000
0000
,
0000
0000
0000
0000
0000
0000
0000
3000
0020
0000
0000
0000
0000
0000
0000
0000
,
0000
0000
0000
0000
0000
0000
0000
0030
0200
0000
0000
0000
0000
0000
0000
0000
,
0000
0000
0000
0000
0000
0000
0000
0300
0001
0000
0000
0000
0000
0000
0000
0000
,
0001
0000
0200
0000
,
0000
0000
0000
0000
0000
0000
0000
0300
0002
0000
0000
0000
0000
0000
0000
0000
,
0000
0000
0000
0000
0000
0000
0000
0003
0020
0000
0000
0000
0000
0000
0000
0000
,
0000
0000
0000
0000
0000
0000
0000
0030
0001
0000
0000
0000
0000
0000
0000
0000
,
0001
0000
1000
0000
,
0000
0000
0010
0000
,
0000
0000
0100
0000
,
0000
0000
0001
0000
,
0000
0000
0100
0000
,
0000
0000
0010
0000
,
0000
0000
1000
0000
,
0000
0000
0001
0000
,
0001
0000
0000
0000
0000
0000
0000
0000
0200
0000
0000
0000
0000
0000
0000
0300
,
0010
0000
0010
0000
,
0000
0000
0001
0000
,
0001
0000
0000
0000
,
0100
0000
0100
0000
,
0000
0000
0001
0000
,
0000
0000
0100
0000
,
0000
0000
0010
0000
,
0010
0000
0000
0000
0000
0000
0000
0000
2000
0000
0000
0000
0000
0000
0000
3000
,
0001
0000
0000
0100
,
0000
0000
0010
0000
,
0000
0000
1000
0000
,
0100
0000
0010
0000
,
0000
0000
0001
0000
,
0001
0000
0100
0000
,
0100
0000
0010
0000
,
0020
0000
0000
0000
0000
0000
0000
0030
1000
0000
0000
0000
0000
0000
0000
0000
,
0000
0000
0001
0000
,
0000
0000
0200
0000
,
0000
0000
0000
0300
0000
0000
0000
0000
0010
0000
0000
0000
0000
0000
0000
0000
,
0001
0000
0002
0000
,
0000
0000
0000
0000
0000
0000
0000
0003
1000
0000
0000
0000
0000
0000
0000
0000
,
1000
0000
0020
0000
,
0000
0000
0000
0000
0000
0000
0000
0030
0100
0000
0000
0000
0000
0000
0000
0000
,
0001
0000
0010
0000
,
0000
0000
1001
0000
,
0000
0000
0110
0000
,
0000
0000
1001
0000
,
0000
0000
1000
0000
,
0000
0000
0001
0000
,
0000
0000
0100
0000
,
0000
0000
0010
0000
,
0010
0000
0000
0000
,
0000
0000
1000
0000
,
1000
0000
1000
0000
,
0000
0000
0001
0000
,
0001
0000
0001
0000
,
0000
0000
0100
0000
,
0100
0000
0100
0000
,
0000
0000
0010
0000
,
0010
0000
0000
0000
0000
0000
0000
0000
0002
0000
0000
0000
0000
0000
0000
0003
,
0020
0000
0000
0000
0000
0000
0000
0030
0100
0000
0000
0000
0000
0000
0000
0000
,
0000
0000
1000
0000
,
0000
0000
0001
0000
,
0000
0000
0100
0000
,
0010
0000
0010
0000
,
1000
0000
1000
0000
,
0001
0000
0001
0000
,
0010
0000
0000
0000
0000
0000
0000
0000
0020
0000
0000
0000
0000
0000
0000
0030
,
0100
0000
0000
0100
0000
0000
0100
0000
0000
0000
0000
0000
0000
0000
0000
0000
;

//--------------- dance-single - Pax_Vesania ----------------
#NOTES:
     dance-single:
     Pax_Vesania:
     Easy:
     8:
     0,0,0,0,0:
0000
0000
0000
0000
,
0000
0000
0000
0000
,
0000
0000
0000
0000
,
0000
0000
0000
0000
,
0000
0000
0000
0000
0000
0000
0000
0000
0200
0000
0000
0000
0000
0000
0000
0300
,
0002
0000
0000
0000
0000
0000
0000
0003
0020
0000
0000
0000
0000
0000
0030
0000
,
0020
0000
0030
0200
0000
0300
1000
0000
0020
0000
0000
0000
0000
0000
0000
0030
,
0200
0000
0000
0000
0000
0000
0000
0300
0002
0000
0000
0000
0000
0000
0000
0003
,
0020
0000
0000
0030
0000
0000
0000
0000
,
0000
0000
0000
0000
,
0001
0010
0001
0010
0000
0100
0000
1000
,
0000
0001
0000
0000
0000
0100
0000
0010
,
1000
0010
1000
0000
0100
0000
0100
0000
,
0010
0010
0001
0001
,
1000
1000
0010
0010
,
0100
0100
0001
0001
,
0010
0010
0100
0100
,
1000
1000
0001
0001
,
0010
0010
1000
1000
,
0010
0010
0001
0001
,
0100
0000
0000
0000
0100
0000
0000
0000
0220
0000
0000
0330
0010
0000
0200
0000
,
0000
0300
0000
0000
0000
0000
0000
0000
1001
0000
0000
0000
0001
0000
2000
0000
,
0000
3000
0000
0000
0000
0000
0000
0000
0110
0000
0000
0000
0100
0000
0020
0000
,
0000
0030
0000
0000
0000
0000
0000
0000
2002
0000
0000
3003
1000
0000
0002
0000
,
0000
0003
0000
0000
0000
0000
0000
0000
0100
0000
0000
0000
0001
0000
0000
0000
,
1000
0100
0010
0100
,
0001
0001
0100
1000
,
0001
0010
0100
0010
,
0001
0001
0100
0010
,
1000
0001
0100
0010
,
1000
1000
0010
0001
,
0010
1000
0001
0100
,
0010
0000
0000
0000
0010
0000
0000
0000
2000
0000
0000
0000
0000
0000
0000
3000
,
0002
0000
0000
0000
0000
0000
0000
0003
0020
0000
0000
0000
0000
0000
0000
0030
,
0020
0000
0030
0200
0000
0300
1000
0000
0002
0000
0000
0000
0000
0000
0000
0003
,
2000
0000
0000
0000
0000
0000
0000
3000
0020
0000
0000
0000
0000
0000
0000
0030
,
0100
0000
0000
0001
0000
0000
1000
0000
0020
0000
0000
0000
0000
0000
0000
0030
,
0200
0000
0000
0000
0000
0000
0000
0300
0002
0000
0000
0000
0000
0000
0000
0003
,
0002
0000
0003
0020
0000
0030
0100
0000
2000
0000
0000
0000
0000
0000
0000
3000
,
0200
0000
0000
0000
0000
0000
0000
0300
0020
0000
0000
0000
0000
0000
0000
0030
,
0200
0000
0000
0000
0000
0000
0000
0300
1000
0000
0000
0000
0001
0000
0000
0000
,
1001
0000
0100
0010
,
0110
0000
0001
1000
,
1001
0000
0001
0001
,
0100
0100
0010
0100
,
0110
0000
1000
0001
,
1001
0000
0010
0100
,
0110
0000
1000
1000
,
0010
0010
0100
0010
,
0100
0001
1000
0100
,
1000
0010
0100
0001
,
0100
0010
1000
0100
,
1000
1000
0010
0100
,
0001
0010
0001
1000
,
0001
0100
0010
1000
,
0100
0010
0100
0100
,
1000
1000
0001
0001
,
1001
0000
0000
0000
2000
0000
0000
3000
0002
0000
0000
0003
0020
0000
0000
0030
,
0200
0000
0000
0300
2000
0000
0000
3000
0020
0000
0000
0000
0000
0030
0200
0000
,
0000
0000
0300
0002
0000
0003
1000
0000
0100
0000
0000
0100
0000
0000
0010
0000
,
0010
0000
0000
0001
0000
0000
0001
0000
0002
0000
0000
0000
0000
0003
0020
0000
,
0000
0000
0000
0000
0030
0002
0000
0003
0010
0000
0000
0000
0100
0000
0000
0000
,
0010
0001
1000
0100
,
1000
0010
1000
0001
,
0020
0000
0000
0000
0000
0000
0030
0000
0100
0000
0000
0100
0000
0000
0100
0000
,
1000
0000
0000
1000
0000
0000
1000
0000
0001
0000
0000
0001
0000
0000
0001
0000
,
0100
0000
0000
0100
0000
0000
0100
0000
0020
0000
0000
0000
0000
0030
2000
0000
,
0000
0000
0000
3000
0100
0000
0000
0000
0100
0000
0000
0000
0010
0000
0000
0000
,
0010
0000
0000
0000
0001
0000
0000
0000
0002
0000
0000
0003
0200
0000
0000
0300
,
0020
0000
0000
0030
2000
0000
0000
3000
0200
0000
0000
0300
0020
0000
0000
0030
,
0200
0000
0000
0300
0020
0000
0000
0030
0002
0000
0000
0000
0000
0003
0002
0000
,
0000
0000
0000
0000
0000
0000
0000
0003
0010
0000
0000
0010
0000
0000
0100
0000
,
0100
0000
0000
1000
0000
0000
1000
0000
2000
0000
0000
0000
0000
0000
0000
0000
,
0000
0000
0000
0000
,
0000
3000
1001
1000
,
0001
0010
0110
0010
,
0001
0010
1000
0010
,
0100
1000
0001
0100
,
0010
0100
0001
1000
,
0100
0001
0100
1000
,
0001
0001
0000
0000
,
0000
0000
1000
0001
,
1000
0001
1000
0000
0010
0000
0100
0000
,
0010
0100
0010
0000
1000
0000
0100
0000
,
1000
0100
1000
0000
0001
0000
0100
0000
,
0010
0000
0000
0100
0000
0000
0001
0000
0010
0000
0000
0000
0100
0000
0000
0000
,
0010
0100
0010
0000
0001
0000
1000
0000
,
0001
1000
0001
0000
0100
0000
0010
0000
,
1000
0001
1000
0000
0001
0000
1000
0000
,
0010
0000
0000
1000
0000
0000
0100
0000
0010
0000
0000
0000
0001
0000
0000
0000
,
0100
0010
1000
0001
,
0100
0010
0100
0001
,
1000
0100
0010
0100
,
0010
0001
0100
0010
,
0100
0010
0100
0000
0010
0000
1000
0000
,
0001
0010
0001
0000
0100
0000
0010
0000
,
0100
0001
0100
0000
0001
0010
0001
0000
,
0010
0000
0000
0100
0000
0000
1000
0000
0000
0000
0000
0000
0000
0000
0000
0000
;

//--------------- dance-single - Pax_Vesania ----------------
#NOTES:
     dance-single:
     Pax_Vesania:
     Medium:
     11:
     0,0,0,0,0:
0000
0000
0000
0000
,
0000
0000
0000
0000
,
0000
0000
0000
0000
,
0000
0000
0000
0000
,
0000
0000
0000
0000
0000
0000
0000
0000
2000
0000
0000
0000
0000
0000
0000
3000
,
0002
0000
0000
0000
0000
0000
0000
0003
0020
0000
0000
0000
0000
0000
0000
0030
,
0200
0000
0300
2000
0000
3000
0010
0000
0200
0000
0000
0000
0000
0000
0000
0300
,
0002
0000
0000
0000
0000
0000
0000
0003
0020
0000
0000
0000
0000
0000
0000
0030
,
0200
0000
0000
0300
0000
0000
0000
0000
,
0000
0000
0000
0000
,
1000
0001
0010
0100
0000
1100
0000
0011
,
0000
1100
0000
0000
0000
0101
0000
1010
,
1000
0001
0010
0010
0100
0100
1000
1000
,
0001
0001
0100
0100
0010
0010
1000
1000
,
0001
0100
0010
1000
0100
0010
0100
1000
,
0001
0010
0001
1000
0010
1000
0001
0100
,
0001
0010
0100
0100
1000
0010
1000
0001
,
1000
0010
0100
0001
0010
0100
1000
0010
,
0100
0001
0100
0010
1000
0100
0001
0100
,
1000
0010
0001
0010
1000
0001
1000
0010
,
0100
0000
0001
0000
0100
0000
0100
0000
0020
0000
0000
0030
1000
0000
0200
0000
,
0000
0300
0010
0000
0100
0000
1000
0000
0002
0000
0000
0003
0100
0000
0020
0000
,
0000
0030
0100
0000
0010
0000
1000
0000
0200
0000
0000
0300
1000
0000
0002
0000
,
0000
0003
0100
0000
0001
0000
1000
0000
0200
0000
0000
0300
1000
0000
0020
0000
,
0100
0030
0100
0000
0001
0000
0001
0000
0010
0000
0100
0000
1000
0000
0100
0000
,
0001
0100
0010
0001
0100
0010
1000
0001
,
0010
0100
1000
0010
0001
0010
0100
1000
,
0100
0001
0010
0100
1000
0100
1000
0001
,
0100
0010
0100
0100
0001
0010
0001
1000
,
0001
0100
0010
0001
0010
0100
0001
1000
,
0100
0001
0100
1000
0010
1000
0001
0100
,
0010
0100
0001
0100
1000
0100
0001
0010
,
0100
0000
1000
0000
1000
0000
0010
0000
0200
0000
0000
0000
0000
0000
0000
0300
,
0002
0000
0000
0000
0000
0000
0000
0003
0020
0000
0000
0000
0000
0000
0000
0030
,
0200
0000
0300
2000
0000
3000
0001
0000
0200
0000
0000
0000
0000
0000
0000
0300
,
0020
0000
0000
0000
0000
0000
0000
0030
2000
0000
0000
0000
0000
0000
3000
0000
,
1001
0000
0000
0110
0000
0000
1001
0000
0002
0000
0000
0000
0100
0000
0000
0003
,
0200
0000
0000
0000
0010
0000
0000
0300
0020
0000
0000
0000
1000
0000
0000
0030
,
2000
0000
3000
0002
0000
0003
0010
0000
0200
0000
0000
0000
1000
0000
0000
0300
,
2000
0000
0000
0000
0001
0000
0000
3000
0002
0000
0000
0000
0100
0000
0000
0003
,
0101
0000
0000
1010
0000
0000
0101
0000
0001
0000
0000
0000
0001
0000
0000
0000
,
1001
1000
1000
0010
,
0110
0100
0001
0001
,
0011
0010
0100
1000
,
1010
0100
0001
0001
,
0101
0001
1000
0100
,
1100
0010
0001
0001
,
1001
0000
0000
0000
1000
0000
0000
0000
0001
0000
0000
0010
0000
0000
1000
0000
,
0001
0000
0000
0100
0000
0000
1000
0000
0002
0000
0000
0000
0000
0000
0000
0003
,
0100
0010
1000
0100
1000
0010
1000
0100
,
0010
0000
0100
0000
0010
0000
0001
0000
1000
0000
0000
0010
0000
0000
0100
0000
,
0000
0001
0000
0000
0100
0000
0010
0000
0001
0000
0010
0000
1000
0000
0001
0000
,
0010
0000
0100
0000
0010
0000
0001
0000
2000
0000
3000
0200
0000
0300
1000
0000
,
0002
0000
0003
0020
0000
0030
1000
0000
0020
0000
0030
0200
0000
0300
0010
0000
,
0002
0000
0003
2000
0000
3000
0100
0000
0020
0000
0000
0000
0000
0000
0032
0000
,
0000
0003
0020
0000
0000
0030
0100
0000
1000
0000
0001
0000
0100
0000
0010
0000
,
1000
0100
0010
0100
0010
0001
0010
0100
,
1000
0100
1000
0001
0100
0010
1000
0001
,
0010
0100
0010
0100
2000
0000
3000
2000
,
0000
0000
3000
0100
0000
0000
0100
0000
1000
0000
0000
0100
0000
0000
0010
0000
,
0100
0000
0000
0010
0000
0000
0001
0000
0020
0000
0000
0000
0000
0030
0002
0000
,
0000
0000
0000
0003
0020
0000
0000
0030
0001
0000
0010
0000
0100
0000
1000
0000
,
0001
0100
0010
1000
0010
0001
0010
1000
,
0001
0100
1000
0100
0001
0001
0100
0100
,
0020
0000
0000
0000
0000
0000
0000
0030
2000
0000
3000
0002
0000
0003
0010
0000
,
0200
0000
0300
0002
0000
0003
0100
0000
2000
0000
3000
0002
0000
0003
0100
0000
,
0020
0000
0030
0002
0000
0003
0010
0000
2000
0000
0000
0000
0000
3000
0200
0000
,
0000
0000
0000
0300
0010
0000
1000
0000
0010
0000
0001
0000
0100
0000
0010
0000
,
0001
0010
1000
0010
1000
0001
0100
0001
,
0100
0010
0100
0010
1000
0100
0010
0100
,
0010
0000
0001
0000
0010
0000
0001
0000
0020
0000
0000
0000
0000
0030
0002
0000
,
0000
0000
0000
0000
0000
0000
0000
0003
0200
0000
0300
0020
0000
0030
1000
0000
,
0002
0000
0003
0200
0000
0300
0010
0000
2000
0000
0000
0000
0000
0000
0000
0000
,
0000
0000
0000
0000
,
0000
0000
0000
0000
3000
0000
0000
0000
0002
0000
0000
0003
0100
0000
0020
0000
,
0000
0030
1000
0000
0001
0000
0010
0000
0200
0000
0000
0300
1000
0000
0020
0000
,
0000
0030
0100
0000
0100
0000
0001
0000
0010
0000
0000
0000
0011
0000
0000
0000
,
0001
0010
0100
1000
0010
0000
1010
0000
,
1000
0010
0100
0001
0010
0000
0110
0000
,
0010
0001
0100
0010
1000
0000
1100
0000
,
1000
1000
0001
0010
0000
0000
0000
0000
,
0000
0000
0000
0000
0000
0000
0000
0000
0200
0000
0000
0000
0001
0000
0000
0300
,
0002
0000
0000
0000
0010
0000
0000
0003
0020
0000
0000
0000
0100
0000
0000
0030
,
0200
0000
0300
2000
0000
3000
0001
0000
0200
0000
0000
0000
0010
0000
0000
0300
,
0020
0000
0000
0000
1000
0000
0000
0030
2000
0000
0000
0000
0100
0000
3000
0000
,
1100
0000
0000
1001
0000
0000
0011
0000
0020
0000
0000
0000
0001
0000
0000
0030
,
0002
0000
0000
0000
0100
0000
0000
0003
0200
0000
0000
0000
0010
0000
0000
0300
,
0020
0000
0030
0002
0000
0003
0010
0000
2000
0000
0000
0000
0100
0000
0000
3000
,
0200
0000
0000
0000
0010
0000
0000
0300
0002
0000
0000
0000
0010
0000
0003
0000
,
0011
0000
0000
1001
0000
0000
1100
0000
1000
0000
0010
0000
0100
0000
0001
0000
,
0010
0001
1000
0100
0010
0100
1000
0001
,
0100
0010
0100
0001
0010
0100
0010
0001
,
0010
0100
1000
0010
0100
0001
0100
0010
,
1000
0001
0010
0100
1000
0001
0010
1000
,
0010
0001
0100
0010
1000
0100
0001
0100
,
1000
0010
1000
0100
0010
0001
0100
1000
,
0100
0001
0010
0100
0001
0100
1000
0001
,
0101
0000
0000
0110
0000
0000
1010
0000
0000
0000
0000
0000
0000
0000
0000
0000
;

//--------------- dance-single - Pax_Vesania ----------------
#NOTES:
     dance-single:
     Pax_Vesania:
     Hard:
     14:
     0,0,0,0,0:
0000
0000
0000
0000
0001
0100
0001
1000
,
0100
0010
0001
0010
0100
1000
0010
0100
,
0001
0010
0001
1000
0100
0010
0100
1000
,
0001
1000
0010
1000
0100
0010
0100
0010
,
0001
0010
0001
0100
0010
1000
0001
0100
,
0001
0010
0100
1000
0100
0001
0100
1000
,
0001
0100
0010
0001
0010
1000
0100
0010
,
1000
0010
0100
1000
0010
0100
0001
0100
,
0001
0000
0010
0000
0100
0000
1000
0000
0001
0010
0001
0000
1000
0010
1000
0000
,
0001
0100
0001
0000
0010
0100
1000
0000
0001
0010
0001
0000
0100
0010
0100
0000
,
0101
0000
0100
0000
0110
0000
0010
0000
1000
0100
0010
0000
0001
0010
0100
0000
,
1000
0010
0100
0000
0001
0100
0010
0000
1000
0001
0010
0000
0100
1000
0001
0000
,
0101
0000
1010
0000
1000
0001
0000
0001
0100
0010
0100
0000
0001
0010
0001
0000
,
1000
0100
1000
0000
0001
0010
0100
0000
1000
0010
1000
0000
0001
0100
0001
0000
,
0101
0000
0100
0000
0110
0000
0010
0000
0100
0001
0010
0000
0100
1000
0010
0000
,
1000
0100
0010
0000
0001
0010
0100
0000
1000
0001
1000
0000
0001
1000
0001
0000
,
1001
0000
0110
0000
0100
0010
0000
0010
1000
0100
1000
0000
0001
0010
0001
0000
,
0100
0010
0100
0000
0001
1000
0100
0000
0010
0001
1000
0000
0100
0010
0001
0000
,
0011
0000
0010
0000
0110
0000
0100
0000
1000
0001
1000
0000
0010
0100
0010
0000
,
0100
0001
0010
0000
0100
1000
0001
0000
0100
0010
0100
0000
0001
1000
0001
0000
,
1001
0000
0110
0000
0100
0001
0000
0001
0020
0000
0030
0100
0010
0000
0200
0000
,
0300
1000
0001
1000
0010
0000
1000
0100
2000
0000
3000
0100
0010
0000
0200
0000
,
0300
0010
0001
1000
0001
0000
0010
0000
0200
0000
0300
0010
0001
0000
0200
0000
,
0300
0010
1000
0100
1000
0000
0001
0010
0200
0000
0300
1000
0010
0000
0200
0000
,
0300
0010
1000
0001
1000
0000
0010
0000
0100
0001
1000
0000
0100
1000
0001
0000
,
0010
0001
0100
0000
0001
0010
0100
1000
0100
0010
0100
0000
0010
0001
0010
0000
,
0011
0000
0001
0000
1001
0000
1000
0000
0010
1000
0010
0000
0100
0001
0100
0000
,
0010
1000
0100
0010
0100
1000
0001
0010
0100
0010
0001
0000
1000
0100
0010
0000
,
0110
0000
0100
0000
1000
0100
0000
0100
1000
0001
1000
0000
0010
0100
0010
0000
,
0100
0001
0100
0010
1000
0100
0010
0100
1000
0001
0010
0000
0100
1000
0001
0000
,
0101
0000
0100
0000
0110
0000
0010
0000
0100
0001
0100
0000
0010
1000
0100
0000
,
0010
0001
0100
0001
1000
0010
0100
0001
0010
0100
1000
0000
0100
0010
0001
0000
,
0101
0000
1010
0000
0010
1000
0000
1000
0200
0000
0000
0000
0000
0000
0000
0300
,
0020
0000
0000
0000
0000
0000
0000
0030
0002
0000
0000
0000
0000
0000
0000
0003
,
0002
0000
0003
0200
0000
0300
0010
0000
2000
0000
0000
0000
0000
0000
0000
3000
,
0200
0000
0000
0000
0000
0000
0000
0300
0020
0000
0000
0000
0000
0000
0000
0030
,
0200
0000
0000
0000
0000
0000
0000
0300
2000
0000
0000
0000
0000
0000
0000
3000
,
0020
0000
0000
0000
0000
0000
0000
0030
0200
0000
0000
0000
0000
0000
0000
0300
,
0002
0000
0003
0020
0000
0030
0100
0000
2000
0000
0000
0000
0000
0000
0000
3000
,
0020
0000
0000
0000
0000
0000
0000
0030
0200
0000
0000
0000
0000
0000
0000
0300
,
0002
0000
0000
0000
0000
0000
0000
0003
0010
0000
0100
1000
0000
0100
1000
0000
,
1100
0000
0000
0000
1000
0010
1000
0000
0001
0000
0010
0001
0000
0010
0001
0000
,
0011
0000
0000
0000
0010
0001
1000
0000
1010
0000
1000
0010
0000
1000
0010
0000
,
0110
0000
0000
0000
0100
0010
1000
0000
0001
0000
0100
0010
0000
1000
0100
0000
,
0010
0000
0001
0010
0000
0100
0010
0000
0011
0000
0010
0001
0000
0100
0010
0000
,
0110
0000
0000
0000
0010
1000
0100
0000
0110
0000
0010
0001
0000
0100
0010
0000
,
1010
0000
1000
0010
0000
1000
0010
0000
1100
0000
1000
0100
0000
1000
0001
0000
,
1001
0000
0000
0000
0010
0100
0001
0000
0100
0000
0010
0100
0000
0001
1000
0000
,
0100
0000
0010
0001
0000
0010
0100
0000
0020
0000
0000
0000
0000
0000
0000
0030
,
0001
0100
0010
0000
1000
0100
1000
0000
0001
1000
0100
0000
0010
0001
1000
0000
,
0010
0100
0001
0000
0010
0100
0010
0001
0010
0000
0001
0100
0000
0100
0010
0000
,
1000
0100
0000
0010
0001
0000
0010
0001
0010
0000
0100
1000
0010
0000
0100
0010
,
1000
0000
0100
0000
0010
0000
0001
0000
0200
0000
0300
0020
0000
0030
1000
0000
,
0200
0000
0300
0020
0000
0030
0100
0000
0020
0000
0030
0002
0000
0003
1000
0000
,
0200
0000
0300
0020
0000
0030
0100
0000
0020
0000
0000
0000
0000
0030
0002
0000
,
0000
0003
0020
0000
0000
0030
0100
0000
1000
0001
0010
0000
0100
1000
0001
0000
,
0100
0010
1000
0000
0001
0100
0001
0100
0001
0000
0100
0001
0000
0001
0010
0000
,
0100
1000
0000
0010
0001
0000
0010
0100
0001
0000
0001
0010
0100
0010
0100
0000
,
1000
0001
0010
0100
1000
0000
0010
1000
0200
0000
0000
0000
0000
0300
2000
0000
,
0000
0000
3000
0020
0000
0030
0001
0000
2000
0000
3000
0200
0000
0300
0001
0000
,
0200
0000
0300
0020
0000
0030
0100
0000
0002
0000
0000
0000
0000
0003
0020
0000
,
0000
0000
0000
0030
0001
0010
0001
0000
0010
0100
0010
0000
0100
1000
0010
0100
,
0010
0000
1000
0010
1000
0000
0001
0100
0001
0010
0001
0000
0100
0001
0100
0010
,
0100
0000
0010
0100
0001
0100
0010
0000
1000
0010
0100
0000
0010
1000
0100
0000
,
0200
0000
0000
0000
0000
0000
0000
0300
2000
0000
3000
0002
0000
0003
0010
0000
,
0200
0000
0300
0002
0000
0003
0100
0000
2000
0000
3000
0002
0000
0003
0010
0000
,
2000
0000
3000
0002
0000
0003
0100
0000
2000
0000
0000
0000
0000
3000
0200
0000
,
0000
0000
0000
0300
1000
0010
0100
0001
0010
0000
0001
0100
0001
0000
1000
0100
,
1000
0000
0010
0100
0001
0100
0010
0000
1000
0001
1000
0000
0001
1000
0001
0000
,
0100
0001
0010
0000
0100
1000
0010
0000
1000
0010
1000
0010
0100
0000
0001
0100
,
0001
0100
0010
0000
0100
0001
1000
0100
0020
0000
0000
0000
0000
0030
0002
0000
,
0000
0000
0000
0000
0000
0000
0000
0003
0020
0000
0030
0200
0000
0300
0010
0000
,
0200
0000
0300
2000
0000
3000
0010
0000
0200
0000
0300
0001
0100
0000
0020
0000
,
0030
1000
0001
1000
0010
0000
0100
0010
0200
0000
0300
0010
1000
0000
0200
0000
,
0300
0010
0001
0100
0001
0000
1000
0000
0020
0000
0030
0100
0001
0000
0020
0000
,
0030
0100
1000
0010
1000
0000
0010
1000
0200
0000
0300
0001
0100
0000
0020
0000
,
0030
0001
0010
0001
1000
0000
0100
0000
1100
0000
0000
1000
0010
0000
0100
0000
,
0001
0100
0001
0000
0100
0010
0100
0010
0100
0000
0000
0010
1000
0000
0100
0000
,
0010
0001
0010
0000
0001
0100
0001
1000
0001
0000
0000
1000
0100
0000
0010
0000
,
0100
1000
0010
0000
0100
0001
0100
0010
0100
0000
0001
0000
1000
0100
0010
0000
,
0001
0100
0010
0100
0010
1000
0100
0000
0000
0000
0000
0000
0000
0000
0000
0000
,
0000
0000
0000
0000
0000
0000
0000
0000
0001
0000
0100
0000
0001
0100
0010
0000
,
1000
0000
0010
1000
0000
1000
0010
0000
0100
0000
0010
0000
0100
0010
1000
0000
,
0010
0100
0001
0010
0000
0010
0001
0000
1000
0000
0100
0000
1000
0010
0100
0000
,
0010
0100
0010
0100
0000
0100
0001
0000
0010
0000
0001
0000
1000
0100
0010
0000
,
0100
0000
1000
0010
0000
0001
0010
0000
0100
0000
0001
0000
0010
0100
1000
0000
,
0100
0000
0001
0100
0000
1000
0010
0000
0100
0000
0001
0000
0010
0100
0010
0000
,
0001
0010
0001
1000
0000
1000
0100
0000
0010
0000
0100
0000
0010
0001
1000
0000
,
0100
1000
0010
0100
0000
0100
0001
0000
0010
0001
0000
0100
0001
0000
1000
0010
,
1000
0000
0001
0100
0001
1000
0001
0100
0010
0000
1000
0100
1000
0000
0100
0000
,
0010
0001
0010
0000
0100
0000
1000
0000
0001
0100
0001
0000
0100
0000
0010
0000
,
1000
0010
1000
0000
0001
0100
0001
0000
0010
0001
1000
0000
0100
1000
0001
0000
,
0100
0010
1000
0000
0001
0100
0010
0000
1000
0000
0010
0000
0100
0001
0100
0000
,
0001
0000
0100
0000
0010
1000
0010
0000
1000
0010
1000
0001
1000
0000
0001
0100
,
0001
0000
0010
0000
0100
1000
0001
0000
0100
0010
0100
0010
1000
0000
0100
1000
,
0001
0000
0100
0000
0001
0010
0001
0000
0100
0010
1000
0001
0100
0000
0001
0100
,
0001
0000
0100
0000
0010
1000
0100
0000
0010
0001
1000
0100
0010
0001
0010
0100
,
0010
0000
0000
0110
0000
0000
1010
0000
0000
0000
0000
0000
0000
0000
0000
0000
;

//--------------- dance-single - Pax_Vesania ----------------
#NOTES:
     dance-single:
     Pax_Vesania:
     Challenge:
     17:
     0,0,0,0,0:
0000
0000
0000
0000
,
0000
0000
0000
0000
,
0000
0000
0000
0000
,
0000
0000
0000
0000
,
0000
0000
0000
0000
0000
0000
0000
0000
1000
0100
0010
0001
0010
0100
1000
0100
,
0010
0001
1000
0100
1000
0010
1000
0001
0010
0100
1000
0100
0010
0100
0010
0001
,
0100
0010
1000
0010
0100
0001
0010
0001
1000
0100
0010
0100
1000
0001
1000
0010
,
1000
0100
1000
0001
0010
0100
0010
0001
1000
0100
0010
0001
0010
0100
1000
0100
,
1000
0001
1000
0010
1000
0100
1000
0000
0010
0100
0001
0010
0100
1000
0001
0010
,
0100
1000
0100
0010
0001
0010
0100
1000
0100
0010
0001
1000
0100
0010
0001
0010
,
0001
0000
0011
0000
0101
0000
1010
0000
1000
0100
0010
0100
0010
0001
0010
0100
,
1000
0100
0010
0100
0010
0001
0010
0100
1000
0010
0100
0001
0100
0010
1000
0010
,
0100
0000
0110
0000
0010
1000
0000
0100
1000
0010
0100
0010
1000
0010
0100
0001
,
0010
0100
1000
0100
0010
0001
0010
0100
1000
0001
0100
0010
1000
0001
0100
0010
,
0100
0000
0101
0000
0110
0000
1010
0000
0010
0100
0001
1000
0010
0100
0001
1000
,
0100
0010
0001
0010
0100
1000
0100
0010
0100
1000
0001
0010
0001
1000
0100
1000
,
0010
0000
0110
0000
0100
0001
0000
0100
0010
0100
0001
0010
0100
1000
0010
0100
,
0001
1000
0100
0010
0001
0010
0100
1000
0100
0010
0001
1000
0100
0010
0100
1000
,
0001
0000
0011
0000
0110
0000
1100
0000
1000
0001
0010
0001
1000
0100
1000
0010
,
0100
0010
0100
0001
0010
0100
1000
0100
0010
0001
1000
0001
0010
0001
1000
0001
,
0010
0000
0100
0000
1000
0100
0000
1000
0001
0000
0000
0100
0010
0000
0110
0000
,
0000
0010
0001
0010
1000
0100
1000
0001
0010
0000
0000
0100
1000
0000
1100
0000
,
0000
0100
0010
0100
1000
0000
0001
0000
0100
0000
0000
0010
1000
0000
1001
0000
,
0000
0001
0100
1000
0100
0001
0010
0100
1000
0000
0000
0010
1000
0000
0110
0000
,
0000
0010
0100
0001
0100
0010
1000
0001
0010
0100
1000
0010
1000
0001
0100
0010
,
0100
0001
1000
0100
0010
0001
0010
0100
1000
0001
1000
0010
0100
0010
1000
0010
,
0100
0000
0101
0000
0110
0000
1010
0000
1000
0100
0010
0001
0100
0010
0100
0001
,
0010
0100
0010
0001
0010
0100
1000
0100
0010
0001
1000
0100
1000
0001
0100
0010
,
1000
0000
0010
0000
0100
0001
0000
0100
0010
1000
0010
0100
0001
0100
0010
1000
,
0010
0100
0001
0010
0100
1000
0100
0010
0001
1000
0100
1000
0001
0010
0001
1000
,
0001
0000
0011
0000
0101
0000
1001
0000
1000
0010
0100
0010
0100
0001
0010
0001
,
1000
0100
0010
0100
0010
0001
0010
0100
1000
0001
1000
0001
0100
0010
0100
0001
,
0010
0000
0100
0000
1000
0100
0000
1000
0001
0000
1000
0000
0010
0100
0010
0000
,
1000
0100
0010
0001
0000
0100
0010
0000
1000
0000
0001
0000
0100
0010
0100
0000
,
0001
0010
0100
1000
0000
0010
0100
0000
0010
0000
1000
0000
0001
0100
0001
0000
,
0100
0010
1000
0001
0000
0100
0010
0000
1000
0000
0010
0000
0100
0001
0100
0000
,
0001
0000
1000
0100
0000
0001
0100
0000
0010
0000
0001
0000
1000
0100
1000
0000
,
0001
0010
0001
0100
0000
0001
0010
0000
0100
0000
1000
0000
0001
0010
0001
0000
,
1000
0100
1000
0010
0000
0100
0010
0000
1000
0000
0001
0000
1000
0010
0001
0000
,
0010
1000
0100
0010
0000
0001
0010
0000
0100
1000
0100
1000
0001
0010
0001
0010
,
0100
1000
0001
0100
0010
1000
0001
0010
0100
0000
1000
0100
0000
0100
0010
0000
,
0001
0010
0000
0100
1000
0010
1000
0100
1000
0000
0010
0100
0000
0100
0001
0000
,
0010
0001
0000
0100
0010
0100
0001
0100
0010
0000
0100
0010
0000
0010
1000
0000
,
0100
0010
0000
0001
0010
0001
1000
0001
0010
0000
0001
0100
0000
0010
1000
0000
,
0010
0000
1000
0010
0000
0001
0010
0000
0100
0000
1000
0100
0000
0100
0001
0000
,
0010
0100
0000
1000
0001
1000
0001
0100
0010
0000
0001
0010
0000
0010
1000
0000
,
0010
0100
0000
0100
0010
0100
0001
1000
0100
0000
1000
0001
0000
0001
0100
0000
,
0010
1000
0000
0100
1000
0010
0100
0001
0010
0000
0001
1000
0000
0100
0010
0000
,
0100
1000
0100
0010
0001
0010
0100
0010
0002
0000
0000
0000
0000
0000
0000
0003
,
0001
0010
0100
1000
0100
1000
0100
0010
0100
0010
0001
1000
0010
1000
0010
0100
,
0001
0100
0001
1000
0010
0100
0001
0010
0001
0000
1000
0100
0000
0100
0010
0000
,
0010
0001
0000
1000
0001
0000
0010
0001
0010
0100
1000
0001
0100
0010
1000
0010
,
1000
0000
0100
0000
0010
0000
0001
0000
2000
0000
3000
0020
0000
0030
0100
0000
,
0020
0000
0030
0002
0000
0003
1000
0000
0200
0000
0300
0002
0000
0003
1000
0000
,
0200
0000
0300
0020
0000
0030
0001
0000
0020
0000
0000
0000
0000
0030
0002
0000
,
0000
0003
0020
0000
0000
0030
0100
0000
1000
0001
1000
0010
1000
0100
1000
0100
,
0010
0100
1000
0100
0010
0100
0010
0001
0010
0001
0010
0100
1000
0010
0100
0001
,
0010
0001
0100
0010
1000
0100
1000
0001
0100
0001
1000
0010
1000
0001
0010
0001
,
1000
0100
1000
0001
0010
0100
0010
0100
2000
0000
0000
0000
0000
3000
0002
0000
,
0000
0000
0003
0020
0000
0030
0100
0000
2000
0000
3000
0200
0000
0300
0010
0000
,
0200
0000
0300
0020
0000
0030
0001
0000
0020
0000
0000
0000
0000
0030
0002
0000
,
0000
0000
0000
0003
0001
0010
0001
1000
0100
0010
0001
0010
0100
1000
0100
0010
,
0001
0010
0100
0010
0001
0010
0001
1000
0100
0010
0100
0010
0100
1000
0100
1000
,
0001
0100
0001
0100
0010
1000
0010
1000
0001
0100
0010
0100
0010
1000
0001
1000
,
0001
0100
0010
0100
0001
0100
0010
0100
0001
0000
1000
0000
0100
0010
0001
0000
,
0010
0100
1000
0100
0000
0010
0001
0000
1000
0000
0001
0000
1000
0100
0010
0000
,
0001
0010
0100
1000
0000
0001
0010
0000
0200
0000
0000
0000
0000
0300
2000
0000
,
0000
0000
0000
3000
0100
1000
0100
0010
0100
0010
0001
1000
0001
0010
0001
1000
,
0010
0100
0010
0100
0001
0010
0001
0010
0001
1000
0100
1000
0001
0010
0001
0100
,
0010
0100
0001
1000
0001
1000
0100
1000
0001
1000
0100
0010
0001
0100
0010
1000
,
0100
0010
0100
1000
0100
0010
0001
0010
0002
0000
0000
0000
0000
0003
0020
0000
,
0000
0000
0000
0000
0000
0000
0000
0030
0100
1000
0001
0010
0001
1000
0100
0010
,
0100
1000
0100
0010
0001
0010
0100
1000
0002
0000
0003
0100
0010
0000
0110
0000
,
0000
0100
0010
0100
0001
1000
0100
1000
0100
0000
0000
0010
0001
0000
0011
0000
,
0000
0001
0010
1000
0010
0000
0100
0000
1100
0000
0000
1000
0001
0000
0101
0000
,
0000
0100
0010
1000
0001
0100
0010
1000
0001
0000
0000
1000
0010
0000
1010
0000
,
0010
1000
0001
0010
0100
1000
0001
0010
0200
0000
0300
2000
0000
3000
0002
0003
,
0100
0001
0100
0010
1000
0100
0010
0001
0020
0000
0030
0002
0000
0003
2000
3000
,
0001
1000
0010
0100
0010
1000
0100
0010
0200
0000
0300
2000
0000
3000
0020
0030
,
0100
0010
1000
0001
0010
0100
0010
0100
1000
0000
0100
0010
0000
0100
1000
0100
,
0010
0001
0010
0100
1000
0001
1000
0010
1000
0100
1000
0001
0010
0100
1000
0100
,
0010
0001
0010
0100
0010
0001
0010
0001
0010
0000
0100
0000
1000
0100
0010
0000
,
0010
0100
1000
0100
0000
0010
0001
0000
1000
0000
0001
0000
0010
0100
1000
0000
,
1000
0100
0010
0100
0000
1000
0001
0000
0100
0000
0010
0000
1000
0001
1000
0000
,
0001
0100
0001
1000
0000
0100
0010
0000
0001
0000
0100
0000
0010
0100
0010
0000
,
1000
0000
0001
0100
0000
1000
0100
0000
0010
0000
1000
0000
0001
0010
0001
0000
,
0010
0100
0010
0001
0000
0100
0001
0000
1000
0000
0010
0000
1000
0010
0001
0000
,
0010
1000
0010
0100
0000
0001
0010
0000
0100
0000
1000
0000
0001
0010
0100
0000
,
0010
0000
0001
0010
0000
1000
0010
0000
0100
1000
0010
0100
0001
0010
0100
1000
,
0100
0010
0100
1000
0001
1000
0010
1000
0100
0010
0100
0010
0001
0000
0010
0100
,
0010
0000
0001
0000
1000
0010
1000
0000
0010
0100
0001
0100
0010
0000
1000
0100
,
0010
0000
0001
0000
1000
0001
0010
0000
0100
0010
0100
1000
0100
0000
0010
0001
,
0010
0000
0100
0000
1000
0010
0100
0000
0010
0100
0001
1000
0100
0000
1000
0100
,
0010
0001
0100
0010
0100
0001
0010
0100
1000
0100
0010
0100
1000
0001
0010
0100
,
0010
0001
1000
0100
0010
0100
0010
0001
0010
0001
0100
0010
1000
0001
0010
0001
,
1000
0100
0010
0100
0010
0001
0010
0100
1000
0010
0100
0001
0010
0001
1000
0010
,
1000
0001
0100
0001
0010
0001
1000
0100
0010
0001
0100
0010
1000
0100
0010
0001
,
0010
0000
0000
0011
0000
0000
1100
0000
0000
0000
0000
0000
0000
0000
0000
0000
;

//--------------- dance-single - want to STREAM ----------------
#NOTES:
     dance-single:
     want to STREAM:
     Edit:
     17:
     0,0,0,0,0:
0000
0000
0000
0000
0000
0000
0000
0000
1000
0100
0010
0001
1000
0001
0010
0100
,
1000
0001
1000
0100
0010
0001
1000
0001
1000
0100
0010
0100
1000
0100
0010
0100
,
0010
0001
0010
0100
1000
0100
0010
0001
0010
0001
0100
0001
1000
0010
1000
0001
,
0010
0001
1000
0100
1000
0001
0010
0001
1000
0010
1000
0010
0100
0001
0010
0001
,
1000
0001
0010
0100
0010
0100
1000
0100
1000
0100
0010
0001
0010
0100
1000
0100
,
0010
0001
1000
0100
1000
0010
1000
0001
0010
0100
1000
0100
0010
0100
0010
0001
,
0100
0010
1000
0010
0100
0001
0010
0001
1000
0100
0010
0100
1000
0001
1000
0010
,
1000
0100
1000
0001
0010
0100
0010
0001
1000
0100
0010
0001
0010
0100
1000
0100
,
1000
0001
1000
0010
1000
0100
1000
0000
0010
0100
0001
0010
0100
1000
0001
0010
,
0100
1000
0100
0010
0001
0010
0100
1000
0100
0010
0001
1000
0100
0010
0001
0010
,
0001
0000
0011
0000
0101
0000
1010
0000
1000
0100
0010
0100
0010
0001
0010
0100
,
1000
0100
0010
0100
0010
0001
0010
0100
1000
0010
0100
0001
0100
0010
1000
0010
,
0100
0001
1000
0100
0010
0001
0000
1000
0100
1000
0001
0010
0001
1000
0010
1000
,
0100
0010
0001
0010
0100
1000
0010
0100
0001
1000
0100
0010
0100
0010
0001
1000
,
0001
1000
0010
1000
0100
1000
0001
0010
0100
1000
0100
0010
0001
0100
0010
1000
,
0100
0010
0001
0010
0100
1000
0001
0010
0100
0010
0001
1000
0100
1000
0001
0010
,
0001
0010
0001
0100
0001
0100
0000
0100
0010
0100
0001
0010
0100
1000
0010
0100
,
0001
1000
0100
0010
0001
0010
0100
1000
0100
0010
0001
1000
0100
0010
0100
1000
,
0001
1000
0010
1000
0100
1000
0001
0100
0010
1000
0010
0100
0001
0010
0001
1000
,
0100
1000
0100
0010
0001
0010
0100
1000
0100
0010
0100
0010
0001
1000
0001
0010
,
0100
1000
0010
0100
0010
0100
0000
0100
0001
0000
0000
0100
0010
0000
0110
0000
,
0000
0010
0001
0010
1000
0100
1000
0001
0010
0000
0000
0100
1000
0000
1100
0000
,
0000
0100
0010
0100
1000
0000
0001
0000
0100
0000
0000
0010
1000
0000
1001
0000
,
0000
0001
0100
1000
0100
0001
0010
0100
1000
0000
0000
0010
0100
0000
0110
0000
,
0000
0010
0100
0001
0100
0010
1000
0001
0010
0100
1000
0010
1000
0001
0100
0010
,
0100
0001
1000
0100
0010
0001
0010
0100
1000
0001
1000
0010
0100
0010
1000
0010
,
0100
0001
0100
0010
1000
0001
0010
0100
1000
0100
0010
0001
0100
0010
0100
0001
,
0010
0100
0010
0001
0010
0100
1000
0100
0010
0001
1000
0100
1000
0001
0100
0010
,
1000
0010
1000
0010
0100
0001
0000
0100
0010
1000
0010
0100
0001
0100
0010
1000
,
0010
0100
0001
0010
0100
1000
0100
0010
0001
1000
0100
1000
0001
0010
0001
1000
,
0001
0010
0100
0010
0001
1000
0010
1000
0010
0100
0010
0100
0001
0100
0010
1000
,
0100
0010
0100
0010
0001
0010
0100
1000
0001
1000
0010
1000
0001
0100
0001
1000
,
0100
0000
0100
0000
1000
0100
0000
1000
0001
0000
1000
0000
0010
0100
0010
0000
,
1000
0100
0010
0001
0000
0100
0010
0000
1000
0000
0001
0000
0100
0010
0100
0000
,
0001
0010
0100
1000
0000
0010
0100
0000
0010
0000
1000
0000
0001
0100
0001
0000
,
0100
0010
1000
0001
0000
0100
0010
0000
1000
0000
0010
0000
0100
0001
0100
0000
,
0001
0000
1000
0100
0000
0001
0100
0000
0010
0000
0001
0000
1000
0100
1000
0000
,
0001
0010
0001
0100
0000
0001
0010
0000
0100
0000
1000
0000
0001
0010
0001
0000
,
1000
0100
1000
0010
0000
0100
0010
0000
1000
0000
0001
0000
1000
0010
0001
0000
,
0010
1000
0100
0010
0000
0001
0010
0000
0100
1000
0100
1000
0001
0010
0001
0010
,
0100
1000
0001
0100
0010
1000
0001
0010
0100
0000
1000
0100
0000
0100
0010
0000
,
0001
0010
0000
0100
1000
0010
1000
0100
1000
0000
0010
0100
0000
0100
0001
0000
,
0010
0001
0000
0100
0010
0100
0001
0100
0010
0000
0100
0010
0000
0010
1000
0000
,
0100
0010
0000
0001
0010
0001
1000
0001
0010
0000
0001
0100
0000
0010
1000
0000
,
0010
0000
1000
0010
0000
0001
0010
0000
0100
0000
1000
0100
0000
0100
0001
0000
,
0010
0100
0000
1000
0001
1000
0001
0100
0010
0000
0001
0010
0000
0010
1000
0000
,
0010
0100
0000
0100
0010
0100
0001
1000
0100
0000
1000
0001
0000
0001
0100
0000
,
0010
1000
0000
0100
1000
0010
0100
0001
0010
0000
0001
1000
0000
0100
0010
0000
,
0100
1000
0100
0010
0001
0010
0100
0010
0002
0000
0000
0000
0000
0000
0000
0003
,
0001
0010
0100
1000
0100
1000
0100
0010
0100
0010
0001
1000
0010
1000
0010
0100
,
0001
0100
0001
1000
0010
0100
0001
0010
0001
0000
1000
0100
0000
0100
0010
0000
,
0010
0001
0000
1000
0001
0000
0010
0001
0010
0100
1000
0001
0100
0010
1000
0010
,
1000
0000
0100
0000
0010
0000
0001
0000
2000
0000
3000
0020
0000
0030
0100
0000
,
0020
0000
0030
0002
0000
0003
1000
0000
0200
0000
0300
0002
0000
0003
1000
0000
,
0200
0000
0300
0020
0000
0030
0001
0000
0020
0000
0000
0000
0000
0030
0002
0000
,
0000
0003
0020
0000
0000
0030
0100
0000
1000
0001
1000
0010
1000
0100
1000
0100
,
0010
0100
1000
0100
0010
0100
0010
0001
0010
0001
0010
0100
1000
0010
0100
0001
,
0010
0001
0100
0010
1000
0100
1000
0001
0100
0001
1000
0010
1000
0001
0010
0001
,
1000
0100
1000
0001
0010
0100
0010
0100
2000
0000
0000
0000
0000
3000
0002
0000
,
0000
0000
0003
0020
0000
0030
0100
0000
2000
0000
3000
0200
0000
0300
0010
0000
,
0200
0000
0300
0020
0000
0030
0001
0000
0020
0000
0000
0000
0000
0030
0002
0000
,
0000
0000
0000
0003
0001
0010
0001
1000
0100
0010
0001
0010
0100
1000
0100
0010
,
0001
0010
0100
0010
0001
0010
0001
1000
0100
0010
0100
0010
0100
1000
0100
1000
,
0001
0100
0001
0100
0010
1000
0010
1000
0001
0100
0010
0100
0010
1000
0001
1000
,
0001
0100
0010
0100
0001
0100
0010
0100
0001
0000
1000
0000
0100
0010
0001
0000
,
0010
0100
1000
0100
0000
0010
0001
0000
1000
0000
0001
0000
1000
0100
0010
0000
,
0001
0010
0100
1000
0000
0001
0010
0000
0200
0000
0000
0000
0000
0300
2000
0000
,
0000
0000
0000
3000
0100
1000
0100
0010
0100
0010
0001
1000
0001
0010
0001
1000
,
0010
0100
0010
0100
0001
0010
0001
0010
0001
1000
0100
1000
0001
0010
0001
0100
,
0010
0100
0001
1000
0001
1000
0100
1000
0001
1000
0100
0010
0001
0100
0010
1000
,
0100
0010
0100
1000
0100
0010
0001
0010
0002
0000
0000
0000
0000
0003
0020
0000
,
0000
0000
0000
0000
0000
0000
0000
0030
0100
1000
0001
0010
0001
1000
0100
0010
,
0100
1000
0100
0010
0001
0010
0100
1000
0002
0000
0003
0100
0010
0000
0110
0000
,
0000
0100
0010
0100
0001
1000
0100
1000
0100
0000
0000
0010
0001
0000
0011
0000
,
0000
0001
0010
1000
0010
0000
0100
0000
1100
0000
0000
1000
0001
0000
0101
0000
,
0000
0100
0010
1000
0001
0100
0010
1000
0001
0000
0000
1000
0010
0000
1010
0000
,
0010
1000
0001
0010
0100
1000
0001
0010
0200
0000
0300
2000
0000
3000
0002
0003
,
0100
0001
0100
0010
1000
0100
0010
0001
0020
0000
0030
0002
0000
0003
2000
3000
,
0001
1000
0010
0100
0010
1000
0100
0010
0200
0000
0300
2000
0000
3000
0020
0030
,
0100
0010
1000
0001
0010
0100
0010
0100
1000
0000
0100
0010
0000
0100
1000
0100
,
0010
0001
0010
0100
1000
0001
1000
0010
1000
0100
1000
0001
0010
0100
1000
0100
,
0010
0001
0010
0100
0010
0001
0010
0001
0010
0000
0100
0000
1000
0100
0010
0000
,
0010
0100
1000
0100
0000
0010
0001
0000
1000
0000
0001
0000
0010
0100
1000
0000
,
1000
0100
0010
0100
0000
1000
0001
0000
0100
0000
0010
0000
1000
0001
1000
0000
,
0001
0100
0001
1000
0000
0100
0010
0000
0001
0000
0100
0000
0010
0100
0010
0000
,
1000
0000
0001
0100
0000
1000
0100
0000
0010
0000
1000
0000
0001
0010
0001
0000
,
0010
0100
0010
0001
0000
0100
0001
0000
1000
0000
0010
0000
1000
0010
0001
0000
,
0010
1000
0010
0100
0000
0001
0010
0000
0100
0000
1000
0000
0001
0010
0100
0000
,
0010
0000
0001
0010
0000
1000
0010
0000
0100
1000
0010
0100
0001
0010
0100
1000
,
0100
0010
0100
1000
0001
1000
0010
1000
0100
0010
0100
0010
0001
0100
0010
0100
,
0001
0010
0100
1000
0001
0100
0010
1000
0001
0100
0001
0100
0010
1000
0100
0010
,
0001
1000
0001
0010
0100
1000
0001
0100
0010
1000
0100
1000
0100
0010
0001
0010
,
0001
0010
0100
0010
0100
1000
0100
0010
0001
1000
0001
0010
0100
1000
0100
0010
,
0001
1000
0100
0010
0100
1000
0001
0100
0010
1000
0100
1000
0001
0010
0001
0100
,
0010
1000
0001
1000
0100
0010
0100
0010
0001
0010
0100
0010
0001
1000
0100
1000
,
0001
0100
0010
0100
0001
0010
0001
0010
0100
1000
0100
0010
0100
1000
0010
0100
,
0001
0010
0100
1000
0001
0100
0010
1000
0100
0010
0100
0010
0001
1000
0100
0010
,
0001
0010
0100
1000
0001
0010
0100
0000
0000
0000
0000
0000
0000
0000
0000
0000
;

//--------------- dance-single - want to STREAM (EX) ----------------
#NOTES:
     dance-single:
     want to STREAM (EX):
     Edit:
     18:
     0,0,0,0,0:
0000
0000
0000
0000
0000
0000
0000
0000
0000
0000
0000
0000
1000
0100
0010
0001
0010
0100
1000
0100
0010
0001
0010
0100
,
1000
0000
0000
0001
0000
0000
1000
0000
0000
0100
0000
0000
0010
0000
0000
0001
0000
0000
1000
0000
0000
0001
0000
0000
1000
0000
0001
0000
0010
0000
0100
0000
0010
0000
0001
0000
0010
0000
0100
0000
1000
0000
0100
0000
0010
0000
0100
0000
,
1000
0000
0100
0000
0010
0000
0100
0000
0010
0000
0001
0000
0010
0000
0100
0000
0010
0000
0100
0000
1000
0000
0001
0000
0100
0000
0000
0001
0000
0000
0100
0000
0000
0001
0000
0000
1000
0000
0000
0010
0000
0000
1000
0000
0000
0001
0000
0000
,
0010
0000
0000
0001
0000
0000
1000
0000
0000
0100
0000
0000
1000
0000
0000
0001
0000
0000
0010
0000
0000
0001
0000
0000
1000
0000
0010
0000
0100
0000
0001
0000
0100
0000
0010
0000
1000
0000
0100
0000
0010
0000
0100
0000
1000
0000
0001
0000
,
0010
0000
0000
0001
0000
0000
0010
0000
0000
0100
0000
0000
0010
0000
0000
0100
0000
0000
1000
0000
0000
0100
0000
0000
1000
0000
0100
0000
0010
0000
0001
0000
0010
0000
0100
0000
1000
0000
0100
0000
0010
0000
0001
0000
0010
0000
0100
0000
,
1000
0000
0000
0001
0000
0000
1000
0000
0000
0100
0000
0000
1000
0000
0000
0010
0000
0000
1000
0000
0000
0001
0000
0000
0010
0000
0100
0000
1000
0000
0100
0000
0010
0000
0100
0000
1000
0000
0100
0000
0010
0000
0001
0000
0010
0000
0100
0000
,
0010
0000
0001
0000
1000
0000
0100
0000
0010
0000
0001
0000
1000
0000
0000
0001
0000
0000
1000
0000
0000
0010
0000
0000
1000
0000
0000
0100
0000
0000
0010
0000
0000
0100
0000
0000
1000
0000
0000
0001
0000
0000
1000
0000
0000
0010
0000
0000
,
1000
0000
0000
0100
0000
0000
1000
0000
0000
0001
0000
0000
0010
0000
0000
0100
0000
0000
0010
0000
0000
0001
0000
0000
0010
0000
0100
0000
1000
0000
0100
0000
0010
0000
0100
0000
1000
0000
0100
0000
0010
0000
0001
0000
0010
0000
0100
0000
,
0010
0001
1000
0010
1000
0100
1000
0000
0010
0100
0001
0010
0100
1000
0001
0010
,
0100
1000
0100
0010
0001
0010
0100
1000
0100
0010
0001
1000
0100
0010
0001
0010
,
0001
0000
0011
0000
0101
0000
1010
0000
1000
0100
0010
0100
0010
0001
0010
0100
,
1000
0100
0010
0100
0010
0001
0010
0100
1000
0010
0100
0001
0100
0010
1000
0010
,
0100
0001
1000
0100
0010
0001
0000
1000
0100
1000
0001
0010
0001
1000
0010
1000
,
0100
0010
0001
0010
0100
1000
0010
0100
0001
1000
0100
0010
0100
0010
0001
1000
,
0001
1000
0010
1000
0100
1000
0001
0010
0100
1000
0100
0010
0001
0100
0010
1000
,
0100
0010
0001
0010
0100
1000
0001
0010
0100
0010
0001
1000
0100
1000
0001
0010
,
0001
0010
0001
0100
0001
0100
0000
0100
0010
0100
0001
0010
0100
1000
0010
0100
,
0001
1000
0100
0010
0001
0010
0100
1000
0100
0010
0001
1000
0100
0010
0100
1000
,
0001
1000
0010
1000
0100
1000
0001
0100
0010
1000
0010
0100
0001
0010
0001
1000
,
0100
1000
0100
0010
0001
0010
0100
1000
0100
0010
0100
0010
0001
1000
0001
0010
,
0100
1000
0010
0100
0010
0100
0000
0100
0001
0000
0000
0100
0010
0000
0110
0000
,
0000
0010
0001
0010
1000
0100
1000
0001
0010
0000
0000
0100
1000
0000
1100
0000
,
0000
0100
0010
0100
1000
0000
0001
0000
0100
0000
0000
0010
1000
0000
1001
0000
,
0000
0001
0100
1000
0100
0001
0010
0100
1000
0000
0000
0010
0100
0000
0110
0000
,
0000
0010
0100
0001
0100
0010
1000
0001
0010
0100
1000
0010
1000
0001
0100
0010
,
0100
0001
1000
0100
0010
0001
0010
0100
1000
0001
1000
0010
0100
0010
1000
0010
,
0100
0001
0100
0010
1000
0001
0010
0100
1000
0100
0010
0001
0100
0010
0100
0001
,
0010
0100
0010
0001
0010
0100
1000
0100
0010
0001
1000
0100
1000
0001
0100
0010
,
1000
0010
1000
0010
0100
0001
0000
0100
0010
1000
0010
0100
0001
0100
0010
1000
,
0010
0100
0001
0010
0100
1000
0100
0010
0001
1000
0100
1000
0001
0010
0001
1000
,
0001
0010
0100
0010
0001
1000
0010
1000
0010
0100
0010
0100
0001
0100
0010
1000
,
0100
0010
0100
0010
0001
0010
0100
1000
0001
1000
0010
1000
0001
0100
0001
1000
,
0100
0000
0100
0000
1000
0100
0000
1000
0001
0000
1000
0000
0010
0100
0010
0000
,
1000
0100
0010
0001
0000
0100
0010
0000
1000
0000
0001
0000
0100
0010
0100
0000
,
0001
0010
0100
1000
0000
0010
0100
0000
0010
0000
1000
0000
0001
0100
0001
0000
,
0100
0010
1000
0001
0000
0100
0010
0000
1000
0000
0010
0000
0100
0001
0100
0000
,
0001
0000
1000
0100
0000
0001
0100
0000
0010
0000
0001
0000
1000
0100
1000
0000
,
0001
0010
0001
0100
0000
0001
0010
0000
0100
0000
1000
0000
0001
0010
0001
0000
,
1000
0100
1000
0010
0000
0100
0010
0000
1000
0000
0001
0000
1000
0010
0001
0000
,
0010
1000
0100
0010
0000
0001
0010
0000
0100
1000
0100
1000
0001
0010
0001
0010
,
0100
1000
0001
0100
0010
1000
0001
0010
0100
0000
1000
0100
0000
0100
0010
0000
,
0001
0010
0000
0100
1000
0010
1000
0100
1000
0000
0010
0100
0000
0100
0001
0000
,
0010
0001
0000
0100
0010
0100
0001
0100
0010
0000
0100
0010
0000
0010
1000
0000
,
0100
0010
0000
0001
0010
0001
1000
0001
0010
0000
0001
0100
0000
0010
1000
0000
,
0010
0000
1000
0010
0000
0001
0010
0000
0100
0000
1000
0100
0000
0100
0001
0000
,
0010
0100
0000
1000
0001
1000
0001
0100
0010
0000
0001
0010
0000
0010
1000
0000
,
0010
0100
0000
0100
0010
0100
0001
1000
0100
0000
1000
0001
0000
0001
0100
0000
,
0010
1000
0000
0100
1000
0010
0100
0001
0010
0000
0001
1000
0000
0100
0010
0000
,
0100
1000
0100
0010
0001
0010
0100
0010
0002
0000
0000
0000
0000
0000
0000
0003
,
0001
0000
0000
0010
0000
0000
0100
0000
0000
1000
0000
0000
0100
0000
1000
0000
0100
0000
1000
0000
0100
0000
0010
0000
0001
0000
1000
0000
0010
0000
0100
0000
0001
0000
1000
0000
0010
0000
0100
0000
0001
0000
1000
0000
0010
0000
1000
0000
,
0001
0000
0100
0000
0001
0000
1000
0000
0010
0000
1000
0000
0001
0000
0100
0000
0001
0000
1000
0000
0100
0000
0010
0000
0001
0000
0000
0000
0000
0000
1000
0000
0000
0100
0000
0000
0000
0000
0000
0100
0000
0000
0010
0000
0000
0000
0000
0000
,
0010
0000
0000
0001
0000
0000
0000
0000
0000
1000
0000
0000
0001
0000
0000
0000
0000
0000
0010
0000
0000
0001
0000
0000
0010
0000
0000
0100
0000
0000
1000
0000
0000
0001
0000
0000
0100
0000
0001
0000
0010
0000
0100
0000
1000
0000
0100
0000
,
1000
0000
0100
0000
0010
0000
0001
0000
2000
0000
3000
0020
0000
0030
0100
0000
,
0020
0000
0030
0002
0000
0003
1000
0000
0200
0000
0300
0002
0000
0003
1000
0000
,
0200
0000
0300
0020
0000
0030
0001
0000
0020
0000
0000
0000
0000
0030
0002
0000
,
0000
0000
0000
0003
0000
0000
0020
0000
0000
0000
0000
0000
0000
0000
0000
0030
0000
0000
0100
0000
0000
0000
0000
0000
1000
0000
0001
0000
0010
0000
0100
0000
1000
0000
0001
0000
1000
0000
0001
0000
0010
0000
0100
0000
0010
0000
0100
0000
,
1000
0000
0100
0000
0010
0000
0100
0000
1000
0000
0100
0000
0010
0000
0100
0000
0010
0000
0001
0000
0010
0000
0001
0000
0010
0000
0000
0001
0000
0000
0010
0000
0000
0100
0000
0000
1000
0000
0000
0010
0000
0000
0100
0000
0000
0001
0000
0000
,
0010
0001
0100
0010
1000
0100
1000
0001
0100
0001
1000
0010
1000
0001
0010
0001
,
1000
0100
1000
0001
0010
0100
0010
0100
2000
0000
0000
0000
0000
3000
0002
0000
,
0000
0000
0003
0020
0000
0030
0100
0000
2000
0000
3000
0200
0000
0300
0010
0000
,
0200
0000
0300
0020
0000
0030
0001
0000
0020
0000
0000
0000
0000
0030
0002
0000
,
0000
0000
0000
0000
0000
0000
0000
0000
0000
0003
0000
0000
0001
0000
0000
0010
0000
0000
0001
0000
0000
1000
0000
0000
0100
0000
0010
0000
0001
0000
0010
0000
0100
0000
0010
0000
0100
0000
0000
1000
0000
0000
0100
0000
0000
0010
0000
0000
,
0001
0000
0010
0000
0100
0000
0010
0000
0100
0000
1000
0000
0001
0000
0000
0010
0000
0000
0001
0000
0000
1000
0000
0000
0100
0000
0010
0000
0001
0000
0010
0000
0100
0000
1000
0000
0100
0000
0010
0000
0001
0000
0010
0000
0001
0000
0100
0000
,
0001
0000
1000
0000
0001
0000
0100
0000
0010
0000
1000
0000
0001
0000
0010
0000
0100
0000
1000
0000
0100
0000
0010
0000
0001
0000
0000
0100
0000
0000
0010
0000
0000
0100
0000
0000
0010
0000
0000
1000
0000
0000
0001
0000
0000
1000
0000
0000
,
0001
0100
0010
0100
0001
0100
0010
0100
0001
0000
1000
0000
0100
0010
0001
0000
,
0010
0100
1000
0100
0000
0010
0001
0000
1000
0000
0001
0000
1000
0100
0010
0000
,
0001
0010
0100
1000
0000
0001
0010
0000
0200
0000
0000
0000
0000
0300
2000
0000
,
0000
0000
0000
0000
0000
0000
0000
0000
0000
3000
0000
0000
0100
0000
0000
1000
0000
0000
0100
0000
0000
0010
0000
0000
0100
0000
0010
0000
0100
0000
0010
0000
0000
0001
0000
0000
1000
0000
0000
0100
0000
0000
0010
0000
0000
0001
0000
0000
,
1000
0000
0000
0001
0000
0000
1000
0000
0000
0010
0000
0000
1000
0000
0000
0001
0000
0000
1000
0000
0000
0001
0000
0000
0010
0000
0001
0000
0010
0000
0001
0000
0010
0000
0001
0000
0010
0000
0100
0000
0010
0000
0100
0000
0010
0000
0100
0000
,
0010
0000
0100
0000
1000
0000
0100
0000
1000
0000
0100
0000
1000
0000
0001
0000
1000
0000
0001
0000
1000
0000
0001
0000
1000
0000
0000
0100
0000
0000
0010
0000
0000
0001
0000
0000
0100
0000
0000
0010
0000
0000
1000
0000
0000
0100
0000
0000
,
0010
0001
1000
0001
1000
0100
0010
0001
0020
0000
0000
0000
0000
0030
0200
0000
,
0000
0000
0000
0000
0000
0000
0000
0000
0000
0000
0000
0000
0000
0000
0000
0000
0000
0000
0000
0000
0000
0300
0000
0000
1000
0000
0010
0000
1000
0000
0010
0000
0100
0000
0001
0000
0100
0000
0001
0000
0010
0000
0100
0000
0010
0000
0100
0000
,
1000
0000
0100
0000
1000
0000
0001
0000
0100
0000
0010
0000
1000
0000
0001
0000
0100
0000
0010
0000
1000
0000
0001
0000
0020
0000
0000
0000
0000
0000
0030
0000
0000
0100
0000
0000
1000
0000
0000
0000
0000
0000
0110
0000
0000
0000
0000
0000
,
0000
0100
0010
0100
0001
1000
0100
1000
0100
0000
0000
0010
0001
0000
0011
0000
,
0000
0001
0010
1000
0010
0000
0100
0000
1100
0000
0000
1000
0001
0000
0101
0000
,
0000
0100
0010
1000
0001
0100
0010
1000
0001
0000
0000
1000
0010
0000
1010
0000
,
0010
1000
0001
0010
0100
1000
0001
0010
0200
0000
0300
2000
0000
3000
0002
0003
,
0100
0001
0100
0010
1000
0100
0010
0001
0020
0000
0030
0002
0000
0003
2000
3000
,
0001
1000
0010
0100
0010
1000
0100
0010
0200
0000
0300
2000
0000
3000
0020
0030
,
0100
0010
1000
0001
0010
0100
0010
0100
1000
0000
0100
0010
0000
0100
1000
0100
,
0010
0000
0001
0000
0010
0000
0100
0000
1000
0000
0001
0000
1000
0000
0000
0001
0000
0000
1000
0000
0000
0010
0000
0000
1000
0000
0100
0000
0010
0000
0001
0000
0010
0000
0001
0000
0010
0000
0000
0100
0000
0000
1000
0000
0000
0100
0000
0000
,
0010
0001
0010
0100
0010
0001
0010
0001
0010
0000
0100
0000
1000
0100
0010
0000
,
0010
0100
1000
0100
0000
0010
0001
0000
1000
0000
0001
0000
0010
0100
1000
0000
,
1000
0100
0010
0100
0000
1000
0001
0000
0100
0000
0010
0000
1000
0001
1000
0000
,
0001
0100
0001
1000
0000
0100
0010
0000
0001
0000
0100
0000
0010
0100
0010
0000
,
1000
0000
0001
0100
0000
1000
0100
0000
0010
0000
1000
0000
0001
0010
0001
0000
,
0010
0100
0010
0001
0000
0100
0001
0000
1000
0000
0010
0000
1000
0010
0001
0000
,
0010
1000
0010
0100
0000
0001
0010
0000
0100
0000
1000
0000
0001
0010
0100
0000
,
0010
0000
0001
0010
0000
1000
0010
0000
0100
1000
0010
0100
0001
0010
0100
1000
,
0100
0000
0000
0010
0000
0000
0100
0000
0000
1000
0000
0000
0001
0000
0000
1000
0000
0000
0010
0000
0000
1000
0000
0000
0100
0000
0010
0000
0001
0000
0010
0000
0100
0000
1000
0000
0001
0000
1000
0000
0100
0000
0010
0000
0001
0000
0010
0000
,
0001
0000
0000
0010
0000
0000
0100
0000
0000
1000
0000
0000
0001
0000
0000
0100
0000
0000
0010
0000
0000
1000
0000
0000
0010
0000
0100
0000
0001
0000
0100
0000
0010
0000
1000
0000
0010
0000
0100
0000
0001
0000
0010
0000
0100
0000
1000
0000
,
0100
0000
0010
0000
0001
0000
0010
0000
0100
0000
1000
0000
0100
0000
0010
0000
0001
0000
0010
0000
0001
0000
0010
0000
0001
0000
0000
1000
0000
0000
0100
0000
0000
1000
0000
0000
0100
0000
0000
0010
0000
0000
0001
0000
0000
0010
0000
0000
,
0001
0000
0000
0010
0000
0000
0100
0000
0000
0010
0000
0000
0100
0000
0000
1000
0000
0000
0100
0000
0000
0010
0000
0000
0001
0000
0010
0000
0001
0000
1000
0000
0100
0000
1000
0000
0010
0000
0100
0000
0010
0000
0100
0000
0001
0000
0100
0000
,
0001
0000
0000
1000
0000
0000
0100
0000
0000
0010
0000
0000
0100
0000
0000
1000
0000
0000
0001
0000
0000
0010
0000
0000
0100
0000
1000
0000
0100
0000
0010
0000
0100
0000
0010
0000
0001
0000
0010
0000
0100
0000
0010
0000
0100
0000
1000
0000
,
0100
0000
0000
1000
0000
0000
0001
0000
0000
1000
0000
0000
0100
0000
0000
0010
0000
0000
0100
0000
0000
0010
0000
0000
0001
0000
0010
0000
0100
0000
1000
0000
0100
0000
0010
0000
0001
0000
0100
0000
0010
0000
1000
0000
0100
0000
0010
0000
,
0100
0000
1000
0000
0010
0000
0100
0000
0001
0000
1000
0000
0010
0000
0100
0000
0001
0000
1000
0000
0010
0000
0100
0000
0010
0000
0000
1000
0000
0000
0100
0000
0000
0010
0000
0000
0100
0000
0000
1000
0000
0000
0010
0000
0000
0100
0000
0000
,
0001
0000
0000
0010
0000
0000
0100
0000
0000
1000
0000
0000
0001
0000
0000
0100
0000
0000
0010
0000
0000
1000
0000
0000
0100
0000
0010
0000
0001
0000
0010
0000
0001
0000
0010
0000
0100
0000
1000
0000
0100
0000
0010
0000
0001
0000
0010
0000
,
0001
0010
0100
1000
0001
0010
0100
0000
0000
0000
0000
0000
0000
0000
0000
0000
;
