#TITLE:Your Rain(RAGE MIX);
#SUBTITLE:;
#ARTIST:Akira Yamaoka feat. Mary Elizabeth McGlynn;
#TITLETRANSLIT:;
#SUBTITLETRANSLIT:;
#ARTISTTRANSLIT:;
#GENRE:;
#CREDIT:;
#MUSIC:Your Rain(RAGE MIX).ogg;
#BANNER:Your Rain(RAGE MIX).png;
#BACKGROUND:Your Rain(RAGE MIX)-bg.png;
#CDTITLE:./CDTITLES/DANCE DANCE REVOLUTION HOME VERSION.PNG;
#SAMPLESTART:66.070;
#SAMPLELENGTH:15.000;
#SELECTABLE:YES;
#OFFSET:0.000;
#BPMS:0.000=94.987
,4.000=93.995
;
#STOPS:;
#DISPLAYBPM:84.000;
#BGCHANGES:;
#FGCHANGES:;

//--------------- dance-single - ITGRyan42069 ----------------
#NOTES:
     dance-single:
     ITGRyan42069:
     Challenge:
     12:
     0,0,0,0,0:
0000
0000
0000
0000
,
0000
0000
0000
0000
0000
0000
MMMM
MMMM
,
1000
0100
1000
0100
1MMM
0010
1000
0001
1000
0010
1000
0100
MM1M
0001
0010
0000
,
0001
0001
0010
0010
M1MM
0100
1000
1000
0010
1000
0100
1000
MMM1
0010
0001
0000
,
0100
0010
0100
0001
MM1M
0100
1000
0001
0001
0100
0100
0010
MM1M
1000
1000
0100
,
1000
0000
0000
0010
0000
0000
0100
0000
0000
0001
0000
0000
MM1M
0000
0000
0001
0000
0000
1000
0000
0000
0100
0000
0000
1000
0000
0000
0000
0000
0000
1000
0000
0100
0000
0010
0000
0001
0000
1000
0000
0100
0000
0010
0000
0001
0000
0100
0000
,
0010
0100
0001
0010
0100
1000
0001
0100
0010
1000
0100
1000
0100
0010
0100
1000
0010
0100
0001
0010
0100
0010
0001
1000
,
0001
0100
0010
0100
0001
0010
0001
1000
0100
1000
0010
0100
0001
0010
0100
1000
0001
1000
0100
0010
0001
1000
0001
0010
,
0100
1000
0001
1000
0100
0010
0001
0010
0100
1000
0010
1000
0010
0100
0001
1000
0100
0010
0100
1000
0001
0010
0100
0010
,
0001
0010
0001
0100
0010
0100
0010
1000
0100
1000
0100
0010
0001
0100
0001
1000
0001
1000
0100
0010
0100
0010
0001
0010
,
0001
1000
0010
1000
0001
1000
0010
1000
0100
1000
0001
1000
0100
1000
0001
0010
0100
0010
0100
1000
0001
0100
0010
1000
,
0010
0100
0001
0100
0010
1000
0001
0010
0100
1000
0010
1000
0010
0100
0001
0100
0001
0010
0001
0010
0100
1000
0100
1000
,
0010
0100
0010
0100
0001
1000
0010
0100
0001
1000
0100
0010
0001
0010
0001
0100
0001
1000
0100
0010
0100
1000
0010
0100
,
0001
0010
0001
1000
0100
1000
0001
0010
0001
0100
0010
1000
0010
1000
0001
0100
0001
0010
0001
0100
0001
1000
0010
1000
,
0001
0010
0100
1000
0010
0100
0001
0010
0100
1000
0010
0100
0010
1000
0100
0010
0001
0100
0010
1000
0100
0010
0001
0100
,
0010
0100
0001
0010
0100
1000
0001
0010
0100
1000
0001
0010
0100
0010
0100
1000
0001
0010
0100
0010
0100
1000
0100
1000
,
0010
0100
0001
1000
0010
0100
0001
1000
0100
0010
0001
1000
0100
0010
0001
1000
0100
0010
0100
0010
0001
1000
0100
0010
,
0100
0010
0001
1000
0100
0010
0100
1000
0001
0010
0100
0010
0001
1000
0100
0010
0100
1000
0001
0010
0100
0010
0001
0100
,
0001
1000
0100
1000
0010
1000
0001
1000
0010
1000
0100
0010
0001
0010
0001
0100
0001
1000
0001
0100
0001
0010
0001
0100
,
0010
1000
0001
0100
0010
1000
0100
0010
0001
0010
0100
1000
0100
1000
0100
0010
0001
0010
0001
0010
0100
1000
0010
0100
,
0010
0100
0010
1000
0100
1000
0001
0100
0010
0100
0001
1000
0100
1000
0010
1000
0100
0010
0100
1000
0010
0100
0010
1000
,
0100
0010
0001
0010
0100
0010
0001
0010
0100
1000
0100
0010
0100
1000
0001
0010
0100
1000
0001
1000
0100
0010
0001
0010
,
0100
1000
0001
0010
0001
1000
0100
1000
0100
0010
0001
0100
0001
0100
0010
1000
0010
1000
0001
0010
0001
0010
0001
0100
,
0001
1000
0001
1000
0010
0100
0010
0100
0001
0010
0100
0010
0100
1000
0010
0100
0001
0100
0010
1000
0010
0100
0001
0100
,
0010
1000
0100
1000
0010
1000
0010
0100
0010
0100
0001
1000
0100
0010
0001
1000
0001
0010
0001
1000
0010
0100
0010
1000
,
0100
1000
0001
1000
0100
1000
0010
0100
0001
1000
0010
0100
0001
0010
0100
1000
0100
0010
0001
0100
0010
1000
0100
0010
,
0001
1000
0010
1000
0010
1000
0MM1
1000
0001
0010
0001
0010
0001
1000
0001
1000
0010
1000
0M1M
1000
0010
1000
0001
1000
,
0001
0100
0001
1000
0100
1000
0M01
0010
0100
1000
0100
0010
0001
0100
0010
1000
0100
0010
M001
0100
0010
0100
0001
0010
,
0100
1000
0010
0100
0001
0010
010M
1000
0010
0100
0010
1000
0001
0010
0001
1000
0100
1000
00M1
0100
0010
0100
0001
0010
,
0100
1000
0001
0010
0100
1000
010M
0010
0001
1000
0100
0010
0001
0010
0100
0010
0001
1000
010M
0010
0100
1000
0100
0010
,
M100
0010
0001
M010
0100
0010
M001
0010
0100
0010
0100
1000
010M
0010
0100
100M
0010
1000
00M1
0100
0001
0010
0001
1000
,
010M
1000
0010
010M
0010
1000
001M
0100
0010
0100
0001
0100
M001
0100
0001
M010
0001
0010
010M
1000
0100
1000
0100
0010
,
010M
1000
0001
1MM0
0001
1000
00M1
0100
0010
0100
0010
0100
M001
0010
0100
100M
0100
0010
M001
0010
0001
0010
0001
0010
,
M001
0010
0100
M01M
0100
0010
010M
1000
0100
1000
0100
1000
010M
0010
0001
M100
0010
0100
M001
0010
0100
1000
0010
0100
,
001M
1000
0100
M010
0001
0010
010M
0010
0100
1000
0001
1000
010M
0010
0001
M100
0010
1000
010M
0010
0001
0100
0010
0100
,
M001
0000
0100
0000
0010
0000
1M00
0000
0001
0000
0010
0000
010M
0000
1000
0000
0010
0000
0100
0000
0001
0000
0010
0000
MM01
0000
0000
0000
0000
0000
MMM0
0000
0000
0000
0000
0000
MMMM
0000
0000
0M0M
0000
0000
M0M0
0000
0000
0000
0000
0000
;
