#TITLE:You're Not Here;
#SUBTITLE:;
#ARTIST:Heather;
#TITLETRANSLIT:;
#SUBTITLETRANSLIT:;
#ARTISTTRANSLIT:;
#GENRE:;
#CREDIT:;
#MUSIC:You're Not Here.ogg;
#BANNER:You're Not Here.png;
#BACKGROUND:You're Not Here-bg.png;
#CDTITLE:./CDTITLES/DANCE DANCE REVOLUTION HOME VERSION.PNG;
#SAMPLESTART:73.300;
#SAMPLELENGTH:15.000;
#SELECTABLE:YES;
#OFFSET:0.000;
#BPMS:0.000=132.353
,12.000=137.990
,228.000=111.111
,229.000=107.143
,230.000=76.923
,231.000=89.109
,232.000=86.400
;
#STOPS:;
#DISPLAYBPM:70.000:138.000;
#BGCHANGES:;
#FGCHANGES:;

//--------------- dance-single - ITGRyan42069 ----------------
#NOTES:
     dance-single:
     ITGRyan42069:
     Challenge:
     11:
     0,0,0,0,0:
0000
0000
0000
0000
,
0000
0000
0000
0000
,
M000
0M00
0M00
0M00
0M00
0M00
0M00
0M00
0M00
0M00
0M00
0M00
0M00
0M00
0M00
0M00
,
0M00
0M00
0M00
0M00
0M00
0M00
0M00
0M00
0M00
0M00
0M00
0M00
0M00
0M00
000M
0000
,
00M0
00M0
00M0
00M0
00M0
00M0
00M0
00M0
00M0
00M0
00M0
00M0
00M0
00M0
00M0
00M0
,
00M0
00M0
00M0
00M0
00M0
00M0
00M0
00M0
00M0
00M0
00M0
00M0
00M0
00M0
0001
0000
,
1000
0010
1000
0001
1000
0010
1000
0100
,
0010
0001
0010
0001
1000
0001
0010
0001
,
1000
0001
0100
0010
1000
0010
0100
0001
,
0100
0010
1000
0001
0010
0001
1000
0100
,
1000
0001
0010
0001
1000
0100
1000
0010
,
0100
0010
0100
0001
0010
0100
1000
0100
,
0010
0001
0010
0100
1000
0100
0010
0001
,
0010
0100
1000
0100
1000
0100
0010
0100
,
0010
0100
0010
0001
0010
0001
0010
0100
,
0010
0100
1000
0010
0100
0010
1000
0010
,
0100
0010
1000
0001
0010
0001
1000
0001
,
0010
0001
0010
0100
0010
0100
1000
0100
,
1000
0100
0010
0001
0010
0001
0100
0001
0010
0001
0100
0001
,
1000
0100
1000
0001
0010
0001
1000
0100
1000
0010
0100
0001
,
0010
0100
1000
0010
1000
0010
0100
0001
0100
0001
0010
0001
,
0010
0100
1000
0100
0010
0001
0010
0100
1000
0100
1000
0010
,
1000
0001
1000
0010
1000
0100
1000
0010
0100
0010
0100
0001
,
0010
0001
0010
0100
1000
0001
0010
0100
1000
0100
0010
0001
,
1000
0100
0010
0001
0100
0010
0100
0001
1000
0010
0100
0010
,
1000
0100
1000
0010
0100
0010
1000
0001
0010
0100
0010
0001
,
1000
0100
0010
0100
1000
0100
1000
0001
0010
0100
0010
0001
,
0010
0100
1000
0100
0010
0001
0100
0010
1000
0100
0010
0001
,
0100
0010
0100
0001
0010
0001
0100
0010
0100
0001
0010
0001
,
0010
0001
0010
0001
0010
0100
0010
0100
0010
0100
1000
0100
,
1000
0100
1000
0010
0100
0001
1000
0010
0100
0001
0010
0001
,
0100
0010
1000
0001
0100
0010
1000
0100
1000
0001
0010
0100
,
0010
0001
0100
0010
0100
0001
0010
0001
1000
0001
0010
0001
,
0100
0001
1000
0001
0100
0001
0010
0100
1000
0001
0010
0100
,
1000
0100
1000
0010
1000
0001
1000
0010
1000
0100
1000
0001
,
1000
0001
0100
0010
0100
0010
1000
0010
1000
0010
1000
0010
,
0100
0001
0100
0001
0100
0001
0010
0001
0010
0100
1000
0010
,
0100
0001
0010
0100
1000
0010
0100
0010
1000
0100
0010
0001
,
0100
0010
1000
0100
0010
0001
0100
0001
1000
0100
0010
0100
,
1000
0100
0010
0001
0010
0100
0010
0001
0010
0100
0010
0100
,
1000
0100
0010
0001
1000
0100
0010
0001
1000
0010
0100
0001
,
1000
0010
0100
0001
0010
0001
0101
0000
0000
1010
0000
0000
,
1000
0010
1000
0001
1000
0010
1000
0100
0010
0001
0010
0001
1000
0001
0010
0001
,
1000
0001
0100
0001
0100
0010
1000
0001
0100
0010
1000
0100
1000
0010
0100
0010
,
1000
0001
0010
0001
0100
0010
0100
0001
0010
0100
0010
0100
1000
0100
0010
0100
,
1000
0001
0010
0100
0010
0001
0010
0001
0100
0010
1000
0100
0010
0100
1000
0100
,
1000
0001
0010
0001
1000
0100
1000
0100
0010
0001
0100
0010
0100
0001
0010
0100
,
1000
0100
0010
0001
0100
0010
0100
0001
1000
0010
0100
0010
1000
0001
0010
0100
,
0010
0001
1000
0100
0010
0100
1000
0100
0010
0001
0010
0100
0010
0001
0010
0100
,
0010
0100
1000
0100
0010
0001
1000
0100
0010
0001
0010
0001
0100
0001
0010
0001
,
1000
0010
1000
0001
0100
0001
0010
0001
0010
0100
1000
0010
1000
0010
0100
0001
,
0100
0001
0010
0001
0010
0100
1000
0001
0010
0100
1000
0100
1000
0010
1000
0010
,
1000
0001
1000
0001
0010
0001
1000
0100
1000
0010
0100
0010
0100
0001
0100
0010
,
1000
0001
0100
0010
1000
0010
1000
0001
1000
0010
0100
0001
1000
0010
0100
0001
,
1000
0001
1000
0010
0100
0010
1000
0100
0010
0100
0010
0001
0010
0100
0010
0100
,
1000
0001
0010
0100
0010
0001
0100
0001
1000
0010
1000
0100
1000
0001
0100
0001
,
0010
0001
1000
0100
0010
0001
0010
0100
1000
0001
0010
0100
1000
0001
0010
0100
,
1000
0000
0000
0000
0100
0000
0000
0000
0010
0000
0000
0000
0001
0000
0000
0000
0010
0000
0000
0000
0100
0000
0000
0000
1000
0000
0000
0000
0001
0000
0000
0000
0010
0000
0000
0000
0001
0000
0000
0000
1000
0000
0000
0000
0100
0000
0000
0000
1000
0000
0000
0100
0000
0000
0010
0000
0000
0001
0000
0000
1000
0000
0000
0100
0000
0000
0010
0000
0000
0001
0000
0000
0010
0000
0000
0001
0000
0000
1000
0000
0000
0100
0000
0000
1000
0000
0000
0010
0000
0000
0100
0000
0000
0001
0000
0000
,
0010
0100
1000
0100
1000
0010
1000
0001
1000
0010
0100
0001
0010
0100
1000
0010
0100
0001
1000
0100
0010
0001
0100
0010
,
0100
0001
1000
0010
0100
0001
1000
0010
0100
0001
0010
0100
1000
0000
0000
0000
0000
0000
0000
0000
0000
0000
0000
0000
;
