#TITLE:兎座ストーリー;
#SUBTITLE:;
#ARTIST:兎田ぺこら;
#TITLETRANSLIT:Usagiza Story;
#SUBTITLETRANSLIT:;
#ARTISTTRANSLIT:Usada Pekora;
#GENRE:;
#CREDIT:;
#MUSIC:Usagiza Story.ogg;
#BANNER:;
#BACKGROUND:;
#CDTITLE:;
#SAMPLESTART:113.925;
#SAMPLELENGTH:12.692;
#SELECTABLE:YES;
#OFFSET:-0.079;
#BPMS:0.000=156.000;
#STOPS:;
#BGCHANGES:;
#FGCHANGES:;

//--------------- dance-single - Pax_Vesania ----------------
#NOTES:
     dance-single:
     Pax_Vesania:
     Beginner:
     3:
     0,0,0,0,0:
0000
0000
0000
0000
,
0000
0000
0000
0000
,
0000
0000
0000
0000
,
0000
0000
0000
0000
,
0000
0001
0000
0000
,
0000
0000
0000
0000
,
0000
1000
0000
0000
,
0000
0000
0000
0000
,
0000
2000
0000
0000
,
0000
0000
0000
0000
,
0000
3000
0020
0000
0000
0000
0000
0000
,
0000
0000
0000
0000
,
0000
0030
0200
0000
0000
0000
0000
0000
,
0000
0000
0000
0000
,
0000
0300
0002
0000
0000
0000
0000
0000
,
0000
0000
0000
0000
,
0000
0003
0001
0000
0000
0000
0001
0000
,
0000
0000
0000
1000
,
0000
1000
0000
1000
,
0000
0000
0000
0001
,
0000
0001
0000
0001
,
0000
0000
0100
0000
,
0000
0010
0000
0010
,
0000
0000
1000
0000
,
0000
2000
0000
0000
,
0000
3000
0200
0000
0000
0000
0000
0000
,
0000
0300
0020
0000
0000
0000
0000
0000
,
0000
0030
0002
0000
0000
0000
0000
0000
,
0000
0003
2000
0000
0000
0000
0000
0000
,
0000
3000
0020
0000
0000
0000
0000
0000
,
0000
0030
0200
0000
0000
0000
0000
0000
,
0000
0300
0002
0000
0000
0000
0000
0000
,
0000
0003
0001
0000
0000
0000
0001
0000
,
0000
1000
0000
1000
,
0000
0010
0000
0010
,
0000
0100
0000
0100
,
0000
0010
0000
0010
,
0000
0001
0000
0001
,
0000
1001
0000
2002
,
0000
3003
0000
0000
,
0000
0000
0000
0002
,
0000
0000
0000
0000
0000
0003
0200
0000
,
0000
0000
0000
0000
0000
0300
0020
0000
,
0000
0000
0000
0000
0000
0030
2000
0000
,
0000
0000
0000
0000
0000
3000
0200
0000
,
0000
0000
0000
0000
0000
0300
0020
0000
,
0000
0000
0000
0000
0000
0030
0002
0000
,
0000
0000
0000
0000
0000
0003
0002
0000
,
0000
0003
0200
0000
0000
0000
0000
0000
,
0000
0300
0020
0000
0000
0000
0000
0000
,
0000
0030
2000
0000
0000
0000
0000
0000
,
0000
3000
0002
0000
0000
0000
0000
0000
,
0000
0003
0200
0000
0000
0000
0000
0000
,
0000
0300
0020
0000
0000
0000
0000
0000
,
0000
0030
2000
0000
0000
0000
0000
0000
,
0000
3000
0200
0000
0000
0000
0000
0000
,
0000
0300
0020
0000
0000
0000
0000
0000
,
0000
0030
0002
0000
0000
0000
0000
0000
,
0000
0003
2000
0000
0000
0000
0000
0000
,
0000
3000
0002
0000
0000
0000
0000
0000
,
0000
0003
0200
0000
0000
0000
0000
0000
,
0000
0300
0002
0000
0000
0000
0000
0000
,
0000
0003
0020
0000
0000
0000
0000
0000
,
0000
0030
0002
0000
0000
0000
0000
0000
,
0000
0003
0000
0000
0000
0000
0000
0000
,
0000
0000
0000
0000
,
0000
1000
0000
0000
,
0000
0000
0000
0001
,
0000
0001
0000
0000
,
0000
0000
0000
0100
,
0000
0100
0000
0000
,
0000
0000
0000
0010
,
0000
0010
0000
0000
,
0000
0000
0000
1001
,
0000
1000
0000
1000
,
0000
0000
0000
0000
,
0000
0010
0000
0010
,
0000
0000
0000
0000
,
0000
0100
0000
0100
,
0000
0000
0000
0000
,
0000
0000
0001
0000
,
0001
0000
0000
0000
,
0000
0000
0000
0000
,
0000
0000
0000
0000
,
1000
0000
1000
0000
,
0000
0000
0010
0000
,
0010
0000
0000
0000
,
0000
0000
0000
0000
,
0100
0000
0100
0000
,
0000
0000
0001
0000
,
0001
0000
0000
0000
,
0000
0000
0000
0000
,
0010
0000
0010
0000
,
0000
0000
0100
0000
,
0100
0000
0000
0000
,
0000
0000
0000
0000
,
1000
0000
1000
0000
,
0000
0000
0001
0000
,
0001
0000
0000
0000
,
0000
0000
0000
0000
,
0000
0200
0000
0000
,
0000
0000
0000
0000
,
0000
0300
0020
0000
0000
0000
0000
0000
,
0000
0000
0000
0000
,
0000
0030
0002
0000
0000
0000
0000
0000
,
0000
0000
0000
0000
,
0000
0003
0000
0000
0000
0000
0000
0000
;

//--------------- dance-single - Pax_Vesania ----------------
#NOTES:
     dance-single:
     Pax_Vesania:
     Easy:
     5:
     0,0,0,0,0:
0000
0000
0000
0000
,
0000
0000
0000
0000
,
0000
0000
0000
0000
,
0000
0000
0000
0000
,
0000
0000
2000
0000
0000
3000
0001
0000
,
2000
0000
0000
3000
0001
0000
0010
0000
,
0010
0000
0200
0000
0000
0300
0010
0000
,
0200
0000
0000
0300
0010
0000
0001
0000
,
0001
0000
2000
0000
0000
3000
0001
0000
,
2000
0000
0000
3000
0001
0000
0100
0000
,
0100
0000
0020
0000
0000
0030
0100
0000
,
0020
0000
0000
0030
0100
0000
0001
0000
,
0001
0000
2000
0000
0000
3000
0010
0000
,
0200
0000
0000
0300
0001
0000
0010
0000
,
0010
0000
0200
0000
0000
0300
0010
0000
,
2000
0000
0000
3000
0001
0000
0010
0000
,
0010
0001
0000
1001
,
0000
1000
0000
0000
1000
0000
0001
0000
,
0001
0100
0000
0110
,
0000
0010
0000
0000
0010
0000
1000
0000
,
1000
0001
0000
1001
,
0000
0001
0000
0000
0100
0000
0010
0000
,
0010
0100
0000
0110
,
0000
0010
0000
0000
0110
0000
0000
0000
,
0000
2000
0000
0000
,
0000
3000
0020
0000
0000
0000
0000
0000
,
0000
0030
0200
0000
0000
0000
0000
0000
,
0000
0300
0002
0000
0000
0000
0000
0000
,
0000
0003
2000
0000
0000
0000
0000
0000
,
0000
3000
0200
0000
0000
0000
0000
0000
,
0000
0300
0020
0000
0000
0000
0000
0000
,
0000
0030
0002
0000
0000
0000
0000
0000
,
0000
0003
1001
0000
0000
0000
1000
0000
,
0000
1001
0000
0001
,
0000
0110
0000
0010
,
0000
0110
0000
1000
,
0000
0001
0001
1000
,
1000
0100
0100
0010
,
0010
0001
0001
0002
,
0000
0003
0000
0000
,
0000
0000
0000
2000
,
0000
3000
0020
0000
0000
0030
2000
0000
,
0000
3000
0200
0000
0000
0300
2000
0000
,
0000
3000
0002
0000
0000
0003
0020
0000
,
0000
0030
0200
0000
0000
0300
2000
0000
,
0000
3000
0020
0000
0000
0030
0200
0000
,
0000
0300
0002
0000
0000
0003
0020
0000
,
0000
0030
0002
0000
0000
0003
2000
0000
,
0000
3000
0200
0000
0000
0300
0002
0000
,
0000
0003
0200
0000
0000
0300
2000
0000
,
0000
3000
0020
0000
0000
0030
0200
0000
,
0000
0300
0002
0000
0000
0003
0020
0000
,
0000
0030
2000
0000
0000
3000
0200
0000
,
0000
0300
0002
0000
0000
0003
0020
0000
,
0000
0030
2000
0000
0000
3000
0200
0000
,
0000
0300
2000
0000
0000
3000
0002
0000
,
0000
0003
0200
0000
0000
0300
0020
0000
,
0000
0030
2000
0000
0000
3000
0002
0000
,
0000
0003
0200
0000
0000
0300
0002
0000
,
0000
0003
2000
0000
0000
3000
0020
0000
,
0000
0030
0200
0000
0000
0300
0002
0000
,
0000
0003
0200
0000
0000
0300
2000
0000
,
0000
3000
0200
0000
0000
0300
0002
0000
,
0000
0003
0020
0000
0000
0030
0002
0000
,
0000
0003
0000
0000
0000
0000
0000
0000
,
0000
0000
0000
0000
,
0000
0000
0200
0000
0000
0300
0010
0000
,
0200
0000
0000
0300
0001
0000
0010
0000
,
0010
0000
0200
0000
0000
0300
1000
0000
,
0200
0000
0000
0300
0001
0000
0100
0000
,
0100
0000
0020
0000
0000
0030
0100
0000
,
2000
0000
0000
3000
0001
0000
0100
0000
,
0100
0000
0020
0000
0000
0030
0001
0000
,
0020
0000
0000
0030
1000
0000
0000
0000
,
0000
1000
1000
0100
,
0000
0001
0001
0010
,
0000
0100
0100
1000
,
0000
0010
0010
0001
,
0000
1000
1000
0010
,
0000
0100
0100
0001
,
0000
0000
0010
0000
0010
0000
0000
0100
,
0000
0200
0000
0000
0000
0300
1000
0000
,
1000
0000
0000
0000
,
0000
0000
0000
0000
,
1000
0010
1000
0000
,
0001
0100
0001
0000
,
1001
0000
0000
0000
,
0000
0000
0000
0000
,
0100
0000
0100
0000
0001
0000
0000
0010
,
0000
0020
0000
0000
0000
0030
0100
0000
,
0100
0000
0000
0000
,
0000
0000
0000
0000
,
0001
0100
0001
0000
,
1000
0010
1000
0000
,
1001
0000
0000
0000
,
0000
0000
0000
0000
,
0001
0000
0001
0000
0010
0000
0000
0100
,
0000
0200
0000
0000
0000
0300
1000
0000
,
1000
0000
0200
0000
0000
0300
0001
0000
,
0200
0000
0000
0300
0001
0000
0100
0000
,
0100
0000
2000
0000
0000
3000
0010
0000
,
0200
0000
0000
0300
0001
0000
0010
0000
,
0010
0000
0200
0000
0000
0300
1000
0000
,
0002
0000
0000
0003
0010
0000
0100
0000
,
0100
0000
2000
0000
0000
3000
0001
0000
,
0200
0000
0000
0300
0001
0000
0001
0000
,
0001
0000
0000
0000
;

//--------------- dance-single - Pax_Vesania ----------------
#NOTES:
     dance-single:
     Pax_Vesania:
     Medium:
     8:
     0,0,0,0,0:
0000
0000
0000
0000
,
0000
0000
0000
0000
,
0000
0000
0000
0000
,
0000
0000
0000
0000
,
0000
0000
1000
0000
0010
0100
0010
0000
,
0100
0000
0001
0010
0001
0000
0100
0000
,
0010
0000
1000
0000
0010
1000
0010
0000
,
0100
0000
0001
0100
0001
0000
0010
0000
,
0100
0000
1000
0000
0010
0100
0001
0000
,
1000
0000
0100
0010
0001
0000
1000
0000
,
0001
0000
0100
0000
0010
0100
0001
0000
,
1000
0000
0001
1000
0100
0000
0001
0000
,
0100
0000
1000
0000
1000
0100
0010
0000
,
0100
0000
0100
0010
0001
0000
0010
0000
,
0100
0000
1000
0000
0100
1000
0001
0000
,
0100
0000
0100
0001
0010
0000
0001
0000
,
1000
0000
0100
0000
0100
0000
1000
0100
,
0000
1000
0000
1000
0100
0000
0100
0000
,
0110
0000
0010
0000
0001
0000
0010
0001
,
0000
0001
0000
0010
0001
0000
1000
0000
,
1001
0000
0001
0000
0100
0000
0010
0100
,
0000
0100
0000
0010
0100
0000
0010
0000
,
0110
0000
1000
0000
0001
0000
1000
0001
,
0000
1000
0000
0001
1000
0000
0000
0000
,
0000
0200
0000
0000
,
0000
0000
0000
0300
0002
0000
0000
0000
0000
0000
0000
0000
0000
0000
0000
0000
,
0000
0000
0000
0003
2000
0000
0000
0000
0000
0000
0000
0000
0000
0000
0000
0000
,
0000
0000
0000
3000
0020
0000
0000
0000
0000
0000
0000
0000
0000
0000
0000
0000
,
0000
0000
0000
0030
0200
0000
0000
0000
0000
0000
0000
0000
0000
0000
0000
0000
,
0000
0000
0000
0300
0020
0000
0000
0000
0000
0000
0000
0000
0000
0000
0000
0000
,
0000
0000
0000
0030
2000
0000
0000
0000
0000
0000
0000
0000
0000
0000
0000
0000
,
0000
0000
0000
3000
0002
0000
0000
0000
0000
0000
0000
0000
0000
0000
0000
0000
,
0000
0000
0000
0003
0100
0000
0000
0000
0100
0000
0000
0000
0010
0000
0000
0000
,
0010
1000
1000
0001
,
0001
1000
1000
0100
,
0100
0010
0010
0001
,
0001
0100
0100
0010
,
0010
1000
1000
0100
,
0100
0000
0010
0001
1000
0000
0001
1000
,
0001
1000
0001
0000
0000
0000
0000
0000
,
0000
0000
0000
2002
,
0000
3003
2000
0000
0000
3000
2002
0000
,
0000
3003
0002
0000
0000
0003
0202
0000
,
0000
0303
0200
0000
0000
0300
0220
0000
,
0000
0330
0020
0000
0000
0030
2020
0000
,
0000
3030
0020
0000
0000
0030
0220
0000
,
0000
0330
0200
0000
0000
0300
0202
0000
,
0000
0303
0002
0000
0000
0003
2002
0000
,
0000
3003
2000
0000
0000
3000
2200
0000
,
0000
3300
0200
0000
0000
0300
0220
0000
,
0000
0330
0020
0000
0000
0030
0022
0000
,
0000
0033
0002
0000
0000
0003
2002
0000
,
0000
3003
2000
0000
0000
3000
2020
0000
,
0000
3030
0020
0000
0000
0030
0220
0000
,
0000
0330
0200
0000
0000
0300
0202
0000
,
0000
0303
0002
0000
0000
0003
0022
0000
,
0000
0033
0002
0000
0000
0003
0202
0000
,
0000
0303
0200
0000
0000
0300
0220
0000
,
0000
0330
0020
0000
0000
0030
2020
0000
,
0000
3030
2000
0000
0000
3000
2002
0000
,
0000
3003
0002
0000
0000
0003
0022
0000
,
0000
0033
0020
0000
0000
0030
0220
0000
,
0000
0330
0200
0000
0000
0300
2200
0000
,
0000
3300
2000
0000
0000
3000
2020
0000
,
0000
3030
0000
0000
0000
0000
0000
0000
,
0000
0000
0000
0000
,
0000
0000
0010
0000
1000
0100
0010
0000
,
0010
0000
0001
1000
0100
0000
0010
0000
,
0010
0100
1000
0000
0010
1000
0010
0000
,
0100
0000
0001
0100
0001
0000
0001
0000
,
0010
0100
1000
0000
0100
1000
0100
0000
,
0010
0000
0001
0010
0001
0000
0100
0000
,
0010
0100
0001
0000
1000
0100
0010
0000
,
0000
0000
0000
0000
,
0000
1000
0010
1000
,
0100
0010
0000
0010
0001
0000
0100
0000
,
0010
1000
0010
1000
,
0100
0010
0000
0010
0001
0000
0010
0000
,
0100
1000
0001
0010
,
0001
0100
0000
0100
0010
0000
1000
0000
,
0001
0000
0010
0000
0100
0000
0000
0100
,
0000
2000
0000
0000
0000
3000
1100
0000
,
0100
0010
0001
0100
,
0100
0010
0000
0100
0001
0000
0010
0000
,
0100
0100
1000
1000
,
0010
0100
0000
0100
0010
0000
0100
0000
,
0010
1000
0010
0100
,
0010
0100
0000
0001
0100
0000
0001
0000
,
1000
0000
0010
0000
0100
0000
0000
0001
,
0000
2000
0000
0000
0000
3000
1001
0000
,
0001
0001
0100
0010
,
1000
0100
0000
1000
0010
0000
0100
0000
,
0001
0100
0010
1000
,
1000
0001
0000
0010
0100
0000
0010
0000
,
0010
0001
1000
0100
,
1000
0100
0000
0001
0010
0000
0100
0000
,
1000
0000
0001
0000
0010
0000
0000
0010
,
0000
0200
0000
0000
0000
0300
0110
0000
,
0010
0000
0001
0000
1000
0100
0010
0000
,
0100
0000
0100
0010
0001
0000
0100
0000
,
0010
1000
0100
0000
1000
0010
0100
0000
,
0001
0000
0100
0001
0010
0000
0010
0100
,
1000
0000
1000
0000
0001
0100
0010
0000
,
0100
0000
0001
1000
0100
0000
1000
0001
,
0010
0000
0100
0000
0100
0010
0001
0000
,
1000
0000
0100
0010
0001
0000
0001
0100
,
0001
1000
0000
0000
0000
0000
0000
0000
;

//--------------- dance-single - Pax_Vesania ----------------
#NOTES:
     dance-single:
     Pax_Vesania:
     Hard:
     12:
     0,0,0,0,0:
0000
0000
0000
0000
,
0000
0000
0000
0000
,
0000
0000
0000
0000
,
0000
0000
0000
0000
,
0000
0000
1000
0010
0100
0001
0010
0000
,
0001
1000
0100
0010
0001
0000
0010
0001
,
0010
1000
0010
0001
1000
0100
0010
0000
,
0001
1000
0100
0010
0001
0000
0001
0100
,
0010
1000
0100
0010
0001
0100
0010
0000
,
0100
0010
1000
0001
0010
0000
0001
1000
,
0100
0010
0100
1000
0100
0010
0001
0000
,
1000
0010
0001
1000
0100
0000
0001
0010
,
0100
1000
0010
1000
0100
0001
0100
0000
,
0010
0001
1000
0010
0100
0000
0001
0100
,
0010
1000
0010
0001
0010
1000
0001
0000
,
0100
0010
1000
0001
0100
0000
0001
0010
,
1000
0001
0100
0000
1000
0000
1000
0010
,
0000
0100
0000
0010
1000
0000
0100
1000
,
0010
0100
0001
0000
0001
0000
0010
0100
,
0000
0010
0000
0100
1000
0000
0001
0100
,
0001
1000
0010
0000
0010
0000
0100
0010
,
0000
1000
0000
0001
0010
0000
0100
1000
,
0001
0010
0100
0000
1000
0000
1000
0001
,
0000
0100
0000
0010
0100
0000
0001
0100
,
0010
1000
2020
0000
0000
0000
0000
0000
,
0000
3030
0220
0000
0000
0000
0000
0000
,
0000
0330
2200
0000
0000
0000
0000
0000
,
0000
3300
0202
0000
0000
0000
0000
0000
,
0000
0303
2020
0000
0000
0000
0000
0000
,
0000
3030
0202
0000
0000
0000
0000
0000
,
0000
0303
2002
0000
0000
0000
0000
0000
,
0000
0000
3003
0000
0001
0000
0000
0010
0000
0000
0001
0000
0010
0000
0100
0000
,
1000
0100
1100
0000
1000
0000
1010
0000
,
1000
0011
0001
0101
,
0001
1001
1000
0110
,
0010
0101
0001
1010
,
1000
1100
1010
1100
,
0101
0011
0101
0110
,
1001
0000
1000
0010
0001
1000
0100
0001
,
0001
0100
0100
0000
0000
0000
0000
0000
,
0000
0000
1000
0010
0100
0001
0202
0000
,
0000
0303
0200
0000
0000
0300
0220
0000
,
0000
0330
0020
0000
0000
0030
2020
0000
,
0000
3030
2000
0000
0000
3000
2002
0000
,
0000
3003
0002
0000
0000
0003
0202
0000
,
0000
0303
0200
0000
0000
0300
0220
0000
,
0000
0330
2000
0000
0000
3000
2002
0000
,
0000
0000
3003
0000
0001
0000
0000
0100
0000
0000
0001
0000
0100
0000
0010
0000
,
1000
0000
0100
0000
1000
0000
0100
0000
0010
0000
0001
0000
0200
0000
0000
0300
,
0001
0000
0020
0000
0000
0000
0000
0030
0200
0000
0000
0300
2000
0000
0000
3000
,
0002
0000
0000
0003
0200
0000
0000
0300
0020
0000
0000
0030
2000
0000
0000
3000
,
0100
0020
0000
0000
0000
0000
0031
0100
,
0010
0100
1000
0100
0001
1000
0010
0000
,
1000
0000
0200
0000
0000
0000
0000
0300
0020
0000
0000
0030
0200
0000
0000
0300
,
2000
0000
0000
3000
0002
0000
0000
0003
0200
0000
0000
0300
0002
0000
0000
0003
,
0010
0000
0100
0000
1000
0000
0000
0100
0000
0000
1000
0000
0001
0000
0010
0000
,
1000
0010
0100
1000
0010
0001
0020
0000
,
0000
0030
0200
0000
0000
0000
0000
0300
0002
0000
0000
0003
2000
0000
0000
3000
,
0002
0000
0000
0003
0020
0000
0000
0030
0200
0000
0000
0300
2000
0000
0000
3000
,
0100
0020
0000
0000
0000
0000
0031
1000
,
0001
0000
0100
0000
0010
0000
1000
0000
0100
0000
0010
0000
0002
0000
0000
0003
,
1000
0000
0200
0000
0000
0000
0000
0300
0002
0000
0000
0003
0200
0000
0000
0300
,
2000
0000
0000
3000
0002
0000
0000
0003
0020
0000
0000
0030
0200
0000
0000
0300
,
1000
0002
0000
0000
0000
0000
0013
0100
,
1000
0010
0000
0000
0000
0000
0000
0000
,
0000
0000
0000
0000
,
0000
0000
0100
0001
0100
0010
0001
0000
,
0010
1000
0100
0010
0001
0000
0010
0001
,
1000
0100
0010
0100
0001
0100
0010
0000
,
0001
1000
0010
0100
0001
0000
0001
0010
,
0100
0001
0100
1000
0100
0010
0001
0000
,
0100
0010
1000
0001
0010
0000
0100
1000
,
0001
0010
0100
0010
0001
1000
0100
0000
,
0010
0001
1000
0100
0010
0000
0000
0000
,
0000
0000
1000
0001
1000
0010
0100
0010
,
1000
0100
0000
0010
0100
0010
0001
0100
,
0001
1000
0010
1000
0100
1000
0001
0010
,
0100
0010
0000
0100
1000
0001
1000
0010
,
1000
0100
0010
0001
1000
0001
0010
0001
,
1000
0100
0000
0010
0100
1000
0001
0100
,
1000
0100
0001
1000
0001
1000
0010
1000
,
0000
0100
0000
1000
0010
0100
0001
0000
,
0100
0010
0100
0000
0001
0000
0010
0000
,
0100
0010
0000
0010
0001
0000
1000
0000
,
0100
1000
0100
0010
0100
0010
0001
0100
,
0010
0000
0002
0000
0000
0003
0010
0000
1000
0000
0001
0000
0200
0000
0000
0300
,
0001
0010
0001
0000
0100
0000
0010
0000
,
1000
0100
0000
0010
0100
0000
1000
0000
,
0010
0001
0010
1000
0001
0100
0010
0001
,
0010
0000
2000
0000
0000
3000
0001
0000
0100
0000
0010
0000
0200
0000
0000
0000
,
0000
0000
0000
0300
0001
0000
0000
0000
0010
0000
0000
0000
0100
0000
0000
0000
,
0001
0100
0000
0010
0001
0000
1000
0000
,
0100
1000
0100
0001
0100
0010
0001
0100
,
1000
0000
0200
0000
0000
0300
0010
0000
1000
0000
0001
0000
0020
0000
0000
0030
,
0001
0100
0010
0000
1000
0000
0001
0000
,
0100
0010
0000
0100
0001
0000
0010
0000
,
0100
1000
0001
0010
1000
0010
0100
0001
,
0100
0000
0020
0000
0000
0030
0001
0000
0100
0000
0010
0000
2000
0000
0000
0000
,
0000
3000
0100
0010
0001
1000
0100
0000
,
0010
0001
1000
0100
0010
0000
0100
0010
,
0001
1000
0001
0100
0010
1000
0001
0000
,
1000
0100
0010
0001
0010
0000
0001
0010
,
0100
1000
0100
0001
0100
0010
0001
0000
,
1000
0010
0001
1000
0100
0000
0010
1000
,
0100
0001
0100
1000
0010
0100
0001
0000
,
0010
0001
0010
1000
0010
0000
0001
0010
,
0100
1000
0000
0000
0000
0000
0000
0000
;

//--------------- dance-single - 兎座ストリーム ----------------
#NOTES:
     dance-single:
     兎座ストリーム:
     Edit:
     17:
     0,0,0,0,0:
0000
0000
0000
0000
1000
0010
0100
0001
0100
0010
1000
0100
1000
0100
0010
0001
,
0010
0100
1000
0001
1000
0100
0010
0001
1000
0010
0100
0001
0100
0010
1000
0001
,
0100
0010
1000
0100
0010
0001
1000
0001
1000
0100
0010
0001
0010
0001
1000
0100
,
0010
0100
0010
0001
0010
0100
0010
0100
1000
0001
0010
0100
1000
0100
0010
0001
,
0010
0100
1000
0001
1000
0010
1000
0100
1000
0010
1000
0001
0010
0100
0010
0001
,
1000
0100
0010
0100
1000
0001
1000
0100
0010
0100
1000
0001
0100
0010
1000
0100
,
0010
0001
1000
0001
1000
0100
0010
0001
0100
0010
1000
0100
0010
0001
0100
0010
,
1000
0001
0100
0010
1000
0001
0010
0100
1000
0100
0010
0001
0010
0001
0010
0100
,
1000
0001
0100
0001
0100
0010
1000
0100
0010
0001
1000
0001
0010
0100
1000
0001
,
1000
0100
0010
0001
1000
0100
1000
0010
0100
0001
0010
0001
0100
0010
1000
0100
,
0010
0100
1000
0001
0010
0100
1000
0100
0010
0001
0010
0100
0010
0001
1000
0010
,
1000
0001
0100
0001
0100
0010
1000
0001
1000
0100
0010
0001
0010
0001
1000
0100
,
0010
0100
1000
0001
0010
0001
1000
0100
1000
0010
0100
0010
0100
0001
0100
0001
,
1000
0010
1000
0010
0100
0001
1000
0010
0100
0001
0010
0100
1000
0100
0010
0001
,
0010
0001
1000
0100
0010
0100
1000
0001
1000
0010
1000
0001
1000
0010
0100
0001
,
0010
0100
0010
0001
1000
0100
0010
0100
1000
0100
0010
0100
0010
0001
0010
0100
,
0010
0100
1000
0001
0100
0010
1000
0100
0010
0001
1000
0001
0010
0100
1000
0001
,
1000
0100
0010
0001
0010
0100
0010
0001
1000
0100
0010
0100
1000
0010
1000
0001
,
0100
0010
0100
0001
1000
0010
1000
0100
1000
0001
1000
0010
1000
0100
1000
0100
,
0010
0100
0010
0001
0010
0001
0100
0001
1000
0001
0100
0001
0010
0001
1000
0100
,
0010
0001
0010
0100
1000
0001
0100
0010
1000
0001
0100
0010
1000
0010
0100
0001
,
1000
0100
0010
0001
1000
0000
1000
0000
0001
0000
0100
0010
0100
0000
0001
0000
,
0100
0010
1000
1000
0010
0100
0010
0100
,
0001
0000
0010
0000
0000
0000
0100
0000
0100
0000
1000
0001
0010
0000
0100
1000
,
0001
0000
1000
0000
0001
1000
0010
0100
0001
0100
0010
1000
0100
0010
0001
0010
,
0100
1000
0001
0010
0100
0010
0001
1000
0100
0010
0001
0010
0100
1000
0001
0010
,
0100
0010
0100
1000
0100
0010
0100
0010
0001
0010
0100
1000
0001
1000
0010
1000
,
0100
1000
0010
1000
0100
0010
0001
1000
0001
0100
0001
0010
0001
0100
0001
1000
,
0001
0010
0100
1000
0100
0010
0001
0100
0010
1000
0010
1000
0001
0100
0001
1000
,
0100
0010
0001
0010
0100
1000
0001
1000
0100
0010
0001
0010
0100
0010
0001
0010
,
0100
1000
0100
0010
0100
1000
0100
0010
0100
0010
0001
0100
0010
1000
0001
0100
,
0010
1000
0010
0100
0001
1000
0010
0100
0001
1000
0100
0010
0001
1000
0001
0010
,
0100
1000
0100
0010
0001
0000
0000
0000
1000
0000
0000
0000
0011
0000
0000
0000
,
1000
0101
0001
1100
,
0001
1010
1000
0110
,
0001
0110
1000
1001
,
0010
0110
1001
0110
,
1010
1100
0110
0011
,
1010
0000
0000
0000
1000
0000
0010
0000
1000
0000
0100
0000
1000
0100
0010
0001
,
0100
0010
0100
0001
0010
0000
0000
0000
0000
0000
0000
0000
0000
0000
0000
0000
,
0000
0000
0000
0000
1000
0000
0100
0000
0010
0000
0001
0000
1000
0100
1000
0001
,
0010
0001
0100
0010
0100
0001
1000
0100
0010
0100
1000
0001
0010
0100
0010
0001
,
1000
0100
0010
0100
1000
0001
0010
0100
0010
0001
0010
0100
1000
0100
0010
0001
,
0010
0100
1000
0100
0010
0001
0010
0100
1000
0100
0010
0100
0010
0001
0010
0100
,
0010
0100
1000
0001
0100
0010
1000
0001
0100
0010
1000
0010
0100
0001
1000
0010
,
0100
0001
1000
0010
1000
0001
0100
0001
1000
0100
0010
0100
1000
0001
1000
0001
,
0010
0100
0010
0001
1000
0001
0100
0010
1000
0001
1000
0010
0100
0010
1000
0100
,
1000
0001
0010
0001
0010
0100
1000
0001
0100
0010
1000
0001
0010
0100
0010
0100
,
1000
0100
0010
0100
0010
0001
1000
0100
0010
0001
0100
0010
0100
0001
0010
0100
,
1000
0100
0010
0001
0100
0010
0100
0001
0010
0100
1000
0001
1000
0100
0010
0001
,
1000
0001
0010
0100
1000
0100
0010
0100
0010
0001
0010
0100
0010
0100
1000
0010
,
1000
0100
1000
0010
1000
0001
1000
0010
1000
0100
1000
0001
0010
0001
0100
0001
,
1000
0001
0100
0001
0010
0001
0100
0010
1000
0001
0100
0010
1000
0010
0100
0001
,
1000
0010
0100
0001
0100
0010
1000
0001
0100
0010
1000
0100
0010
0100
1000
0001
,
0010
0100
0010
0001
1000
0100
0010
0100
1000
0001
0010
0100
0010
0001
1000
0100
,
0010
0100
0010
0001
1000
0001
0010
0100
0010
0100
1000
0001
1000
0100
0010
0001
,
1000
0001
0010
0100
1000
0100
1000
0001
0010
0001
0100
0010
0100
0001
1000
0100
,
0010
0100
1000
0001
0010
0100
0010
0001
1000
0100
0010
0100
1000
0001
0010
0100
,
0010
0001
0010
0100
1000
0100
0010
0001
0010
0100
1000
0100
0010
0001
0010
0100
,
1000
0100
0010
0100
0010
0001
0010
0100
0010
0100
1000
0001
0100
0010
1000
0001
,
0100
0010
1000
0010
0100
0001
1000
0010
0100
0001
1000
0010
1000
0001
0100
0001
,
1000
0100
0010
0100
1000
0001
1000
0001
0010
0100
0010
0001
1000
0001
0100
0010
,
1000
0001
1000
0010
0100
0010
1000
0100
1000
0001
0010
0001
0010
0100
1000
0001
,
0100
0010
1000
0001
0010
0100
0010
0100
1000
0100
0010
0100
0010
0001
1000
0001
,
1000
0100
0010
0001
0020
0000
0000
0000
0000
0000
0000
0000
0000
0000
0000
0000
,
0000
0000
0000
0030
,
0000
0000
0000
0000
1000
0010
0100
0001
0100
0010
1000
0100
1000
0100
0010
0001
,
0010
0100
1000
0001
1000
0100
0010
0001
1000
0010
0100
0001
0100
0010
1000
0001
,
0100
0010
1000
0100
0010
0001
1000
0001
1000
0100
0010
0001
0010
0001
1000
0100
,
0010
0100
0010
0001
0010
0100
0010
0100
1000
0001
0010
0100
1000
0100
0010
0001
,
0010
0100
1000
0001
1000
0010
1000
0100
1000
0010
1000
0001
0010
0100
0010
0001
,
1000
0100
0010
0100
1000
0001
1000
0100
0010
0100
1000
0001
0100
0010
1000
0100
,
0010
0001
1000
0001
1000
0100
0010
0001
0100
0010
1000
0100
0010
0001
0100
0010
,
1000
0001
0100
0010
1000
0001
0010
0100
1000
0100
0010
0001
0010
0000
0000
0000
,
0000
0000
0000
0000
0001
0100
0010
1000
0100
0010
0100
1000
0001
0010
0100
0010
,
0001
1000
0100
0010
0001
1000
0100
0010
0001
1000
0001
0010
0100
1000
0001
0010
,
0100
1000
0001
1000
0001
0100
0010
0100
0010
1000
0001
0100
0001
0100
0010
1000
,
0010
0100
0001
0010
0100
1000
0100
0010
0001
1000
0010
0100
0001
0100
0010
1000
,
0001
0100
0010
0100
0001
0100
0010
1000
0001
0010
0001
1000
0100
1000
0010
0100
,
0010
0100
0001
0100
0001
0010
0100
1000
0001
0100
0001
0010
0100
1000
0010
1000
,
0100
0010
0001
1000
0001
0010
0100
0010
0100
1000
0100
0010
0100
0010
0001
1000
,
0001
1000
0010
0100
0010
0100
0001
0010
0100
1000
0001
1000
0100
0010
0001
0100
,
0010
0100
0001
0010
0100
1000
0100
0010
0001
0010
0100
1000
0010
1000
0100
1000
,
0010
1000
0001
1000
0010
1000
0100
1000
0001
0010
0001
0100
0001
1000
0001
0100
,
0001
0010
0001
0100
0010
1000
0001
0100
0010
1000
0010
0100
0001
1000
0010
0100
,
0001
0100
0010
1000
0001
0100
0010
1000
0100
0010
0100
1000
0001
0010
0100
0010
,
0001
1000
0100
0010
0100
1000
0001
0010
0100
0010
0001
1000
0100
0010
0100
0010
,
0001
1000
0001
0010
0100
0010
0100
1000
0001
1000
0100
0010
0001
1000
0001
0010
,
0100
1000
0100
1000
0001
0010
0001
0100
0010
0100
0001
1000
0100
0010
0100
1000
,
0001
0010
0100
0010
0001
1000
0100
0010
0100
1000
0001
0010
0100
0010
0001
0010
,
0100
1000
0100
0010
0001
0010
0100
1000
0100
0010
0001
0010
0100
1000
0100
0010
,
0100
0010
0001
0010
0100
0010
0100
1000
0001
0100
0010
1000
0001
0100
0010
1000
,
0010
0100
0001
1000
0010
0100
0001
1000
0010
1000
0001
0100
0001
1000
0100
0010
,
0100
1000
0001
1000
0001
0010
0100
0010
0001
1000
0001
0100
0010
1000
0001
1000
,
0010
0100
0010
1000
0100
1000
0001
0010
0001
0010
0100
1000
0001
0100
0010
1000
,
0001
0010
0100
0010
0100
1000
0100
0010
0100
0010
0001
1000
0001
1000
0100
0010
,
0001
1000
0100
0010
0100
0010
0001
1000
0100
0010
0001
0100
0010
0100
0001
1000
,
0010
0100
0001
1000
0010
0100
0001
0100
0010
1000
0100
0010
0001
0010
0100
1000
,
0001
0100
0010
1000
0001
0100
0001
0010
0001
1000
0100
1000
0001
1000
0100
1000
,
0001
1000
0100
1000
0001
0010
0001
1000
0001
0010
0001
1000
0001
0010
0100
0010
,
0100
1000
0100
0010
0100
0010
0001
0010
0100
1000
0100
0010
0001
1000
0001
1000
,
0001
0100
0010
0100
0010
1000
0001
0100
0010
0100
0001
0010
0100
1000
0001
1000
,
0001
0010
0100
0010
0001
1000
0100
0010
0100
1000
0001
0100
0001
1000
0100
1000
,
0001
0100
0001
1000
0100
1000
0001
0010
0001
1000
0100
1000
0010
1000
0100
1000
,
0001
0010
0100
0010
0001
1000
0100
0010
0100
1000
0001
0010
0100
0010
0001
0010
,
0100
0010
0100
1000
0100
0010
0001
0010
0100
1000
0010
0100
0001
0010
0100
1000
,
0010
0100
0001
0100
0010
1000
0100
0010
0001
0010
0000
0000
0000
0000
0000
0000
;
