#TITLE:天空カフェテリア;
#SUBTITLE:;
#ARTIST:Petit Rabbit's;
#TITLETRANSLIT:Tenkuu Cafeteria;
#SUBTITLETRANSLIT:;
#ARTISTTRANSLIT:;
#GENRE:;
#CREDIT:;
#MUSIC:Tenkuu Cafeteria.ogg;
#BANNER:;
#BACKGROUND:;
#CDTITLE:;
#SAMPLESTART:50.892;
#SAMPLELENGTH:20.262;
#SELECTABLE:YES;
#OFFSET:-0.177;
#BPMS:0.000=153.989;
#STOPS:;
#BGCHANGES:;
#FGCHANGES:;

//--------------- dance-single - Pax_Vesania ----------------
#NOTES:
     dance-single:
     Pax_Vesania:
     Beginner:
     4:
     0,0,0,0,0:
0000
0000
0000
0000
,
0000
0000
0000
0000
,
0000
0000
0000
0000
,
0000
0000
0000
0000
,
0000
0000
0000
0000
,
0000
0000
0000
1000
,
0000
1000
0000
0001
0000
0001
0000
0000
,
0000
0100
0000
0010
,
0000
0010
0000
0000
0000
1001
0000
0000
,
0000
0000
0000
0010
,
0000
0100
0000
0001
,
0000
1000
1000
0100
,
0000
0000
0010
0000
0000
0001
0000
0001
,
0000
0001
0000
0100
,
0000
0010
0000
1000
,
0000
0010
0000
0100
,
0100
0000
0020
0000
0030
1000
0000
1000
,
0000
1001
0000
0010
,
0010
0000
0010
0000
0000
0100
0000
0000
,
0000
0001
0000
0010
,
0000
0001
0000
1000
,
0000
0100
0100
1000
,
1000
0000
1000
0000
0000
0010
0000
0000
,
0000
0100
0000
0001
,
0000
0000
1000
0000
0000
0010
0000
0010
,
0000
0100
0000
0001
,
0000
0100
0000
1000
,
0000
0010
0000
0001
,
0000
0000
0100
0000
0000
0100
0000
0000
,
0000
0010
0000
1000
,
0000
0010
0000
0001
,
0000
0010
0000
0100
,
0100
0000
0010
0000
0000
1000
0000
0000
,
1000
0000
0001
0000
0000
0002
0000
0000
,
0000
0000
0000
0000
,
0000
0000
0003
0010
,
0010
0000
0001
0000
0000
1000
0000
2000
,
0000
3000
0000
0000
1000
0000
0000
0000
0000
0000
0100
0000
0000
0000
0000
0000
,
0001
0000
0010
1000
,
0000
0200
0000
0300
0000
1000
0000
0000
,
0010
0000
0100
0001
,
0000
0002
0000
0003
0000
0000
0010
0000
,
0100
0000
0000
1000
0000
1000
0000
1000
,
0000
0000
0001
0000
0200
0000
0000
0300
,
0000
0001
0000
0000
0010
0000
0110
0000
,
0000
0110
0000
0000
0000
0000
0000
0000
,
0001
0000
1000
0000
,
0010
0000
0100
0000
,
0001
0000
0100
0000
,
1000
0000
0100
0001
,
0000
0001
0000
1000
0000
1000
0000
0000
,
0000
0100
0000
0010
,
0000
0001
0000
0000
0000
1001
0000
0000
,
0000
0000
0000
1000
,
0000
0010
0000
0001
,
0000
0010
0010
0010
,
0000
0000
1000
0000
0000
1000
0000
0100
,
0000
0100
0000
0010
,
0001
0001
0000
1000
,
0100
0100
0010
0001
,
0000
0000
0100
0000
0000
1000
0000
0010
,
0000
0001
0001
0000
0000
0000
0000
0000
;

//--------------- dance-single - Pax_Vesania ----------------
#NOTES:
     dance-single:
     Pax_Vesania:
     Easy:
     7:
     0,0,0,0,0:
0000
0000
0000
0000
,
0000
0000
0000
0000
,
0000
0000
0000
0000
,
0000
0000
0000
0000
,
0000
0000
0000
0000
,
0000
0000
0000
0001
,
1000
0100
0000
0010
0000
0100
0000
0000
,
0000
0000
0000
0000
1000
0000
0000
0010
0000
0000
0100
0000
0002
0000
0000
0000
,
0003
2000
0000
3000
0000
1001
0000
0000
,
0000
0000
0000
1000
,
0010
1000
0001
0100
,
0001
0010
0010
0100
,
1000
0001
0100
0010
,
1000
1000
0000
0001
,
0100
1000
0010
0001
,
0010
0100
0100
1001
,
0110
0000
1001
0000
0000
0110
0000
1001
,
0000
1000
0001
0000
0000
0000
1000
0000
,
0010
0000
0001
0000
0000
0010
0000
1000
,
0100
1000
0010
0100
,
0000
0000
0000
0000
,
0000
0000
0000
0010
,
1000
0000
0100
0000
0000
0010
0000
0010
,
0001
0010
0100
1000
,
0000
0000
0000
0000
0000
1001
0000
1001
,
0000
0001
1000
0000
0000
0000
1000
0000
,
0100
0001
0010
1000
,
0100
0000
0010
0001
0000
1000
0000
0100
,
1000
0000
0010
0100
0000
0000
0000
0000
,
0000
0000
0000
1000
,
0010
0001
1000
0100
,
0001
0010
0100
1000
,
0010
0001
1000
0001
,
0100
0010
0001
1000
,
0001
0100
0010
1000
,
0010
0100
0001
1001
,
0110
0000
1001
0000
0100
0010
0000
0001
,
1000
0000
1000
0001
0000
1000
0000
0000
,
1000
0100
0001
0010
,
1000
0100
0100
1000
,
0100
0001
0100
1000
,
1000
0001
0001
0010
,
1000
0001
0100
1000
,
0001
0100
0100
0001
,
0000
1000
0000
1010
,
0000
0101
0000
0000
0000
0010
0000
1000
,
0100
1000
0001
0010
,
0100
0001
1000
0100
,
0010
1000
0001
0100
,
0100
0010
0010
0110
,
0000
1001
0000
0110
0000
1001
0000
0000
,
0000
0000
0000
0000
0001
0000
0000
0100
0000
0000
1000
0000
0010
0000
0000
0000
,
0000
0001
0000
0000
0100
0010
0000
0000
,
0000
0000
0000
1000
,
0100
0001
0010
1000
,
1000
0100
0100
0010
,
0001
0000
1000
0000
0100
0000
0000
0010
,
0000
0001
0100
0000
0100
0000
0001
0000
,
0100
1000
0010
0001
,
0100
1000
0010
0001
,
0010
0000
0001
1000
0001
1000
0000
0010
,
0000
0100
0001
0000
0000
0000
0000
0000
;

//--------------- dance-single - Pax_Vesania ----------------
#NOTES:
     dance-single:
     Pax_Vesania:
     Medium:
     11:
     0,0,0,0,0:
0000
0000
0000
0000
,
0000
0000
0000
0000
,
0000
0000
0000
0000
,
0000
0000
0000
0000
,
0000
0000
0000
0000
,
0000
0000
0000
1001
,
1000
0001
0000
0010
0000
0110
0000
0000
,
0000
0000
0000
0000
0010
0000
0000
0001
0000
0000
0100
0000
0020
0000
0000
0000
,
0030
2000
0000
3000
0010
1010
0000
1001
,
1000
0001
0100
0000
0000
0000
1000
0001
,
0100
0001
1000
0001
1000
0001
0100
0000
,
0100
0000
0101
0000
0011
0000
0001
0010
,
0100
1000
0100
0010
0001
0010
0000
0001
,
0000
1000
0100
0000
0000
0000
0010
0001
,
1000
0001
0010
0100
0010
0001
1000
0010
,
1000
0100
0010
0100
1000
0000
1001
0000
,
0110
0000
1000
0100
0010
0001
0000
0101
,
0000
1000
1010
0000
0000
1000
1000
0001
,
0010
0001
1000
0100
0000
0001
0000
0100
,
1000
0010
0100
0001
0010
0000
0001
0000
,
1000
0100
0001
0100
,
1000
0000
0010
0000
1000
0001
0001
0010
,
0001
0100
0010
1000
0000
0100
0000
1000
,
0001
0010
0100
0010
0001
0000
1000
0000
,
0100
0000
0100
0000
0001
0010
0000
0001
,
0000
1000
0100
0000
0000
0000
0010
0000
,
0001
0100
0001
0100
,
0010
0000
1000
0100
0000
1000
0000
0010
,
0100
0001
0010
0100
0000
0100
0000
0010
,
0000
0100
1000
0001
0100
0010
1000
0000
,
0010
0000
0001
0000
0010
1000
0100
0000
,
0001
0000
0100
0010
0001
0010
0001
1000
,
1000
0001
1000
0010
0000
0100
0000
0001
,
0001
1000
0100
0010
0001
0002
0010
0000
,
0010
1000
0010
1000
,
0010
0000
0010
0000
0013
0000
0001
1000
,
0001
1000
0010
0100
0010
0100
0000
0001
,
0001
0000
1000
0100
0000
0001
0000
0100
,
1000
0001
0010
0001
0100
1000
0200
0000
,
0300
0002
0000
0003
0000
0010
0000
0100
,
1000
0100
0001
0100
0010
0001
0200
0000
,
0300
0020
0000
0030
0000
0000
1000
0000
,
0100
0010
0000
0001
0000
1000
0000
1000
,
0010
0001
1000
0100
0001
0020
0000
0030
,
0000
0100
0000
1000
0100
0100
0022
0000
,
0033
0202
0000
0303
0000
0100
0000
0010
,
0001
0010
1000
0100
0010
0100
2000
0000
,
0000
3000
0002
0000
0000
0000
0003
0000
0000
0000
1000
0000
0000
0000
1000
0000
,
0100
0001
0100
1000
0001
0100
0200
0000
,
0300
0002
0000
0003
0000
0000
0101
0000
,
0100
0010
0000
1000
0000
1001
0000
0000
,
0000
0000
0000
0000
0001
0000
0000
1000
0000
0000
0100
0000
0020
0000
0000
0000
,
0030
0002
0000
0003
1000
0001
0000
1001
,
1000
0010
0100
0000
0001
0001
0100
0010
,
1000
0100
0001
0100
1000
0001
0010
0100
,
0010
0001
0010
0100
1000
0000
0010
0100
,
0001
0100
1000
0100
0001
0010
0000
0001
,
0000
0010
0100
0000
0000
0000
0010
0001
,
0010
1000
0010
0001
0100
0010
0100
0001
,
1000
0001
0100
0001
0001
0000
0001
0010
,
1000
0001
0100
1000
0001
1000
0000
1001
,
0000
0110
1001
0000
0000
0000
0000
0000
;

//--------------- dance-single - Pax_Vesania ----------------
#NOTES:
     dance-single:
     Pax_Vesania:
     Hard:
     14:
     0,0,0,0,0:
0000
0000
0000
0000
,
0000
0000
0000
0000
,
0000
0000
0000
0000
,
0000
0000
0000
0000
,
0000
0000
0000
0000
,
0000
0000
0000
0010
,
1000
0001
0000
0010
0000
0100
0000
1000
,
1000
0000
0000
0000
0010
0000
0000
0001
0000
0000
0010
0000
2000
0000
0000
0000
,
3000
0000
0002
0000
0000
0000
0003
0000
0100
0000
0110
0000
0000
0000
1000
0001
,
1000
1001
1001
0000
0000
0000
0001
0010
,
0001
0010
0100
1000
0100
1000
0010
0100
,
0010
0100
0001
0010
0110
0000
1000
0100
,
0001
0100
1000
0010
0001
0010
0000
0100
,
0000
0000
1000
0000
0100
0000
0010
1000
0002
0000
0003
0000
0001
0000
0010
0000
,
1000
0010
0001
0100
1000
0100
0001
0100
,
0010
0001
0010
0100
0001
0000
0001
0010
,
1000
0001
0100
1000
0010
0100
0000
1001
,
0000
0000
0110
0000
1001
0000
0000
0000
0000
0000
1000
0100
0010
0000
0001
0000
,
0010
0001
0100
0010
0000
1000
0000
0100
,
0001
0100
0010
0100
1000
0000
0010
0100
,
0001
1000
0010
0001
1000
0100
0001
0010
,
1000
0000
0010
0000
0001
0000
0010
0000
0001
0000
0010
0100
1000
0000
0100
0000
,
1000
0001
0010
0001
0000
0100
0000
0001
,
1000
0100
0010
0001
0100
0000
0010
0001
,
0010
0100
0001
0100
1000
1100
0000
0101
,
0000
0011
0101
0000
0000
0000
0010
0010
,
0100
0001
1000
0000
0100
0010
0100
1000
,
0001
0000
0100
0010
0000
1000
0000
0100
,
0010
0100
0001
0100
0000
0010
0000
0001
,
0000
0100
0010
0001
0010
0100
0101
0000
,
0011
0000
1001
0000
1000
0100
0010
1000
,
0010
0000
0000
0000
0001
0000
0010
0000
0010
0000
0001
0000
0100
0000
0010
0100
,
0001
1000
0010
0100
0000
0100
0000
0010
,
1000
0001
0010
0100
0001
0100
1000
0010
,
1000
0010
0100
0001
0100
1000
0100
0001
,
0010
0001
0010
0100
1000
0000
1000
0100
,
0100
0001
0010
0010
1000
0001
0000
1100
,
1100
0000
1000
0001
0000
1001
0000
1000
,
0100
0001
0010
1000
0100
1000
0220
0000
,
0330
0011
0000
0001
0001
0010
0000
0100
,
1000
0001
0010
0100
1000
0001
0202
0000
,
0303
1010
0000
0100
0100
0000
0001
0000
,
0001
0010
0000
0001
0000
1000
0000
0010
,
0100
1000
0100
0001
0010
0002
0000
0003
,
0000
0000
0100
0000
0000
0000
0001
0000
1000
0100
0010
0000
0022
0000
0000
0000
,
0033
2002
0000
3003
0000
0010
0000
0100
,
0100
0010
1000
1000
1000
1000
0002
0000
,
0000
0003
0020
0000
0000
0000
0130
0000
1000
0000
0001
0000
0000
0000
0001
0000
,
0100
1000
0100
0010
1000
0100
0002
0000
,
0003
0200
0000
0310
0001
0000
1001
0000
,
1000
1100
0000
0010
0000
0011
0000
0001
,
0010
0000
0100
0000
1100
0000
0000
1010
0000
0000
0110
0000
0202
0000
0000
0000
,
0303
0000
0022
0000
0000
0000
0033
0000
0101
0000
1100
0000
0000
0000
0100
0001
,
0100
0000
0101
0000
0101
0000
0000
0000
1000
0100
0010
0001
0010
0000
0001
0000
,
1000
0100
0010
0100
1000
0001
1000
0010
,
1000
0010
0100
0001
0011
0000
0010
0100
,
1000
0001
0010
1000
0001
0100
0000
1100
,
0000
0000
1000
0000
0010
0000
0001
0010
0100
0000
0000
0000
0010
0000
1000
0000
,
0010
0100
1000
0100
0001
0010
0100
0001
,
0100
1000
0010
0001
0010
0000
0110
0100
,
0101
0100
1100
0101
0011
1001
0000
0110
,
0000
1001
0110
0000
0000
0000
0000
0000
;

//--------------- dance-single - Pax_Vesania ----------------
#NOTES:
     dance-single:
     Pax_Vesania:
     Challenge:
     15:
     0,0,0,0,0:
0000
0000
0000
0000
,
0000
0000
1000
0001
0000
1000
0000
1000
,
0100
0001
0010
1000
0100
1000
0002
0000
,
0003
0020
0000
0030
0000
0001
0000
0001
,
0100
1000
0100
0010
0001
0010
2000
0000
,
3000
0000
0020
0000
0000
0000
0030
0000
0000
0000
0000
0000
1001
0000
0000
0001
,
0010
0110
0000
0100
1000
1100
0000
0010
,
1000
0000
0001
0010
0100
0010
0100
1000
0001
0100
0010
1000
0001
0000
0100
0000
,
0001
0000
0101
0000
0000
0000
0100
0000
0110
0000
1001
0000
0000
0000
0001
0100
,
0010
0000
1010
0000
1100
0000
0000
0000
1000
0100
0010
0001
0010
0000
0001
0000
,
0010
0001
1000
0100
1000
0100
0001
0100
,
1000
0100
0010
0100
0001
0000
0100
1000
,
0001
0010
0100
1000
0001
0100
0000
0010
,
0000
0000
0100
0000
0001
0000
1000
0100
0002
0000
0003
0000
0100
0000
1000
0000
,
0010
0100
0001
1000
0010
0001
1000
0100
,
0010
1000
0001
0010
0100
0000
0110
0000
,
1100
0000
1010
0110
0101
0011
0000
0101
,
0000
0000
1100
0000
0101
0000
0000
0000
0000
0000
0001
0100
0010
0000
1000
0010
,
1000
0010
1000
0000
0100
0000
1000
0001
1000
0001
1000
0000
0010
0000
0100
0010
,
0100
0010
0100
0000
0001
0000
0100
0001
0100
0001
0100
0000
0001
0000
0010
0000
,
1000
0010
0100
1000
0010
0010
0100
0100
,
0100
0000
0100
0000
0100
0000
0001
0000
0001
0000
0100
1000
0100
0000
0001
0100
,
0001
1000
0001
0000
1000
0000
0010
1000
0001
1000
0010
0000
0100
0000
0001
0010
,
0100
1000
0010
0000
0100
0000
0010
1000
0100
0010
0001
0000
1000
0000
0001
0000
,
1000
0001
0100
0010
1000
1001
0000
0110
,
0000
0000
0011
0000
0110
0000
0000
0000
1000
0100
0010
0001
1000
0000
0100
1000
,
0001
0000
0100
0000
0010
0000
0100
0001
0010
0000
0100
0000
1000
0000
0001
0100
,
0010
0000
0100
0001
0000
1000
0000
0100
,
0100
0001
0010
0100
0000
0010
0000
0001
,
0000
0100
0010
1000
0100
1000
0220
0330
,
0202
0303
0022
0033
1100
1010
0220
0330
,
0202
0000
0303
0000
0011
0000
0001
0000
0010
0000
1000
0000
0010
0000
0001
0100
,
1000
0100
0010
0100
0000
0001
0000
0101
,
1001
0000
1010
0000
1000
0100
0010
0001
0100
0000
0001
0000
1000
0000
0010
0000
,
0001
0010
1000
0001
0010
1000
0001
0100
,
1000
0001
0010
0100
1000
0000
1001
1000
,
1010
0010
0110
0101
0011
1001
0000
0101
,
1010
0000
0000
0000
1010
0000
0101
0000
0000
0000
0100
0000
0000
0000
0100
0010
,
0100
0001
0100
0000
0001
0000
1000
0100
1000
0100
0010
0000
0100
0000
1000
0001
,
1000
0100
1000
0000
0001
0000
0100
0010
1000
0100
0010
0000
0100
0000
1000
0010
,
0100
0001
0010
0000
0001
0000
0010
0100
1000
0001
0010
0000
0100
0000
1000
0010
,
0001
0010
1000
0000
0001
0000
0100
1000
0100
0001
0100
0000
0202
0000
0303
0000
,
1100
0101
0000
0101
0000
0011
0000
1001
,
1100
1010
0110
1010
1001
0202
0000
0303
,
0000
0000
1000
0000
0000
0000
0100
0000
1000
0100
0010
0001
1000
0000
1001
0000
,
1001
0000
0001
0000
0000
0000
0001
1000
0100
0000
0010
0000
0000
0000
0100
1000
,
0010
0100
0001
0000
0010
0000
0100
1000
0100
0001
0100
0000
1000
0000
0010
1000
,
0010
0001
0010
0000
0100
0000
0001
0100
0001
1000
0100
0000
0010
0000
0100
1000
,
0001
0100
0010
0000
0100
0000
0010
0001
1000
0100
0010
0000
1000
0000
0010
0000
,
0100
0000
0001
0000
1000
0000
0010
0000
1000
0001
1000
0001
1000
0000
0000
0001
,
0100
0101
0000
0010
1000
1010
0000
0100
,
0010
0000
0100
0001
0100
0010
1000
0001
0010
0100
1000
0010
0100
0000
0001
0000
,
1000
0000
1100
0000
0000
0000
1000
0000
0110
0000
0101
0000
0000
0000
0001
0100
,
1000
0000
1100
0000
0101
0000
0000
0000
1000
0010
0100
0001
0010
0000
0001
0000
,
1000
1010
0010
0110
0100
0101
0001
1001
,
1000
0000
1001
0000
0001
0000
0100
0000
0010
0000
0000
0000
0010
0000
1000
0001
,
0100
0010
0100
0000
0001
0000
0010
0100
0001
0100
1000
0000
0010
0000
0100
0010
,
0001
0010
1000
0000
0001
0000
1000
0010
1000
0100
0010
0001
0010
0000
0011
0000
,
0101
0110
0101
1010
1100
1001
0101
0110
,
1100
0110
0011
0110
0101
0000
0101
1010
,
0101
1100
0101
0011
1010
0011
0000
1001
,
0000
0110
1001
0000
0000
0000
0000
0000
;
