#TITLE:瀧夜叉姫;
#SUBTITLE:;
#ARTIST:Unlucky Morpheus;
#TITLETRANSLIT:Takiyashahime;
#SUBTITLETRANSLIT:;
#ARTISTTRANSLIT:;
#GENRE:;
#CREDIT:;
#MUSIC:Takiyashahime.ogg;
#BANNER:;
#BACKGROUND:;
#CDTITLE:;
#SAMPLESTART:64.666;
#SAMPLELENGTH:18.333;
#SELECTABLE:YES;
#OFFSET:-0.333;
#BPMS:0.000=180.000;
#STOPS:;
#BGCHANGES:;
#FGCHANGES:;

//--------------- dance-single - Pax_Vesania ----------------
#NOTES:
     dance-single:
     Pax_Vesania:
     Beginner:
     5:
     0,0,0,0,0:
0000
0000
0000
0000
,
0000
0000
0000
0000
,
0000
0000
0000
0000
,
0000
0000
0000
0000
,
0000
0000
0000
0000
,
0000
0000
0000
0000
,
0000
0000
0000
0000
,
0000
0000
0000
0000
,
0001
0000
0000
0000
0000
0001
0000
0000
,
0000
0000
0000
0000
,
1000
0000
0000
0000
0000
1000
0000
0000
,
0000
0000
0000
0000
,
0010
0000
0000
0000
0000
0010
0000
0000
,
0010
0000
0100
0000
,
0000
0100
0000
0100
0000
0000
0000
0000
,
2002
0000
0000
0000
0000
3003
0000
0000
,
1000
0000
1000
0000
,
0010
0000
0010
0000
,
0100
0000
0100
0000
,
0001
0000
0001
0001
,
0001
0000
0010
0000
,
0100
0000
0100
0000
,
1000
0000
0001
0001
,
0000
0000
0000
0000
,
1001
0000
1000
1000
,
0000
0010
0000
0010
,
0000
0100
0000
0100
,
0100
0000
0000
0000
,
0110
0000
0010
0010
,
0000
0100
0100
0100
,
0000
0001
0000
0001
,
0001
0000
0000
0000
,
1000
0000
0010
0000
,
1000
0000
0001
0000
,
1000
0000
0100
0100
,
0000
0000
0000
0000
,
0001
0000
0100
0000
,
0001
0000
1000
0000
,
0010
0000
0100
0100
,
0100
0000
0010
0000
,
0220
0000
0000
0330
,
0000
0000
0000
0000
,
0001
0001
0001
0000
,
0200
0000
0000
0000
0000
0000
0000
0300
0020
0000
0000
0000
0000
0000
0000
0030
,
1000
1000
1000
0000
,
0002
0000
0000
0000
0000
0000
0000
0003
0200
0000
0000
0000
0000
0000
0000
0300
,
0010
0000
0010
0000
,
1000
0000
0001
0000
0001
0000
0000
1001
,
0000
0000
1000
0000
0000
0000
0000
0010
,
0000
0100
0100
0200
,
0000
0300
0001
0000
0000
0000
0000
0010
,
0000
0100
0100
2000
,
0000
3000
0000
0000
0100
0000
0000
0000
0000
0000
0000
0000
0000
0000
0020
0000
,
0000
0000
0030
0000
0002
0000
0003
0002
,
0000
0000
0000
0000
,
0000
0000
0000
0000
0000
0000
0003
1001
,
0000
1000
0000
1000
,
0000
0001
0010
0020
,
0030
0100
0000
1000
,
0000
0010
0100
0100
,
0000
0000
0001
0000
0001
0000
0000
0002
,
0000
0000
0000
0000
0000
0000
0000
0000
0000
0000
0000
0000
0000
0000
0000
0003
,
0000
0000
0000
0000
,
0000
0000
0000
0000
,
0000
0000
0000
0000
,
1000
1000
0010
0010
,
0200
0000
0000
0000
0000
0000
0000
0300
0200
0000
0000
0000
0000
0000
0000
0000
,
0302
0000
0000
0000
0000
0000
0000
0003
0020
0000
0000
0000
0000
0000
0000
0030
,
0002
0000
0000
0000
0000
0000
0000
0000
0000
0000
0000
0000
0000
0000
0000
0003
,
0100
0000
0010
0000
,
1000
0002
0000
0000
,
0000
0003
0010
0000
0010
0000
0000
0000
,
0200
0000
0000
0300
,
0100
0000
0000
2000
0000
0000
0000
0000
,
0000
3000
1000
0000
1000
0000
0010
0000
,
2000
0000
0000
0000
3000
0000
0200
0000
0000
0000
0300
0000
,
0020
0000
0000
0000
0000
0030
0002
0000
,
0000
0000
0000
0000
0000
0003
0000
0000
,
0001
0000
0010
0010
,
0100
0000
0100
1000
,
1000
0000
0010
0010
,
0100
0000
0010
0010
,
2000
0000
0000
0000
0000
3000
1000
0000
,
0000
0010
0100
0000
,
0002
0000
0000
0000
0003
0000
0002
0000
0000
0000
0000
0003
0010
0000
0000
0000
,
0020
0000
0000
0000
0000
0000
0000
0000
0000
0000
0000
0000
0000
0000
0000
0030
,
0100
0000
1000
0000
,
0001
0000
0001
0010
,
0001
0000
1000
0000
,
0002
0000
0000
0003
0020
0000
0000
0030
0200
0000
0000
0000
0000
0000
0000
0300
,
1000
0000
0010
0000
,
0100
0000
0001
0100
,
0001
0000
0010
0000
,
0100
0100
1000
0000
,
0001
0000
0100
0000
,
0001
0000
1000
0001
,
1000
0000
0100
0000
,
0020
0000
0000
0030
0200
0000
0000
0300
2000
0000
0000
0000
0000
0000
0000
3000
,
0010
0010
0000
0100
,
0001
0001
0000
1000
,
0010
0000
1000
0001
,
0001
0010
0100
1000
;

//--------------- dance-single - Pax_Vesania ----------------
#NOTES:
     dance-single:
     Pax_Vesania:
     Easy:
     8:
     0,0,0,0,0:
0000
0000
0000
0000
,
0000
0000
0000
0000
,
0000
0000
0000
0000
,
0000
0000
0000
0000
,
0000
0000
0000
0000
,
0000
0000
0000
0000
,
0000
0000
0000
0000
,
0000
0000
0000
0000
,
0100
0000
0100
0000
0000
1000
0000
1000
,
0000
0000
0000
0000
,
0010
0000
0010
0000
0000
0100
0000
0100
,
0000
0000
0000
0000
,
0100
0000
0001
0000
0000
0100
0000
0000
,
0001
0001
0100
0100
,
0000
0010
0000
0000
0100
0000
0001
0000
,
0202
0000
0000
0000
0000
0303
0000
0000
,
0001
0010
0100
1000
,
1000
0010
0100
0100
,
0001
0100
0001
0001
,
1000
0010
0100
0001
,
0010
0100
1000
1000
,
0001
0100
0001
0001
,
0010
0100
1000
1000
,
0000
0000
0000
0000
,
0110
0000
0010
0000
,
1000
0001
0010
0010
,
0000
0001
0000
0000
0001
0000
1000
0000
,
0010
0000
0000
0000
,
1001
0000
0010
0100
,
0001
0010
0100
0100
,
0000
1000
0000
0000
0010
0000
0010
0000
,
1010
0000
0101
0000
,
1001
0000
0001
0001
,
0010
0100
1000
1000
,
0010
0100
0001
0001
,
0101
0000
1010
0000
,
1100
0000
1000
0001
,
1000
0010
0100
0001
,
0010
0000
0001
0000
1000
0010
1000
0000
,
0100
1000
0001
0010
,
0220
0000
0000
0000
0000
0330
0010
0000
,
0002
0000
0000
0000
0000
0000
0000
0003
0200
0000
0000
0000
0000
0000
0000
0000
,
0000
0300
0000
0000
0000
0000
0000
0000
0000
0000
0000
0000
0010
0000
0000
0000
,
2000
0000
0000
0000
0000
3000
0020
0000
0000
0000
0000
0030
0200
0000
0000
0000
,
0000
0300
0000
0001
,
0200
0000
0000
0000
0000
0000
0000
0300
0020
0000
0000
0000
0000
0000
0000
0030
,
2000
0000
0000
0000
0000
3000
0002
0000
0000
0000
0000
0003
0200
0000
0000
0000
,
0000
0000
0000
0000
0000
0000
0000
0310
,
0000
0000
0100
0000
0010
1000
0000
0100
,
0000
0001
0100
2000
,
0000
3000
0100
0000
1000
0001
0000
0020
,
0000
0000
0000
0030
0100
0000
0000
0000
1000
0000
0000
0000
0002
0000
0000
0000
,
0003
0000
0100
0000
0010
0100
0000
0002
,
0000
0000
0000
0000
0003
0000
0000
0000
2000
0000
0000
0000
0000
3000
0002
0000
,
0000
0000
0000
0000
,
0000
0000
0000
0000
0000
0000
0003
0001
,
0000
0000
1000
0000
0001
0100
0000
0002
,
0000
0003
0010
0000
0100
0000
2000
0000
,
3000
0000
0001
0000
0010
0100
0000
0100
,
0000
0010
0001
0200
,
0300
0000
0010
0000
0100
0001
0000
0020
,
0000
0000
0000
0000
0000
0000
0000
0000
0000
0000
0000
0000
0000
0000
0000
0030
,
0200
0000
0000
0000
0000
0000
0000
0300
2000
0000
0000
0000
0000
0000
0000
3000
,
0020
0000
0000
0000
0000
0000
0000
0030
0200
0000
0000
0000
0000
0000
0000
0300
,
0002
0000
0000
0000
,
0000
0000
0000
0000
0000
0000
0000
0003
,
0020
0000
0000
0000
0000
0000
0000
0030
0200
0000
0000
0000
0000
0000
0000
0300
,
2000
0000
0000
0000
0000
0000
0000
3000
0002
0000
0000
0000
0000
0000
0000
0003
,
0020
0000
0000
0000
0000
0000
0000
0000
0000
0000
0000
0000
0000
0000
0000
0030
,
0100
0000
1000
0010
1000
0000
0000
0000
,
0010
0000
0100
0002
0000
0000
0000
0000
,
0000
0003
0010
0000
0001
0000
0100
0000
,
0010
0000
2000
0000
0000
0000
0000
0000
0000
0000
0000
3000
1000
0000
0000
0000
,
0001
0000
0000
0020
0000
0000
0000
0000
,
0000
0030
0100
0000
1000
0000
0100
0000
,
1000
0000
0100
0000
1000
0000
0010
0000
0100
0000
0010
0000
,
0200
0000
0000
0000
0000
0300
0002
0000
,
0000
0000
0000
0000
0000
0003
0000
0000
,
1000
0010
0010
0100
,
0001
0001
0010
0001
,
1000
1000
0010
0100
,
0001
0010
0001
0000
0010
0000
0100
0000
,
2000
0000
0000
0000
0000
3000
1000
0000
,
0010
0100
0001
0010
,
0200
0000
0000
0000
0000
0300
2000
0000
0000
0000
0000
3000
0001
0000
0000
0000
,
0020
0000
0000
0000
0000
0000
0000
0000
0000
0000
0000
0000
0000
0000
0000
0030
,
0002
0000
0000
0000
0000
0003
2000
0000
0000
0000
0000
3000
0200
0000
0000
0000
,
0000
0300
2000
0000
0000
3000
0010
0000
,
0020
0000
0000
0000
0000
0030
0200
0000
0000
0000
0000
0000
0000
0000
0000
0300
,
0000
0000
0001
0000
0010
0000
0001
0200
,
0000
0300
0010
0000
1000
0000
0100
0010
,
0000
0100
1000
0001
,
2000
0000
0000
0000
3000
0000
0200
0000
0000
0000
0000
0300
0002
0000
0000
0000
,
0000
0000
0000
0003
,
0200
0000
0000
0000
0000
0300
2000
0000
0000
0000
0000
3000
0020
0000
0000
0000
,
0000
0000
0000
0030
0002
0000
0000
0000
0000
0000
0003
0000
0010
0000
0000
0000
,
0200
0000
0000
0000
0000
0300
0020
0000
0000
0000
0000
0000
0000
0000
0000
0030
,
0000
0000
1000
0000
0010
0000
1000
0001
,
0000
0000
0010
0000
0001
0000
0100
0010
,
0000
0000
1000
0000
0100
0000
0010
0001
,
0000
0000
0000
0000
0010
0000
0000
0000
0200
0000
0000
0000
0000
0000
0000
0300
,
2000
0000
0000
0000
0000
0000
0000
3000
0002
0000
0000
0000
0000
0000
0003
0000
;

//--------------- dance-single - Pax_Vesania ----------------
#NOTES:
     dance-single:
     Pax_Vesania:
     Medium:
     11:
     0,0,0,0,0:
0000
0000
0000
0000
,
0000
0000
0000
0000
,
0000
0000
0000
0000
,
0000
0000
0000
0000
,
0000
0000
0000
0000
,
0000
0000
0000
0000
,
0000
0000
0000
0000
,
0000
0000
0000
0000
,
1000
0001
1000
0000
0000
0100
0000
1000
,
0000
0000
0000
0000
,
0010
0100
0010
0000
0000
1000
0000
0001
,
0000
0000
0000
0000
,
1000
0010
1000
0000
0000
0010
0000
0100
,
0001
0100
0001
0000
0010
0001
0010
0000
,
0000
0001
0000
0001
0010
0100
1000
0000
,
2020
0000
0000
0000
0000
3030
0000
0000
,
0010
0100
0001
0000
1000
0100
0010
0000
,
0100
1000
0001
0000
0100
0001
0010
0000
,
0001
0010
0001
0000
0100
0010
1000
0000
,
1000
0100
0010
0100
0010
0001
0010
0001
,
0010
0100
1000
0000
0100
0010
0001
0000
,
0001
0100
0010
0000
0010
1000
0100
0000
,
1000
0010
0100
0000
0100
0001
0010
0000
,
0001
1000
0010
0100
0001
1000
0010
0100
,
0001
0011
0001
0101
,
0010
0000
1010
0000
1000
0010
1000
0010
,
0000
1000
0100
0010
0001
0010
0100
1000
,
0100
1000
0000
0000
0000
0000
0000
0000
,
1100
1010
0101
0011
,
0110
0000
1001
0000
0001
0010
0100
0000
,
0000
1000
0100
1000
0010
1000
0001
1000
,
0010
1000
0100
0010
0001
1000
0100
0010
,
0001
0010
0100
0000
0010
0100
1000
0000
,
0010
0100
0010
0000
1000
0001
1000
0000
,
0001
0100
1000
0000
0100
0001
0010
0000
,
0001
1000
0100
1000
0001
0010
0001
1000
,
0100
1000
0010
0000
1000
0010
0001
0000
,
0010
1000
0100
0000
0010
0001
0010
0000
,
0001
0100
0010
1000
0100
1000
1000
0010
,
0100
0001
1000
0100
0010
0010
0001
0001
,
0020
0000
0000
0030
0002
0000
0000
0003
0020
0000
0000
0030
0200
0000
0000
0300
,
2000
0000
0000
3000
0200
0000
0000
0300
0020
0000
0000
0030
0200
0000
0000
0300
,
2000
0000
0000
3000
0020
0000
0000
0030
0200
0000
0000
0300
0020
0000
0000
0030
,
2000
0000
0000
3000
0200
0000
0000
0300
0020
0000
0000
0030
0002
0000
0000
0003
,
0200
0000
0000
0300
2000
0000
0000
3000
0200
0000
0000
0300
0002
0000
0000
0003
,
0020
0000
0000
0030
0200
0000
0000
0300
2000
0000
0000
3000
0020
0000
0000
0030
,
0002
0000
0000
0003
0020
0000
0000
0030
2000
0000
0000
3000
0002
0000
0000
0003
,
0010
0100
1000
0100
0010
0001
0010
0100
,
0000
0000
1000
0000
0100
0010
0000
0100
,
0000
0000
1000
0000
0001
0000
0010
0001
,
0000
0000
0001
0000
0100
1000
0000
0100
,
0000
0000
0001
0000
0010
0000
0100
1000
,
0000
0000
0100
0000
0100
1000
0000
0020
,
0000
0000
0030
0000
0100
0000
0000
0002
,
0000
0000
0000
0000
,
0000
0000
0000
0003
1000
0100
0010
0001
,
0000
0000
1000
0000
0010
0100
0000
0001
,
0000
0000
0010
0000
0100
0000
1000
0001
,
0000
0000
0001
0000
0010
0001
0000
0100
,
0000
0000
0010
0000
1000
0000
0100
0001
,
0000
0000
0001
0000
0100
1000
0000
0100
,
0000
0010
0001
0000
0001
0100
0001
0100
,
0002
0000
0000
0000
0000
0000
0000
0003
0020
0000
0000
0000
0000
0000
0000
0030
,
0200
0000
0000
0000
0000
0000
0000
0300
2000
0000
0000
0000
0000
0000
0000
3000
,
0020
0000
0000
0000
0000
0000
0000
0000
0000
0000
0000
0000
0000
0000
0000
0030
,
1000
0100
1000
0010
0100
0010
0100
0001
,
0020
0000
0000
0000
0000
0000
0000
0030
0200
0000
0000
0000
0000
0000
0000
0300
,
2000
0000
0000
0000
0000
0000
0000
3000
0002
0000
0000
0000
0000
0000
0000
0003
,
0020
0000
0000
0000
0000
0000
0000
0000
0000
0000
0000
0000
0000
0000
0000
0030
,
0001
1000
0100
0010
0100
1000
0100
1000
,
0010
0000
0100
0002
0000
0000
0000
0000
,
0000
0003
0001
0000
0010
0000
0100
0000
,
1000
0000
0200
0000
0000
0000
0000
0000
0000
0000
0000
0300
1000
0000
0000
0000
,
0010
0000
0000
0200
0000
0000
0000
0000
,
0000
0300
0001
0000
1000
0000
0100
0000
,
1000
0000
0010
0000
1000
0000
0010
0000
0100
0000
0001
0000
,
0200
0000
0000
0000
0000
0000
0000
0000
0000
0300
0001
0000
0002
0000
0000
0000
,
0000
0000
0000
0000
0000
0003
0000
0000
,
1000
0010
1000
0010
1000
0000
0001
0100
,
0001
0100
0001
0000
0010
0100
1000
1000
,
0001
0010
0001
0100
0001
0000
1000
0010
,
1000
0001
1000
1000
0001
0010
0100
1000
,
0200
0000
0000
0000
0000
0300
1000
0000
,
0100
0001
0100
1000
,
0020
0000
0000
0000
0000
0030
0002
0000
0000
0000
0000
0003
0010
0000
0000
0000
,
2000
0000
0000
0000
0000
0000
0000
0000
0000
0000
0000
0000
0000
0000
0000
3000
,
0020
0000
0000
0000
0000
0030
0200
0000
0000
0000
0000
0300
0020
0000
0000
0000
,
0000
0030
2000
0000
0000
3000
0001
0000
,
0020
0000
0000
0000
0000
0030
0002
0000
0000
0000
0000
0000
0000
0000
0000
0003
,
0000
0000
1000
0000
0001
0000
0010
0200
,
0000
0300
0010
0000
0001
0000
1000
0100
,
0000
1000
0100
1000
,
0020
0000
0000
0000
0030
0000
0200
0000
0000
0000
0000
0300
0002
0000
0000
0000
,
0000
0000
0000
0003
,
0100
0000
0000
0001
1000
0000
0000
0000
,
1000
1000
0000
0010
0100
0001
0010
0100
,
1000
0000
0000
1000
0100
0000
0000
1000
,
0010
1000
0001
1000
0100
0100
1000
1000
,
0001
0000
0010
0000
0100
0100
1000
0000
,
0010
0000
1000
0000
0001
0001
0100
0000
,
0001
0010
0100
1000
0100
0010
0001
0100
,
0010
1000
0100
0010
0001
0000
0000
0000
;

//--------------- dance-single - Pax_Vesania ----------------
#NOTES:
     dance-single:
     Pax_Vesania:
     Hard:
     14:
     0,0,0,0,0:
0000
0000
0000
0000
,
0000
0000
0000
0000
,
0000
0000
0000
0000
,
0000
0000
0000
0000
,
0000
0000
0000
0000
,
0000
0000
0000
0000
,
0000
0000
0000
0000
,
0000
0000
0000
0000
,
1000
1000
0100
0000
0000
1000
0000
1000
,
0000
0000
0101
0000
,
0001
0001
0010
0000
0000
0001
0000
0001
,
0000
0000
0110
0000
,
0100
0100
0010
0000
0000
0100
0000
0100
,
0010
1000
0001
0000
1000
0100
0010
0000
,
0000
0010
0000
0100
1000
0001
0010
0000
,
2002
0000
0000
0000
0000
3003
0000
0000
,
1000
0010
0100
0010
1000
0100
0010
0100
,
1000
0001
0010
0001
0100
0001
0010
0100
,
1000
0100
1000
0010
0100
0001
0010
0000
,
0001
1000
0100
1000
0010
1000
0001
0010
,
0001
0100
0010
1000
0100
0010
0001
0010
,
0100
0010
0001
1000
0010
0100
0010
1000
,
0100
0010
0100
1000
0100
0010
0001
0000
,
1000
0010
0100
0001
1000
0010
0100
0001
,
0100
1000
0100
0001
0010
0100
1000
0010
,
0100
0001
0100
0010
1000
0001
0100
0100
,
0000
0010
1000
0010
0001
0010
1000
0100
,
0001
0100
0000
0000
0000
0000
0000
0000
,
1100
0100
1000
0001
0010
0001
1000
0100
,
1000
0010
0100
0001
0010
0001
0001
0000
,
0000
0010
0100
1000
0100
0001
0100
1000
,
0010
0010
0000
0000
0000
0000
0000
0000
,
0001
0000
0010
0000
0001
0000
1000
0000
0100
0000
1000
0100
1000
0000
0010
0000
,
0100
0000
0001
0000
0010
0000
0001
0000
0100
0000
0010
0100
0010
0000
1000
0000
,
0100
0000
0010
0000
0001
0000
0010
0000
0100
0000
1000
0010
1000
0000
0001
0000
,
1000
0010
0001
0010
1000
0100
0001
0100
,
1000
0000
0001
0000
0010
0000
0100
0000
1000
0000
0100
0010
0001
0000
0100
0000
,
0001
0000
0010
0000
0001
0000
0100
0000
0010
0000
1000
0100
0010
0000
0100
0000
,
0010
0000
0001
0000
1000
0000
0100
0000
1000
0000
0001
0010
0100
0000
0010
0000
,
0100
1000
0010
0100
0001
0010
0001
0001
,
0202
0000
0000
0000
0000
0303
0100
0000
,
0002
0000
0000
0000
0000
0000
0000
0003
0020
0000
0000
0000
0000
0000
0000
0000
,
0000
0030
0000
0000
0100
0000
1000
0000
0010
0000
0000
0000
0010
0000
0100
0000
,
0001
0000
0001
1000
0100
0010
0100
1000
,
0001
0000
1000
0010
0001
0000
0010
0100
,
1000
0000
0100
0001
0010
0000
0001
0010
,
0100
0000
1000
0010
1010
0010
1000
0001
,
0010
0000
0010
0000
0100
0000
0100
0000
1000
0000
0010
1000
0010
1000
0010
0000
,
0000
0000
1000
0000
0010
0010
0000
0110
,
0000
0000
0010
0000
0100
0000
0001
0011
,
0000
0000
0010
0000
0100
1000
0000
1100
,
0000
0000
0010
0000
0100
0000
0001
1001
,
0000
0000
1000
0000
0100
0001
0100
1000
,
0000
1000
0001
1000
0010
1000
0100
1000
,
0010
0001
0010
0100
1000
0100
0010
0001
,
0010
0100
0010
1000
0100
0010
0001
0011
,
0000
0001
1000
0000
0100
1000
0001
0010
,
0000
0100
1000
0000
0010
0100
0010
0110
,
0000
0100
0001
0000
0010
0100
1000
1010
,
0000
0100
1000
1000
0010
0100
0001
0101
,
0000
0000
1000
0000
0100
1000
0000
0001
,
0000
0000
0001
0000
0010
0000
0000
0001
0010
0000
0100
0000
1000
0000
1000
0000
,
0020
0000
0000
0000
0000
0000
0000
0030
0200
0000
0000
0000
0000
0000
0000
0300
,
0002
0000
0000
0000
0000
0000
0000
0003
0020
0000
0000
0000
0000
0000
0000
0030
,
0200
0000
0000
0000
0000
0000
0000
0000
0000
0000
0000
0000
0000
0000
0000
0300
,
1000
0010
0100
0001
0100
1000
0100
0001
,
0010
0000
0100
0000
1000
0000
0010
0000
0100
0000
0001
1000
0100
0000
0001
0000
,
0100
0000
1000
0000
0001
0000
0100
0000
0001
0000
0100
1000
0100
0000
0001
0000
,
0100
0000
0010
0000
1000
0000
0100
0000
0010
0000
0001
0100
0010
0000
1000
0000
,
0100
1000
0001
0010
0001
1000
0100
0010
,
0010
0000
0001
0002
0000
0000
0000
0000
,
0000
0003
0001
0000
0100
0000
0010
0000
,
1000
0000
0200
0000
0000
0000
0000
0000
0000
0000
0000
0300
1000
0000
0000
0000
,
0001
0000
0000
0020
0000
0000
0000
0000
,
0000
0030
0100
0000
1000
0000
0010
0000
,
1000
0000
0100
0000
0010
0000
0100
0000
0010
0000
0001
0000
,
0020
0000
0000
0000
0000
0000
0000
0000
0000
0030
0001
0000
0002
0000
0000
0000
,
0000
0000
0000
0000
0000
0003
0000
0000
,
0001
0010
0001
1000
0100
1000
0010
0100
,
0010
1000
0010
0001
1000
0100
0001
0010
,
1000
0010
0001
0010
0100
1000
0100
0001
,
0100
1000
0010
0001
0010
0100
0001
0010
,
0200
0000
0000
0000
0000
0300
1000
0100
,
0010
0000
0001
0010
0100
0000
0010
0001
,
1000
0010
1000
0010
0010
0100
0100
0001
,
0001
0000
0010
0000
0010
0000
0100
0000
0100
0000
1000
0000
0001
1000
0001
1000
,
0002
0000
0000
0000
0000
0003
0200
0000
0000
0000
0000
0300
0020
0000
0000
0000
,
0000
0000
0000
0030
2000
0000
0000
0000
0000
0000
0000
3000
0010
0000
0000
0000
,
0020
0000
0000
0000
0000
0030
0200
0000
0000
0000
0000
0000
0000
0000
0000
0000
,
0302
0000
0000
0003
0020
0000
0000
0030
0200
0000
0000
0000
0000
0000
0000
0300
,
1000
0000
0000
0000
0000
0000
0010
1000
0010
0000
0000
0000
0100
0000
0000
0000
,
0010
0000
0010
0000
0000
0000
1000
0001
1000
0000
0010
0000
0010
0000
0100
0000
,
0100
0000
0000
0000
0000
0000
0001
0010
0100
0000
0000
0000
0100
0000
1000
0000
,
0001
0000
1000
0000
0001
0000
0010
0100
1000
0000
0001
0000
0010
0000
0100
0000
,
1000
0000
0000
0000
0000
0000
1000
0010
0100
0000
0000
0000
0010
0000
0000
0000
,
0100
0000
0100
0000
0000
0000
0001
0100
0010
0000
1000
0000
0010
0000
1000
0000
,
0001
0000
0000
0000
0000
0000
0010
0001
0100
0000
0000
0000
0001
0000
0000
0000
,
0002
0000
0000
0003
0200
0000
0000
0300
0020
0000
0000
0030
2000
0000
0000
3000
,
0100
0000
1000
0000
0100
1000
0100
0000
,
0010
0000
0001
0000
0100
0001
0100
0000
,
0001
0100
1000
1000
0100
0001
0001
0010
,
0100
1000
0001
0010
1000
0001
0100
1000
;

//--------------- dance-single - Pax_Vesania ----------------
#NOTES:
     dance-single:
     Pax_Vesania:
     Challenge:
     18:
     0,0,0,0,0:
0000
0000
0000
0000
,
0000
0000
0000
0000
,
1000
0010
0100
0001
,
0010
0001
0010
0100
,
1100
0000
1000
0100
1000
0000
0001
0000
,
0010
0100
0010
0001
1000
0000
0001
0000
,
0100
0000
0010
0100
0001
0000
0010
0000
,
0100
1000
0100
0001
0100
0000
0010
0000
,
0100
1000
1000
0000
0001
0010
0001
0010
,
0100
0010
0011
1000
,
0010
0010
0100
0000
0001
1000
0001
0010
,
0100
1000
0010
0100
,
0010
0001
0010
0000
0100
1000
0100
0010
,
0100
0001
0010
0000
0100
0100
0100
0000
,
1000
0010
1000
0010
0100
0001
0001
0000
,
2002
0000
0000
0000
0000
0000
0000
3003
0001
0010
0100
1000
0200
0000
0000
0300
,
1000
0010
1000
0010
1000
0100
1000
0100
1000
0001
1000
0001
1000
0010
1000
0010
,
1000
0100
0010
0001
0010
0001
0010
0100
1000
0001
1000
0001
0100
0010
0100
0010
,
0100
0001
0100
0001
0100
0010
1000
0100
0010
0001
0010
0100
1000
0001
0010
0100
,
1000
0010
0100
0001
1000
0100
0010
0010
,
0001
1000
0100
0010
0001
1000
0100
0010
0001
1000
0001
0010
0100
1000
0001
0010
,
0100
1000
0001
0100
0010
1000
0100
0010
0100
1000
0001
0010
0100
0010
0001
0010
,
0100
0010
0100
1000
0010
1000
0001
0100
0001
1000
0100
1000
0010
0100
0001
0010
,
0100
1000
0010
0100
0001
0010
0001
0001
,
1000
0000
0010
0000
0100
0000
0001
0000
1000
0000
0100
0010
0001
0000
0010
0000
,
0001
0000
0100
0000
0010
0000
1000
0000
0100
0000
0010
0100
1000
0000
0100
0000
,
0010
0000
0001
0000
0010
0000
1000
0000
0010
0000
0001
0100
1000
0000
0100
0000
,
0010
0001
0010
1000
0100
0001
0100
1000
,
0001
0000
0100
0000
1000
0000
0100
0000
0010
0000
1000
0100
1000
0000
1000
0000
,
0010
0000
0100
0000
0010
0000
1000
0000
0100
0000
0001
0100
0001
0000
0100
0000
,
0010
0000
0001
0000
1000
0000
0010
0000
0001
0000
0010
0100
0010
0100
0001
1000
,
0001
0000
1000
0000
0010
0000
0001
0000
1000
0000
0100
0000
0001
0010
0100
1000
,
0001
0000
0100
0000
0010
1000
0010
0000
1000
0000
0010
0000
0100
0001
0100
0000
,
0001
0000
0010
0000
0100
1000
0100
0000
0010
0000
0001
1000
0010
1000
0001
0000
,
1000
0000
0010
0000
0100
0010
1000
0000
0001
0000
0100
0000
1000
0000
0100
0000
,
0001
0000
0010
0000
0010
0001
0100
0000
0001
0100
0001
1000
0100
0010
0001
0000
,
0010
0000
0100
0000
0100
1000
0001
0000
0100
0000
0010
0000
0010
0100
0001
0000
,
1000
0000
0100
0000
0001
0100
0001
0000
0100
0000
1000
0010
0100
0001
0010
0000
,
0100
0100
1000
0100
0010
0001
0100
0001
,
1000
0100
0010
0001
1000
0001
1000
0100
0010
0001
0100
0010
0100
0000
0001
0000
,
2002
0000
0000
0000
0000
3003
1000
0000
,
0002
0000
0000
0000
0000
0000
0000
0003
0020
0000
0000
0000
0000
0000
0000
0000
,
0230
0000
0000
0300
2000
0000
0000
3000
0002
0000
0000
0003
0200
0000
0000
0300
,
2000
0000
0000
3000
0200
0000
0000
0300
0020
0000
0000
0030
0200
0000
0000
0300
,
0110
0000
1000
1000
0001
0000
0010
0010
,
0100
0000
1000
0001
0001
0000
0100
0010
,
0010
0000
1000
1000
1100
1000
1010
1000
,
0001
0100
0010
1000
0001
0010
0100
1000
0010
0100
0001
0010
0100
1000
0001
0000
,
0000
1000
1100
0000
0100
0010
0001
0101
,
0000
0001
0011
0000
0001
1000
0100
0110
,
0000
0100
0001
0000
0100
1000
0001
0101
,
0000
0010
1010
0000
1000
1010
1000
1001
,
0000
0001
0101
0000
1000
0100
0001
0101
,
0000
0100
1000
0010
0100
0001
0010
0100
,
1000
0100
0010
0100
1000
0010
0100
0001
1000
0001
0010
0100
0010
0001
0010
0100
,
0010
0100
1000
0100
0010
0001
0100
0010
1000
0100
0010
0001
0100
0010
0100
0000
,
0000
0001
1000
0000
1000
0010
0001
0011
,
0000
0010
0100
1000
0100
0001
0010
0110
,
0000
0100
1000
0100
0001
0100
0010
0011
,
0000
0001
0101
0100
0110
0010
1010
1000
,
0000
0000
1000
0000
0100
0010
0000
0001
,
0000
0000
0010
0000
0100
0000
0000
0100
1000
0000
0010
0000
0010
0000
0100
0000
,
0001
0010
0100
0000
1000
0000
1000
0100
0010
0000
0100
0010
0001
0000
0010
0000
,
0001
0100
0010
0000
1000
0000
0001
0100
1000
0000
1000
0100
0001
0000
0100
0000
,
0001
0010
0100
0000
0001
0000
0100
1000
0010
0000
0001
0010
1000
0000
0001
0000
,
1000
0010
0100
0010
1010
0110
0101
0011
,
0001
1000
0001
0000
0100
0000
0010
1000
0100
0000
0010
0001
0100
0000
0001
0000
,
1000
0100
0010
0000
0100
0000
1000
0100
0001
0000
0001
0100
1000
0000
0010
0000
,
0010
0001
0010
0000
0100
0000
1000
0100
1000
0000
0100
0010
0001
0000
0010
0000
,
1000
0001
1000
0010
1000
0001
1000
0100
0010
0000
0100
0000
1000
0000
0001
0000
,
0001
0000
0000
0000
0010
0001
0020
0000
0000
0000
0000
0000
0000
0000
0000
0000
,
0000
0000
0030
0010
0001
0000
0000
0000
0100
0000
0000
0000
0010
0000
0000
0000
,
1000
0100
2000
0000
0000
0000
0000
0000
0000
0000
0000
3000
1000
0000
0000
0000
,
0010
0000
0000
0200
0000
0000
0000
0000
,
0000
0300
1000
0000
0100
0000
0001
0000
,
0010
0000
0001
0000
1000
0000
0010
0000
0001
0000
1000
0000
,
0200
0000
0000
0000
0000
0000
0000
0000
0300
0000
0100
0000
0001
0010
0001
0010
,
0002
0000
0000
0000
0000
0000
0000
0000
0000
0000
0003
0000
1000
0100
0010
0001
,
0010
0001
0001
0100
0100
0100
0010
0010
,
0010
1000
1000
1000
0100
0001
0100
0010
,
0001
0000
0100
0000
1000
0000
0100
0000
0010
0000
0001
0000
0010
0100
0010
0100
,
0010
0000
0000
0000
1000
0100
0010
0001
1000
0000
0001
0000
0010
0000
0100
0000
,
0100
0000
0100
0001
0100
0000
1000
0100
,
0010
0000
0100
0010
0001
0000
0010
0001
,
0101
0000
0001
0000
1001
0000
1000
0000
0001
0010
0100
1000
0100
0010
0001
0010
,
0001
0100
0010
0100
0010
1000
0001
0010
0100
0010
0100
1000
0001
0010
0100
1000
,
0100
0000
0000
0000
0000
0000
1000
0100
0001
0000
0000
0000
0100
0000
0000
0000
,
0001
0000
0001
0000
0000
0000
0100
1000
0001
0000
0010
0000
0010
0000
0100
0000
,
0100
0000
0000
0000
0000
0000
0100
0010
0001
0000
0000
0000
0010
0000
0000
0000
,
0001
0000
0001
0000
0000
0000
0010
1000
0010
0000
0001
0000
0100
0000
0010
0000
,
0010
0000
0000
0000
0000
0000
1000
0001
0010
0000
0000
0000
0100
0000
0000
0000
,
0010
0000
0001
0000
0000
0000
0100
1000
0100
0000
0001
0000
0001
0000
0001
0000
,
0100
0000
0000
0000
0000
0000
0001
1000
0100
0000
0000
0000
0010
0000
0100
0000
,
1000
0000
0100
0000
0010
0000
0001
0010
0100
0000
1000
0000
1000
0000
1000
0000
,
1001
0000
0000
0000
0000
0000
0001
0100
1000
0000
0000
0000
0100
0000
0000
0000
,
0001
0000
0001
0000
0000
0000
1000
0010
0001
0000
0010
0000
0100
0000
1000
0000
,
0100
0000
0000
0000
0000
0000
0001
0010
1000
0000
0000
0000
0010
0000
0001
0000
,
0010
0000
0001
0000
1000
0000
0001
0000
0100
0010
0100
0010
1000
0001
1000
0001
,
1000
0000
0001
0000
1000
0001
1001
0000
,
0001
0000
1000
0000
0001
1000
1001
0000
,
0001
1000
0010
0100
0001
0010
0100
1000
0100
0010
0100
0010
0001
1000
0100
1000
,
0001
0010
0001
0100
0010
1000
0001
1000
0100
0010
0001
1000
0001
0010
0100
0000
;
