#TITLE:昇天直前Love it LIVE;
#SUBTITLE:;
#ARTIST:兎田ぺこら;
#TITLETRANSLIT:Shouten Chokuzen Love it LIVE;
#SUBTITLETRANSLIT:;
#ARTISTTRANSLIT:Usada Pekora;
#GENRE:;
#CREDIT:;
#MUSIC:Shouten Chokuzen Love it LIVE.ogg;
#BANNER:;
#BACKGROUND:;
#CDTITLE:;
#SAMPLESTART:55.552;
#SAMPLELENGTH:21.034;
#SELECTABLE:YES;
#OFFSET:-0.035;
#BPMS:0.000=174.000;
#STOPS:;
#BGCHANGES:;
#FGCHANGES:;

//--------------- dance-single - Pax_Vesania ----------------
#NOTES:
     dance-single:
     Pax_Vesania:
     Beginner:
     4:
     0,0,0,0,0:
0000
0000
0000
0000
,
0000
0000
0000
0000
,
0000
0000
0000
0000
,
0000
0000
0000
0000
,
0000
0000
0010
0010
,
0020
0000
0000
0030
0000
0000
0000
0000
0000
0000
0000
0000
0000
0000
0000
0000
,
1000
1000
0000
0000
,
0000
0000
0100
0100
,
0010
0010
0000
0100
,
0000
0001
0000
1000
,
0000
0010
0000
1000
,
0000
0001
0000
0010
,
0000
0000
0100
0000
2000
0000
3000
1000
,
0000
0000
0000
0000
0002
0000
0003
0001
,
0000
0000
0100
0000
,
0010
0000
0100
0100
,
0000
0001
0000
0000
,
0000
0000
0000
0000
1000
0000
0000
1000
,
0000
1000
0000
0000
,
0000
0000
0000
0000
0001
0000
0000
0001
,
0000
0001
0001
0000
,
0020
0000
0130
0000
,
2000
0000
3001
0000
,
0100
0000
0010
0010
,
0000
0000
1001
0000
,
0000
0000
0000
0000
0100
0000
0000
0100
,
0000
0100
0000
0000
,
0000
0000
0000
0000
0010
0000
0000
0010
,
0000
0010
0010
0000
,
2000
0000
3010
0000
,
0200
0000
0301
0000
,
0001
0000
0010
0010
,
0010
0000
0000
0000
0100
0000
0000
0100
,
0000
0000
1000
0000
1000
0000
0000
1000
,
0000
0000
0010
0000
0010
0000
0000
0010
,
0000
0100
0100
0000
,
0001
0001
0001
0000
,
0100
0000
0010
0000
,
0100
0000
0001
0001
,
1000
1000
1001
0000
,
0000
2000
3000
1000
,
1000
0000
0010
0010
,
0010
0000
1000
1000
,
1000
0000
0001
0001
,
0001
0000
0100
0100
,
0000
0000
0010
0010
,
0000
0000
1000
0000
,
0001
0000
0010
0010
,
0010
0000
0001
0001
,
0001
0000
0100
0100
,
0100
0000
0010
0010
,
0010
0000
1000
1000
,
1000
0000
0100
0100
,
0000
0000
0001
0001
,
0000
0000
0100
0000
,
0010
0000
1000
0000
,
0001
0001
0000
0100
,
0000
0010
0000
1000
,
0000
0001
0000
0010
,
0000
1000
0000
0010
,
0000
0001
0001
0000
,
1000
0000
0100
0100
,
0100
0000
0010
0010
,
0010
0000
0001
0001
,
0000
0000
1000
0000
,
1000
1000
0000
0001
,
0000
0001
0001
0000
,
0100
0000
0000
0000
0010
0000
0000
0010
,
0000
0000
0000
1000
,
0000
0001
0000
1000
,
0000
0100
0000
0010
,
0000
0001
0000
0000
,
0000
0000
0000
1001
0000
0000
0000
0000
,
0000
0000
2002
3003
0000
0000
0000
0000
,
0001
0000
0000
0000
,
1000
0000
0000
0000
,
0100
0100
0000
0010
,
0000
0010
0000
0001
,
0001
0001
2000
0000
,
3002
0000
0003
1001
0000
0000
0000
0000
,
0000
0000
0000
0000
1001
0000
0000
1001
,
0000
0002
0003
0001
,
0001
0000
0100
0100
,
0100
0000
0010
0010
,
0010
0000
1000
1000
,
1000
0000
0001
0001
,
0000
0000
0100
0100
,
0000
0000
0001
0000
,
1000
0000
0010
0010
,
0010
0000
0000
1001
,
0000
0000
1000
1000
,
1000
0000
0001
0001
,
0001
0000
0010
0010
,
0010
0000
1000
1000
,
0000
0000
0001
0001
,
0000
0000
1000
0000
,
0100
0000
1000
1000
,
0001
0001
0100
0000
,
0010
0000
1001
0000
,
1001
0000
0001
0000
,
1000
0000
1000
1000
,
0010
0010
0000
0000
,
0000
0000
0100
0100
,
0001
0001
0000
0000
,
0000
0000
1000
1000
,
0001
0001
0000
1001
,
0000
1001
0000
1001
,
0000
1001
0000
0000
,
0000
0000
0100
0100
,
0010
0010
0000
0000
,
0000
0000
1000
1000
,
0001
0001
0000
0000
,
0000
0000
0010
0010
,
0100
0100
0000
0110
,
0000
0110
0000
0110
,
0000
0110
0000
0000
,
0000
0000
1000
1000
,
0001
0001
0001
0100
,
0000
0010
0000
1000
,
0000
0100
0000
0010
,
0000
0001
0000
0100
,
0000
0000
0010
0000
2000
0000
3000
1000
,
0000
0000
0000
0000
0002
0000
0003
0001
,
0000
0000
0100
0000
,
0010
0000
1000
1000
,
0001
0001
0000
0000
,
0000
0000
1001
1001
,
1001
0000
0000
0000
;

//--------------- dance-single - Pax_Vesania ----------------
#NOTES:
     dance-single:
     Pax_Vesania:
     Easy:
     8:
     0,0,0,0,0:
0000
0000
0000
0000
,
0000
0000
0000
0000
,
0000
0000
0000
0000
,
0000
0000
0000
0000
,
0000
0000
1000
1000
,
0020
0000
0030
0100
0000
0100
0010
0000
,
0100
0001
0020
0032
,
2003
3020
0030
0000
,
0000
0000
1000
1000
,
0001
0001
0100
0100
,
0010
0010
1000
1000
,
0001
0001
0010
0010
,
0100
0000
0100
0000
2000
0000
3000
1001
,
0000
0000
0000
0000
0002
0000
0003
1001
,
0000
0000
0000
0010
0100
0000
0100
0000
,
0010
0010
0100
0001
,
0100
0000
0000
0000
0002
0000
0000
0003
0000
0000
0000
0000
0000
0000
0000
0000
,
0000
0000
0000
0000
0000
0000
0000
0000
1000
0000
0000
1000
0000
0000
0100
0000
,
0000
1000
0100
0000
0000
0000
0000
0000
,
0000
0000
0000
0000
0000
0000
0000
0000
0001
0000
0000
0001
0000
0000
0010
0000
,
0000
0001
0010
0000
0010
0000
0001
0000
,
2000
3200
0310
0001
,
2000
3020
0130
0010
,
1000
0001
0100
0100
,
0020
0000
0000
0000
0000
0000
0000
0030
0000
0000
0000
0000
0000
0000
0000
0000
,
0000
0000
0000
0000
0000
0000
0000
0000
0010
0000
0000
0010
0000
0000
0100
0000
,
0000
0010
0100
0000
0000
0000
0000
0000
,
0000
0000
0000
0000
0000
0000
0000
0000
1000
0000
0000
1000
0000
0000
0001
0000
,
0000
1000
0001
0000
0100
0000
0010
0000
,
2000
3002
0103
0100
,
0020
0230
0301
0001
,
1000
0001
0010
0010
,
0010
0000
0000
0000
1000
0000
0000
1000
,
0000
0000
0100
0000
0010
0000
0000
0010
,
0000
0000
0100
0000
1000
0000
0000
1000
,
0000
0001
0001
0100
,
0002
0000
0000
0003
2000
0000
0000
3000
1000
0000
0000
0000
1000
0000
0000
0000
,
0100
0100
0010
0010
,
0001
0001
0100
0010
,
1000
0000
0000
0000
0001
0000
0000
0000
0100
0000
0000
0100
0000
0000
0100
0000
,
0000
0000
0000
0110
0000
0100
0010
0000
,
0010
1000
0000
1000
0000
0001
0100
0000
,
0100
0010
0000
0010
0000
1000
0001
0000
,
0001
1000
0000
0001
1000
0000
1000
0000
,
0010
0010
2000
3001
,
0000
0000
0002
1003
,
0010
0010
1000
0100
,
1000
0001
0010
0001
,
0100
0000
0000
1001
0000
0001
0100
0000
,
0100
0001
0000
1000
0000
0010
1000
0000
,
1000
0010
0000
0100
0000
0001
0010
0000
,
0010
0100
0000
0100
1000
0000
1000
0000
,
0010
0010
2000
3010
,
0000
0000
0002
0103
,
0001
0001
0010
0100
,
0010
0001
1000
1000
,
0010
0000
0100
0000
0001
0100
0001
0000
,
0001
0000
0100
0000
0010
1000
0010
0000
,
0010
0000
1000
0000
0010
0100
0010
0000
,
0010
0000
0100
0001
0000
0001
0100
0000
,
0020
0000
2030
0000
3100
0000
0100
0010
,
0000
0010
0001
0000
1000
0000
1000
0010
,
0000
0100
0001
0000
0010
0000
0010
0000
,
0001
0001
0100
0110
,
0000
0000
0010
0000
2000
0000
3100
0100
,
0000
1000
1000
0000
0100
0000
1000
0001
,
0000
0010
0010
0000
0100
1000
0100
0000
,
0010
0001
0010
0001
0000
0010
0000
0002
,
0000
0003
0000
0000
0010
0000
0010
0000
,
0001
0001
1000
1000
,
0010
0010
1000
1000
,
0100
0100
0000
0000
,
0000
0000
0000
0110
0000
0000
0000
0000
,
0000
0000
1000
0001
0000
0000
0000
0000
,
0000
0000
0000
0000
0000
0000
2000
0000
0000
0000
0000
0000
0000
0000
0000
3000
,
0020
0000
0000
0000
0000
0030
0200
0000
0000
0000
0000
0000
0000
0000
0000
0000
,
0300
0000
1000
0010
,
1000
0100
0010
0100
,
0010
0001
0100
0100
,
0001
0000
0001
0010
0000
0000
0000
0000
,
0000
0000
0000
0000
0000
0000
0000
0000
1000
0000
0000
1000
0000
0000
1000
0000
,
0000
0000
0000
1010
0000
0010
0100
0000
,
0100
0010
0000
0100
0000
0001
0100
0000
,
0010
1000
0000
0100
0000
0010
0100
0000
,
0100
0000
1000
0001
1000
0000
1000
0000
,
0001
0001
2000
3001
,
0000
0000
0002
1003
,
0010
0100
0010
0010
,
1000
0001
0100
0100
,
0020
0000
0000
0030
0000
0000
0110
0000
,
0010
0000
1000
0100
0000
1000
0100
0000
,
0010
0000
0001
0010
0000
0001
0010
0000
,
0001
1000
0000
0100
0100
0000
0100
0000
,
0010
0010
0200
0310
,
0000
0000
0020
0130
,
1000
0001
1000
0010
,
0001
0010
1000
0001
,
0100
0010
1000
0000
,
0000
0000
0001
1001
,
1000
0000
0100
1000
,
0010
0100
0001
0010
,
0001
0000
0001
0000
1000
0000
1000
0010
,
0000
0010
0100
0010
0000
0000
0000
0000
,
0000
0000
0000
0000
0100
0000
0100
0001
,
0000
0001
0010
0001
0000
0000
0000
0000
,
0000
0000
1000
1001
,
0000
0110
0000
1001
,
0000
0000
0110
0000
0000
0100
0000
0001
,
1000
0010
0100
0001
,
1001
0000
1001
0000
0001
0000
0001
0100
,
0000
0100
0010
0100
0000
0000
0000
0000
,
0000
0000
0000
0000
0001
0000
0001
1000
,
0000
1000
0001
1000
0000
0000
0000
0000
,
0000
0000
0010
0110
,
0000
1001
0000
0110
,
0000
0000
1001
0000
0000
0001
0100
0000
,
0010
0000
0000
0000
0010
0000
0000
0000
2000
0000
0000
3000
0002
0000
0000
0003
,
0200
0000
0000
0300
0020
0000
0000
0030
1000
0000
0000
0000
1000
0000
0000
0000
,
0001
0001
0100
0100
,
0010
0010
1000
1000
,
0100
0100
0001
0001
,
0100
0000
0100
0000
2000
0000
3000
1001
,
0000
0000
0000
0000
0020
0000
0030
0110
,
0000
0000
0000
1000
0010
1000
0000
0001
,
0100
0001
0000
0001
1000
0001
1000
0001
,
0000
0100
0010
0000
0000
0000
0000
0000
,
0000
0000
1001
0110
,
1001
0000
0000
0000
;

//--------------- dance-single - Pax_Vesania ----------------
#NOTES:
     dance-single:
     Pax_Vesania:
     Medium:
     11:
     0,0,0,0,0:
0000
0000
0000
0000
,
0000
0000
0000
0000
,
0000
0000
0000
0000
,
0000
0000
0000
0000
,
0000
0000
0000
0000
0001
0100
0001
0100
,
0001
0000
0000
0100
0000
0000
0001
0000
0000
0000
1000
0000
0010
0000
1000
0000
,
0010
0000
0100
0000
0010
0000
0100
0000
0020
0000
0000
0030
2000
0000
0000
3000
,
0002
0000
0000
0003
0020
0000
0000
0030
0011
0000
0000
0000
0000
0000
0000
0000
,
0000
0000
1000
1010
,
0100
0101
0001
0110
,
1000
1001
0001
0011
,
1000
1100
0001
0101
,
1000
0000
1010
0000
0010
0000
0100
0010
,
0000
0000
0000
0000
1000
0000
0001
0100
,
0000
0000
0000
0010
0010
0010
0000
0100
,
0100
0000
0100
0000
0000
0000
0001
0000
2000
0000
0000
3000
1000
0000
0100
0000
,
0000
0000
0010
0000
0020
0000
0000
0030
0000
0000
0000
0000
0000
0000
0000
0000
,
0000
0000
0000
0000
0000
0000
0000
0000
0010
0000
0000
1000
0000
0000
0010
0000
,
0000
0100
0100
0000
0000
0000
0000
0000
,
0000
0000
0000
0000
0000
0000
0000
0000
0001
0000
0000
0100
0000
0000
0001
0000
,
0000
0010
0010
0000
0100
0000
1000
0000
,
0001
0010
0001
0010
0100
0000
1000
0000
,
0010
1000
0010
0100
0010
1000
0001
0000
,
1000
0100
1000
0000
0110
0000
1100
0000
,
2000
0000
0000
3000
0002
0000
0000
0003
0000
0000
0000
0000
0000
0000
0000
0000
,
0000
0000
0000
0000
0000
0000
0000
0000
1000
0000
0000
0100
0000
0000
1000
0000
,
0000
0010
0010
0000
0000
0000
0000
0000
,
0000
0000
0000
0000
0000
0000
0000
0000
0001
0000
0000
0010
0000
0000
0001
0000
,
0000
0100
0100
0000
0010
0000
1000
0100
,
1000
0100
1000
0000
0001
0000
0100
0001
,
0100
0001
0100
0000
0010
1000
0010
0000
,
0100
0000
0001
0000
0010
0000
0000
0000
0001
0000
0000
0100
0000
0000
0010
0000
,
0010
0000
0000
0000
0000
0000
0000
0000
0100
0000
0000
0100
0000
0000
0100
0000
,
0000
0010
0000
0000
1000
0000
0010
0000
0100
0000
0000
0001
0000
0000
0001
0000
,
0000
0000
0010
0000
0100
0000
1000
0000
0010
0000
0000
0010
0000
0000
1000
0000
,
0010
1000
0010
1000
0100
0010
0000
0010
,
0001
0000
1000
1100
,
1000
0010
0110
0001
,
0011
0000
0001
0000
1000
0001
1000
0001
,
0100
0000
0010
0000
0100
0000
0010
0000
0100
0000
0000
0001
0000
0000
0101
0000
,
0000
0000
0100
0010
0000
0100
0001
0100
,
0001
0100
0000
0010
0000
0010
1000
0010
,
1000
0001
0000
0100
0000
0100
0010
0100
,
0001
0100
0000
0020
0000
0030
0000
0000
,
1000
0000
0000
0001
0000
0000
0100
0000
0010
0000
0000
0000
0110
0000
0000
0000
,
0001
0000
0000
1000
0000
0000
0010
0000
0100
0000
0000
0000
1001
0000
0000
0000
,
0001
0100
0001
0000
1000
0010
1000
0000
,
0010
0100
0000
0001
0100
0001
0100
0100
,
0010
1000
0000
0100
0000
0010
0001
0010
,
0001
0100
0000
0010
0000
0010
0100
0010
,
1000
0001
0000
0010
0000
0100
1000
0100
,
1000
0001
0000
0020
0000
0030
0000
0000
,
0010
0000
0000
0001
0000
0000
1000
0000
0100
0000
0000
0000
0110
0000
0000
0000
,
1000
0000
0000
0010
0000
0000
0100
0000
0001
0000
0000
0000
1001
0000
0000
0000
,
1000
0000
0000
0001
0000
0000
0100
0000
0100
0000
0010
0000
0100
0000
0000
0000
,
0001
0100
0001
0000
1000
0100
1000
0010
,
0010
0100
0100
0000
0001
0000
0100
0000
,
0001
0010
0001
0000
1000
0000
0010
0000
,
1000
0100
1000
0000
0100
0000
0010
0000
,
0001
1000
0001
0000
0010
0000
0100
0000
,
1000
0001
1000
0000
0010
0000
1000
0100
,
0000
0100
1000
0000
0010
0000
0100
0010
,
0000
0010
0100
0000
0001
0000
0001
0100
,
0000
0100
0010
0000
0010
1000
0100
0000
,
0020
0000
0000
0030
0002
0000
0000
0003
0100
0000
0100
0000
0010
0000
0010
0000
,
0000
1000
0010
1000
0010
0100
0100
0001
,
0000
0010
0010
0000
0100
0000
1000
0100
,
1000
0100
0010
0001
0000
0010
0000
0022
,
0000
0033
0000
0000
0100
0100
0010
0010
,
1000
0000
0001
0001
0100
0001
0000
0002
,
0000
0003
0000
0100
0000
0010
1000
0100
,
0010
0100
0010
0001
0002
0000
0000
0000
,
0000
0000
0003
0101
0000
0000
0000
0000
,
0000
0000
0010
0011
0000
0000
0000
0000
,
0001
0000
0100
0000
0001
0000
0020
0000
0000
0000
0000
0000
0000
0000
0000
0030
,
0200
0000
0000
0000
0000
0300
2000
0000
0000
0000
0000
0000
0000
0000
0000
3000
,
0100
0100
0010
0001
,
0010
0001
1000
0000
0010
0000
0100
0000
,
0001
0100
0010
0000
1000
0001
1000
0001
,
0100
0010
0100
0010
0000
0000
0000
0000
,
0000
0000
0000
0000
0000
0000
0000
0000
1000
0000
0000
0001
0000
0000
1001
0000
,
0000
0000
0000
0100
0000
0010
0100
0010
,
1000
0001
0000
0010
0000
0010
0100
0010
,
0001
1000
0000
0100
0000
1000
0010
1000
,
0001
0000
1000
0000
0010
0000
0200
0000
0000
0000
0000
0300
0010
0000
0000
0000
,
0010
0000
0000
0100
0000
0000
0001
0000
0010
0000
0000
0000
0110
0000
0000
0000
,
0100
0000
0000
1000
0000
0000
0001
0000
0010
0000
0000
0000
0101
0000
0000
0000
,
0100
0000
0000
0010
0000
0000
1000
0000
1000
0000
0100
0000
1000
0000
0000
0000
,
0001
0100
0001
0000
0010
0010
0100
1000
,
1000
0001
0010
0100
0000
1000
0100
1000
,
0001
0100
0000
0001
0000
0001
0010
0001
,
1000
0100
0000
0010
0000
0001
1000
0010
,
0100
0001
0000
0020
0000
0030
0100
0000
,
0100
0000
0000
1000
0000
0000
0010
0000
0100
0000
0000
0000
1010
0000
0000
0000
,
1000
0000
0000
0001
0000
0000
0100
0000
0010
0000
0000
0000
0101
0000
0000
0000
,
0001
0000
0000
0001
0000
0000
1000
0000
0001
0000
1000
0000
1000
0000
0100
0000
,
0010
0000
0001
0000
0100
0010
1000
0000
,
0001
0001
0010
0000
0000
0000
0000
0000
,
0000
0000
0110
1001
,
0110
0000
1000
0010
,
0001
0010
1100
1010
,
1001
0000
0101
0000
0100
0010
0100
0010
,
0000
1000
0100
0010
0000
0001
0010
0001
,
1000
0100
1000
0000
0001
0100
0001
0100
,
0000
0001
1000
0100
0100
0010
0000
0010
,
0001
0001
0000
0011
,
0000
1100
0000
0101
,
0000
0000
1010
0000
0000
0001
0000
0100
,
0010
0100
0001
0100
0001
1000
0001
0100
,
0010
0000
0100
0000
0001
1000
0100
1000
,
0000
0001
0100
0010
0000
1000
0100
1000
,
0001
0010
0001
0000
1000
0001
1000
0010
,
0000
0100
0001
0010
0100
0100
0000
1000
,
0010
0100
0000
0110
,
0000
1001
0000
1100
,
0000
0000
0011
0000
0000
0010
0001
1000
,
0010
1000
0100
1000
0001
0100
0001
0100
,
0001
0000
1000
1100
,
0001
0011
1000
1010
,
0001
0101
0100
0110
,
0001
1001
1000
0011
,
0001
0000
1100
0000
1000
0100
1000
0010
,
0000
0000
0000
0000
0100
0010
0100
0001
,
0000
0000
0000
1000
1000
0100
0000
0001
,
0001
0010
0000
0100
1000
0100
0010
0001
,
1000
0001
0100
0000
0000
0000
0000
0000
,
0000
0000
0000
0000
0001
1000
0001
0100
,
0110
0000
0000
0000
;

//--------------- dance-single - Pax_Vesania ----------------
#NOTES:
     dance-single:
     Pax_Vesania:
     Hard:
     13:
     0,0,0,0,0:
0000
0000
0000
0000
,
0000
0000
0000
0000
,
0000
0000
0000
0000
,
0000
0000
0000
0000
,
0000
0000
0000
0000
0100
0001
0010
0001
,
1000
0000
0000
0100
0000
0000
0010
0000
0000
0000
0001
0000
0010
0000
0001
0000
,
1000
0010
1000
0010
0100
0001
0100
1000
,
0100
0001
1000
0100
0010
0000
0000
0000
,
0000
0000
0000
0000
1000
0100
0010
0000
,
0001
0010
0100
0000
1000
0010
0100
0000
,
0001
0100
0010
0000
1000
0010
0001
0000
,
0010
1000
0100
0000
0001
0100
1000
0000
,
0001
0100
0010
0000
1000
0100
0010
0001
,
0000
0000
0000
0000
0001
1000
0100
0010
,
0000
0000
0000
0100
1000
1000
0000
0001
,
0010
0010
0000
0100
1000
0100
0010
0200
,
0300
1000
2000
3000
0000
0000
0000
0000
,
0000
0000
0000
0000
0010
0000
0010
0000
0110
0000
0000
1001
0000
0000
0110
0000
,
0100
0010
0100
0000
0000
0000
0000
0000
,
1000
0000
0001
0000
0010
0000
0100
0000
1010
0000
0000
0101
0000
0000
1010
0000
,
1000
0000
0100
0000
0010
0000
0100
0000
1000
0001
0000
0010
0100
0000
1000
0000
,
0100
0000
0010
0000
0100
0000
0010
0000
0001
0100
0000
0010
1000
0000
0001
0000
,
0010
0100
0000
1000
0010
0001
0000
1000
,
0100
0000
0001
0000
0000
0000
0010
0000
0100
0000
0000
1000
0000
0000
0001
0000
,
0100
0100
0001
0001
0010
0100
1000
0001
,
1000
0000
0000
0000
0000
0000
0000
0000
1100
0000
0000
0011
0000
0000
1100
0000
,
0100
1000
0001
0001
0100
0010
1000
0100
,
0001
0000
0100
0000
0100
0000
1000
0000
1010
0000
0000
0011
0000
0000
1010
0000
,
1000
0000
0010
0000
0001
0000
0010
0000
0100
0001
0000
0010
0100
0000
0100
0000
,
1000
0000
0001
0000
0010
0000
0100
0000
0010
0001
0000
1000
0100
0000
0001
0000
,
0100
0100
0000
1000
0001
0010
0000
0001
,
1000
0000
0100
0000
0000
0000
0010
0000
0100
1000
0000
0001
0010
0000
0001
0000
,
0100
0000
0000
0000
0000
0000
0000
0000
1000
0000
0000
0010
0000
0000
0010
0000
,
0000
0010
0000
0000
0010
0000
1000
0000
0100
0000
0000
0010
0000
0000
0001
0000
,
0000
0000
0010
0000
0001
0000
0010
0000
0100
0000
0000
0100
0000
0000
1000
0000
,
0010
1000
1000
0001
0100
0100
0001
0010
,
0100
1000
0100
0010
0001
0001
1000
1000
,
0010
0010
0100
0100
1000
0100
0010
0001
,
0010
0100
0001
1000
0010
0001
0010
0100
,
0001
0000
1000
0000
0001
0000
0100
0000
0110
0000
0000
0101
0000
0000
0011
0000
,
0000
0000
1000
1100
0000
0001
0010
0100
,
0010
0001
0000
0010
0000
0100
1000
0010
,
0100
0001
0000
0001
0000
0010
0100
1000
,
0010
0100
0100
0001
0010
1000
0010
0001
,
0100
1000
0100
0010
0100
0000
0110
0000
,
1000
0100
0001
0100
0010
0000
0101
0000
,
0100
0010
0001
0010
0010
1000
1000
0001
,
0001
0100
0010
1000
0001
0010
0001
1000
,
0100
0010
0000
0011
0000
1000
0001
0010
,
1000
0010
0000
0001
0000
0100
1000
0100
,
0001
0010
0000
0100
0000
0100
1000
0001
,
0010
0100
1000
0010
1000
0001
0100
0001
,
0010
1000
0010
0001
0100
0000
0110
0000
,
1000
0000
0000
0100
0000
0000
0010
0000
0001
0000
0000
0000
1001
0000
0000
0000
,
0100
0010
0100
0001
0010
0100
1000
0001
,
1000
0100
0010
0100
1000
0001
0001
0100
,
0001
0010
0100
0000
0100
0000
0000
1000
,
0100
0000
0000
0001
0010
0000
0001
0100
,
0000
0000
0010
0000
1000
0000
0000
0100
,
0010
0000
0000
0001
0010
0000
0001
1000
,
0100
0010
0001
0100
0010
1000
1000
0010
,
1000
1000
0001
0001
0100
0010
0010
0100
,
0010
0010
1000
1000
0001
0010
0100
0001
,
0100
0010
0001
1000
0100
0010
0001
0000
,
0000
0000
0010
1000
0100
0100
0001
0010
,
0000
0100
1000
0010
0100
0001
1000
0100
,
0000
0100
0010
0100
1000
1000
0001
1000
,
0001
1000
0100
0010
0000
0001
0000
0200
,
0000
0300
0000
0000
0010
1000
0100
0000
,
0010
0001
0100
0000
0010
0001
0010
0000
,
0100
1000
0100
0000
0001
0100
1000
0000
,
0100
0010
0001
0010
0020
0000
0000
0000
,
0000
0000
0030
0110
0000
0000
0000
0000
,
0000
0000
1000
1010
0000
0000
0000
0000
,
0010
1000
0100
0010
0000
0100
0010
0001
,
0010
0100
1000
0001
0000
0000
0000
0000
,
0001
0001
0100
0100
0010
1000
0100
0010
,
0100
1000
0001
0100
0010
1000
0100
1000
,
0001
0010
0001
0100
0010
0100
1000
0100
,
0010
1000
0100
0110
0000
0000
0000
0000
,
0000
0000
0000
0000
0000
0000
0000
0000
0101
0000
0000
1010
0000
0000
0101
0000
,
0000
0000
0100
0110
0000
0100
0010
0100
,
0001
0010
0000
0100
0000
1000
0100
1000
,
0001
0010
0000
0100
0000
1000
0100
0001
,
0100
1000
0001
0010
0001
0100
0001
1000
,
0001
0100
0010
0100
0001
0000
0101
0000
,
0001
0000
0000
1000
0000
0000
0100
0000
0010
0000
0000
0000
0011
0000
0000
0000
,
0001
0010
1000
0010
0100
1000
0001
1000
,
0010
0001
0010
0100
0001
0010
0010
0100
,
1000
0001
0001
0100
0000
0001
1000
0001
,
0100
0010
0000
0100
0000
0001
0100
1000
,
0100
0010
0000
1000
0000
0100
0001
0100
,
1000
0010
0000
0100
0001
0010
0001
1000
,
0100
1000
0010
0100
0001
0000
1001
0000
,
1000
0000
0000
0100
0000
0000
0010
0000
0001
0000
0000
0000
0110
0000
0000
0000
,
1000
0010
0100
0010
1000
0010
0100
1000
,
0100
0001
0010
0100
0001
0100
0010
0001
,
0100
0010
1000
0100
1000
0000
0000
0010
,
0100
0000
0001
0010
0001
0100
0010
0100
,
0001
0000
0000
0000
1000
1000
0010
0010
,
0100
0100
0001
0001
1010
0000
0110
0000
,
0101
0000
0011
0000
0001
0100
0001
0100
,
0000
0000
0010
0000
1000
0000
0100
0000
0000
0000
0010
0001
0010
0000
0100
0000
,
1000
0001
0010
0000
0100
1000
0100
1000
,
0000
0010
0100
0001
0010
0100
0000
1000
,
0001
0100
0010
1010
,
0001
0101
1000
1100
,
0001
0000
0011
0000
0000
0100
0000
0010
,
0100
0001
1000
0100
0010
0010
0001
0001
,
0011
0000
1010
0000
0010
0100
0010
0100
,
0000
0000
1000
0000
0100
0000
0001
0000
0000
0000
0010
0100
0010
0000
0100
0000
,
1000
0001
0010
0000
0100
1000
0100
1000
,
0000
0100
0001
0100
0010
0001
0000
0010
,
0100
0001
0100
1100
,
0001
0011
1000
1010
,
0001
0000
0101
0000
0000
0100
0010
1000
,
0010
1000
0001
0100
0010
0010
0100
0100
,
0001
0000
0010
0000
0100
1000
0001
0000
,
0010
0001
1000
0000
0010
1000
0100
0000
,
0010
0001
0100
0000
0001
0010
1000
0000
,
0001
0100
1000
0000
0100
0010
0001
0000
,
0010
0100
1000
0000
1000
0100
0010
0110
,
0000
0000
0000
0000
0001
1000
0100
0011
,
0000
0000
0000
0000
0000
0000
0100
0010
0100
0000
0001
0000
0000
0000
0100
0010
,
0100
1000
0000
0100
0001
1000
0100
0010
,
0001
0100
0020
0030
0000
0000
0000
0000
,
0000
0000
0000
0000
0110
0010
0100
0101
,
0011
0000
0000
0000
;

//--------------- dance-single - Pax_Vesania ----------------
#NOTES:
     dance-single:
     Pax_Vesania:
     Challenge:
     18:
     0,0,0,0,0:
0000
0000
0000
0000
0010
1000
0001
1000
,
0100
0000
0000
0010
0000
0000
0100
0000
0000
0000
0100
0000
1000
0000
0001
0000
,
0010
0001
0100
0001
1000
0010
0100
1000
,
0100
0000
0000
0001
0000
0000
0010
0000
0000
0000
0100
0000
1000
0000
0001
0000
,
0100
0001
1000
0100
0010
0001
0010
0100
1000
0000
0001
0000
0010
0000
0100
0000
,
0010
0000
0000
0001
0000
0000
0100
0000
0000
0000
0010
0000
1000
0000
0100
0000
,
0001
0000
0100
0000
1000
0000
0001
0000
1000
0001
1000
0001
0100
0010
0100
0010
,
1000
0010
1000
0010
0100
0001
0100
0001
1000
0100
0000
0100
0010
0000
0100
0000
,
1000
0001
0010
0000
0100
0010
0110
0000
,
0010
0001
0011
0000
0010
0100
1100
0000
,
1000
0010
1010
0000
0100
0001
0101
0000
,
1000
0000
0001
0000
1001
0000
0000
0000
0001
0100
0010
1000
0001
0010
0100
1000
,
0001
1000
0001
0010
0100
1000
0100
0010
0001
0010
0001
0010
0001
0000
0011
0000
,
0000
0000
0000
0000
0000
0000
0000
0000
0100
1000
0100
1000
0100
0000
1100
0000
,
0000
0000
0000
0000
0000
0000
0001
0100
0010
0000
0100
0000
0000
0000
0001
0100
,
0010
0000
0100
0000
0001
0000
1000
0000
0100
0000
0100
0010
0001
0000
0010
0100
,
1000
0000
0100
0010
0001
0000
0100
0000
0001
0000
1000
0010
1000
0000
0001
0000
,
0010
0000
0100
0000
1000
0100
1000
0001
1000
0000
0000
0101
0000
0000
1010
0000
,
0010
0000
1000
0000
1000
0000
0100
0000
0010
0000
0001
1000
0100
0000
1000
0001
,
0010
0100
1000
0001
1000
0010
1000
0100
1000
0000
0000
1100
0000
0000
0011
0000
,
0001
0000
0100
0000
0010
1000
0001
1000
0001
0100
0000
0001
0100
0000
0010
0000
,
1000
0100
1000
0001
0100
0001
1000
0001
0010
0100
1000
0001
0010
0000
0010
0000
,
0100
1000
0010
0100
0001
0010
0001
1000
0100
0010
0001
1000
0001
0000
0010
0000
,
0100
0010
0001
1000
0100
0000
1000
0000
0001
0000
1000
0000
0001
0000
0100
0000
,
0001
1000
0001
1000
0001
1000
0001
1000
0001
0000
1000
0100
0010
0000
0001
0000
,
0010
0000
0100
0000
1000
0000
0001
0000
0101
0000
0000
1010
0000
0000
0011
0000
,
0001
0000
1000
0000
0010
0000
0100
0000
0010
0000
1000
0010
0100
0000
0001
0100
,
0010
0000
0100
0010
0100
0001
0010
0100
1000
0000
0000
1010
0000
0000
0011
0000
,
0001
0000
0100
0010
0100
0010
0100
0001
1000
0010
0000
0100
0001
0000
0010
0000
,
0100
1000
0100
0010
0100
0010
0001
1000
0010
1000
0010
0100
0001
0000
0010
0000
,
0100
1000
0001
1000
0100
0000
0010
0000
0001
1000
0100
0010
0001
0000
0100
0000
,
0010
1000
0100
0010
0001
0000
1000
0000
0100
0001
0000
0100
1000
0000
0001
0000
,
0010
0000
0000
0000
0200
0000
0300
0000
1000
0010
0100
0001
0000
0000
0010
0000
,
0000
0010
0000
0000
0001
0000
0001
0000
1000
0000
0000
0010
0000
0000
0010
0000
,
0000
0000
0100
0000
0100
0000
0010
0000
1000
0000
0000
0100
0000
0000
1000
0000
,
0001
0001
0100
1000
1000
0100
0100
0001
,
1000
0100
0010
0100
0010
0001
1000
0001
0100
0010
0100
0001
1000
0000
0010
0000
,
1000
1000
0010
0001
0010
0100
0001
0010
,
1000
0000
0010
0000
0100
0000
1000
0000
0001
0100
0010
1000
0010
0100
0001
0010
,
0001
1000
0100
0010
0100
1000
0100
0010
0001
0000
0000
1001
0000
0000
0110
0000
,
0000
0000
0000
1100
0000
0100
1000
0100
,
0010
0001
0100
0101
0001
0100
0010
1000
,
0001
0010
0100
0110
0010
0001
0100
1000
,
0100
0010
1000
1010
1000
0100
0010
0100
,
1000
0000
0100
0000
0001
0000
0100
0000
1000
0010
0100
0001
0010
0000
0001
0000
,
0001
0000
0100
0000
0001
0000
1000
0000
0001
0100
0010
1000
0100
0000
1000
0000
,
1000
0010
0001
0010
0100
0001
0100
0010
,
0100
0000
1000
0000
0100
0000
0010
0000
1000
0000
0100
0010
0100
0000
0001
0000
,
0100
1000
0001
0101
0000
0100
0010
0100
,
0001
1000
0010
1010
1000
0001
0100
0010
,
0001
0010
0100
0101
0001
0010
1000
0001
,
0100
1000
0010
1000
0001
1000
0010
0001
,
0010
0000
0100
0000
1000
0000
0100
0000
0001
1000
0100
0010
0001
0000
0010
0000
,
0010
0000
0100
0000
1000
0000
0001
0000
1000
0001
0010
0100
1000
0000
0100
0000
,
0100
0010
0001
0010
0100
1000
0100
0010
,
1000
0000
0010
0000
0001
0000
0100
0000
0010
0000
0100
0001
0100
0000
1000
0000
,
0100
0000
0001
0000
0010
0000
0100
0000
1000
0000
0100
1000
0001
0000
0010
0000
,
0001
0000
0100
0000
0010
0000
0010
0000
1000
0000
0001
1000
0100
0000
0010
0000
,
0100
0000
0001
0000
0100
0000
0100
0000
0010
0000
0001
0100
0010
0000
1000
0000
,
0100
1000
0001
0001
0100
0010
1000
0001
,
1000
0010
1000
0001
1000
0010
1000
0001
1000
0000
0010
0000
0010
0000
0100
0000
,
0001
0000
0001
0000
0100
0000
0001
0010
0100
0010
0001
1000
0100
0010
0100
0010
,
0001
1000
0010
0100
0001
0000
0100
0000
0010
0000
0010
0000
1000
0000
0100
0000
,
0100
0000
0001
0000
0100
0000
0100
0000
1000
0000
0001
0010
0001
0000
0000
0000
,
0100
0010
0100
0010
1000
0001
1000
0001
1000
0000
0001
0100
0001
0000
0010
0000
,
0000
0000
0100
0000
1000
0000
0010
0000
0001
0000
1000
0000
0100
0000
0001
0010
,
0000
0000
0100
0000
0001
0000
0100
0000
1000
0000
0001
0100
0001
0000
0100
0000
,
0001
0100
0010
1000
0100
0001
0100
0022
,
0033
0000
0010
0000
0010
0000
0100
0000
1000
0100
1000
0001
0010
0000
0100
0010
,
0001
0000
1000
0000
0100
1000
0010
0100
0001
0000
0000
0010
0000
0000
0002
0000
,
0000
0000
0000
0000
0003
0000
0100
0000
0100
0000
0001
0100
0001
0000
0100
0000
,
0010
1000
0100
0010
0002
0000
0000
0000
,
0000
0000
0003
0011
0000
0000
0000
0000
,
0000
0000
0000
0000
1010
0000
0110
0000
0000
0000
1000
0010
1000
0001
0100
0001
,
0010
0100
1000
0001
0000
0000
0000
0001
,
0010
1000
0010
0001
0000
0100
0010
0010
,
1000
0001
0100
0010
1000
0001
0100
0001
0010
0000
0001
1000
0100
0000
0010
0001
,
1000
0100
1000
0001
1000
0000
0001
0000
0100
0001
1000
0001
0100
0010
1000
0001
,
1000
0100
0010
0100
0010
0001
1000
0001
0010
0100
1000
0001
1000
0100
0010
0001
,
0100
0010
1000
0001
0010
0000
0011
0000
0000
0000
0000
0000
0000
0000
0000
0000
,
0000
0000
0000
0000
0000
0000
0000
0000
0011
0000
0000
1100
0000
0000
0011
0000
,
0000
0000
0000
1001
0000
0001
1000
0010
,
0100
0001
0100
0110
0010
1000
0001
0100
,
0001
1000
0010
1010
1000
0001
0010
0100
,
0001
0100
0010
0001
1000
0100
1000
0001
,
0010
0000
0001
0000
0100
0000
0010
0000
1000
0001
0100
0010
0100
0000
0010
0000
,
0010
0000
1000
0000
0100
0000
0010
0000
0001
1000
0010
0100
0010
0000
0100
0000
,
0100
0000
0001
0000
0100
0000
0010
0000
1000
0000
0100
1000
0001
0000
0100
0000
,
0001
0000
1000
0000
0100
0000
0010
0000
0001
0000
1000
0100
1000
0000
0001
0000
,
0100
0010
0100
0010
1000
0001
1000
0001
1000
0000
0000
0000
1001
0000
1000
0000
,
0001
0100
0010
0110
0100
1000
0100
0001
,
0010
0001
0100
0101
0001
1000
0100
0001
,
1000
0010
0001
0100
0010
1000
0100
1000
,
0001
0000
0100
0000
0001
0000
1000
0000
0100
1000
0010
0100
0001
0000
0010
0000
,
0010
0000
1000
0000
0010
0000
0001
0000
0010
0001
0100
0010
1000
0000
0100
0000
,
0100
0001
0100
1000
0001
0100
0001
1000
,
0010
0000
0001
0000
0010
0000
0100
0000
0001
0000
0100
1000
0100
0000
0001
0000
,
0010
0100
1000
0000
0101
0000
1100
0000
,
0110
0000
0000
0000
0101
0000
0000
0000
0001
0000
1000
0100
1000
0000
0010
0000
,
0100
0000
0001
0010
0001
0000
0000
0000
0100
0000
0010
1000
0100
0000
0100
0010
,
0001
0000
1000
0010
0100
0001
0100
0010
1000
0100
0010
0001
1000
0000
0010
0000
,
1000
0000
0001
0000
0010
0000
0000
0000
0100
0000
1000
0100
1000
0000
0001
0000
,
0010
0000
0100
0000
0100
0000
0010
0000
0001
0000
0100
0010
0100
0000
0001
0000
,
1000
0000
0010
0000
0100
0000
0001
0000
1000
0000
0100
0010
0001
0000
0010
0000
,
0100
0000
0010
0000
0001
0000
1000
0000
0100
1000
0010
0100
0001
0010
0100
1000
,
0100
0010
0100
0010
0001
1000
0001
0000
0010
0000
0001
1000
0100
0000
0010
0000
,
0001
1000
0001
1000
0001
0000
0100
0000
0010
1000
0100
0010
0001
1000
0001
1000
,
0100
0000
0010
0000
0001
0000
1000
0000
0100
0000
0010
0001
0100
0000
0010
0000
,
1000
0000
1000
0000
0001
0000
0100
0000
0010
1000
0010
0100
0001
0100
0010
1000
,
0010
0000
0100
0001
0010
0000
0100
0000
1000
0000
0001
0100
0001
0000
0100
0000
,
0010
0000
0100
0000
0001
0000
0010
0000
0001
0000
1000
0010
1000
0000
0100
0000
,
1000
0000
0010
0000
0100
0000
0001
0000
0010
0000
0100
1000
0001
0000
0100
0000
,
0001
0000
0001
0000
0100
0000
0100
0000
0001
1000
0010
1000
0001
1000
0100
0010
,
0001
1000
0001
1000
0001
0010
0100
0000
1000
0000
0001
0010
0100
0000
0010
0000
,
0100
1000
0010
0100
0001
0000
1000
0000
0001
1000
0100
0010
0001
0100
0010
0100
,
0001
1000
0010
0100
0001
0100
1000
0100
,
0001
0000
0010
0000
0100
0000
1000
0000
0001
1000
0001
1000
0001
0100
0010
0100
,
0010
0000
0000
0000
0001
1000
1010
0000
,
0100
0010
0110
0000
1000
0001
0101
0000
,
0010
1000
1100
0000
0010
0001
0011
0000
,
0010
0000
0100
0000
1001
0000
0000
0000
0001
1000
0010
0100
0001
0100
0010
1000
,
0100
1000
0001
0010
0100
1000
0001
0100
0010
0100
0010
0100
0010
0000
0110
0000
,
0000
0000
0100
0000
0001
0000
1000
0000
0001
0100
0001
0100
0001
0000
0101
0000
,
0100
0000
0010
0000
1000
0000
0100
0010
0001
0000
0010
0000
0100
0000
1000
0100
,
0010
0000
0001
0000
0100
0000
0001
0000
0100
0000
0010
1000
0100
0000
0001
0000
,
0100
0000
1000
0000
0001
0000
0000
0000
0100
0000
0001
1000
0100
0000
0010
0000
,
0100
1000
0001
0100
0101
0101
1010
0101
,
0011
0000
0000
0000
;

//--------------- dance-single - Pax_Vesania (24ths) ----------------
#NOTES:
     dance-single:
     Pax_Vesania (24ths):
     Edit:
     18:
     0,0,0,0,0:
0000
0000
0000
0000
0010
1000
0001
1000
,
0100
0000
0000
0010
0000
0000
0100
0000
0000
0000
0100
0000
1000
0000
0001
0000
,
0010
0001
0100
0001
1000
0010
0100
1000
,
0100
0000
0000
0001
0000
0000
0010
0000
0000
0000
0100
0000
1000
0000
0001
0000
,
1000
0001
1000
0001
1000
0001
1000
0001
1000
0001
1000
0001
1000
0000
0000
0001
0000
0000
0010
0000
0000
0100
0000
0000
,
0010
0000
0000
0001
0000
0000
0100
0000
0000
0000
0010
0000
1000
0000
0100
0000
,
0001
0000
0100
0000
1000
0000
0001
0000
1000
0001
1000
0001
0100
0010
0100
0010
,
1000
0010
1000
0010
0100
0001
0100
0001
1000
0100
0000
0100
0010
0000
0100
0000
,
1000
0001
0010
0000
0100
0010
0110
0000
,
0010
0001
0011
0000
0010
0100
1100
0000
,
1000
0010
1010
0000
0100
0001
0101
0000
,
1000
0000
0001
0000
1001
0000
0000
0000
0001
0100
0010
1000
0001
0010
0100
1000
,
0001
1000
0001
0010
0100
1000
0100
0010
0001
0010
0001
0010
0001
0000
0011
0000
,
0000
0000
0000
0000
0000
0000
0000
0000
0100
1000
0100
1000
0100
0000
1100
0000
,
0000
0000
0000
0000
0000
0000
0001
0100
0010
0000
0100
0000
0000
0000
0001
0100
,
0010
0000
0100
0000
0001
0000
1000
0000
0100
0000
0100
0010
0001
0000
0010
0100
,
1000
0000
0100
0010
0001
0000
0100
0000
0001
0000
1000
0010
1000
0000
0001
0000
,
0010
0000
0100
0000
1000
0100
1000
0001
1000
0000
0000
0101
0000
0000
1010
0000
,
0010
0000
1000
0000
1000
0000
0100
0000
0010
0000
0001
1000
0100
0000
1000
0001
,
0010
0100
1000
0001
1000
0010
1000
0100
1000
0000
0000
1100
0000
0000
0011
0000
,
0001
0000
0100
0000
0010
1000
0001
1000
0001
0100
0000
0001
0100
0000
0010
0000
,
1000
0100
1000
0001
0100
0001
1000
0001
0010
0100
1000
0001
0010
0000
0010
0000
,
0100
1000
0010
0100
0001
0010
0001
1000
0100
0010
0001
1000
0001
0000
0010
0000
,
0100
0010
0001
1000
0100
0000
1000
0000
0001
0000
1000
0000
0001
0000
0100
0000
,
0001
1000
0001
1000
0001
1000
0001
1000
0001
0000
1000
0100
0010
0000
0001
0000
,
0010
0000
0100
0000
1000
0000
0001
0000
0101
0000
0000
1010
0000
0000
0011
0000
,
0001
0000
1000
0000
0010
0000
0100
0000
0010
0000
1000
0010
0100
0000
0001
0100
,
0010
0000
0100
0010
0100
0001
0010
0100
1000
0000
0000
1010
0000
0000
0011
0000
,
0001
0000
0100
0010
0100
0010
0100
0001
1000
0010
0000
0100
0001
0000
0010
0000
,
0100
1000
0100
0010
0100
0010
0001
1000
0010
1000
0010
0100
0001
0000
0010
0000
,
0100
1000
0001
1000
0100
0000
0010
0000
0001
1000
0100
0010
0001
0000
0100
0000
,
0010
1000
0100
0010
0001
0000
1000
0000
0100
0001
0000
0100
1000
0000
0001
0000
,
0010
0000
0000
0000
0200
0000
0300
0000
1000
0010
0100
0001
0000
0000
0010
0000
,
0000
0010
0000
0000
0001
0000
0001
0000
1000
0000
0000
0010
0000
0000
0010
0000
,
0000
0000
0100
0000
0100
0000
0010
0000
1000
0000
0000
0100
0000
0000
1000
0000
,
0001
0001
0100
0100
0001
0001
1000
1000
,
0001
0000
0000
0000
0000
0000
1000
0000
0001
0000
1000
0000
0001
0000
1000
0000
0001
0000
1000
0000
0001
0000
1000
0000
0100
0000
0000
0010
0000
0000
0001
0000
0000
0010
0000
0000
0001
0000
0000
0000
0000
0000
0010
0000
0000
0000
0000
0000
,
0100
0100
1000
0001
0010
0100
0001
0100
,
1000
0000
0010
0000
0100
0000
0001
0000
0001
0100
0010
1000
0010
0100
0001
0010
,
0001
1000
0100
0010
0100
1000
0100
0010
0001
0000
0000
1001
0000
0000
0110
0000
,
0000
0000
0000
1100
0000
0100
1000
0100
,
0010
0001
0100
0101
0001
0100
0010
1000
,
0001
0010
0100
0110
0010
0001
0100
1000
,
0100
0010
1000
1010
1000
0100
0010
0100
,
1000
0000
0000
0100
0000
0000
0001
0000
0000
0100
0000
0000
1000
0100
0010
0001
0010
0100
1000
0000
0000
0001
0000
0000
,
0001
0000
0000
0100
0000
0000
0001
0000
0000
1000
0000
0000
0001
0010
0100
1000
0100
0010
0001
0000
0000
1000
0000
0000
,
1000
0010
0001
0010
0100
0001
0100
0010
,
0100
0000
1000
0000
0100
0000
0010
0000
1000
0000
0100
0010
0100
0000
0001
0000
,
0100
1000
0001
0101
0000
0100
0010
0100
,
0001
1000
0010
1010
1000
0001
0100
0010
,
0001
0010
0100
0101
0001
0010
1000
0001
,
0100
1000
0010
1000
0001
1000
0010
0001
,
0010
0000
0000
1000
0000
0000
1000
0000
0000
0001
0000
0000
1000
0100
0010
0001
1000
0100
0010
0000
0000
0001
0000
0000
,
0010
0000
0000
0100
0000
0000
1000
0000
0000
1000
0000
0000
0001
0010
0100
1000
0001
0010
0100
0000
0000
1000
0000
0000
,
0100
0010
0001
0010
0100
1000
0100
0010
,
1000
0000
0010
0000
0001
0000
0100
0000
0010
0000
0100
0001
0100
0000
1000
0000
,
0100
0000
0001
0000
0010
0000
0100
0000
1000
0000
0100
1000
0001
0000
0010
0000
,
0001
0000
0100
0000
0010
0000
0010
0000
1000
0000
0001
1000
0100
0000
0010
0000
,
0100
0000
0001
0000
0100
0000
0100
0000
0010
0000
0001
0100
0010
0000
1000
0000
,
0100
1000
0001
0001
0100
0010
1000
0001
,
1000
0010
1000
0001
1000
0010
1000
0001
1000
0000
0010
0000
0010
0000
0100
0000
,
0001
0000
0001
0000
0100
0000
0001
0010
0100
0010
0001
1000
0100
0010
0100
0010
,
0001
1000
0010
0100
0001
0000
0100
0000
0010
0000
0010
0000
1000
0000
0100
0000
,
0100
0000
0001
0000
0100
0000
0100
0000
1000
0000
0001
0010
0001
0000
0000
0000
,
0100
0010
0100
0010
1000
0001
1000
0001
1000
0000
0001
0100
0001
0000
0010
0000
,
0000
0000
0100
0000
1000
0000
0010
0000
0001
0000
1000
0000
0100
0000
0001
0010
,
0000
0000
0100
0000
0001
0000
0100
0000
1000
0000
0001
0100
0001
0000
0100
0000
,
0001
0100
0010
1000
0100
0001
0100
0022
,
0033
0000
0010
0000
0010
0000
0100
0000
1000
0100
1000
0001
0010
0000
0100
0010
,
0001
0000
1000
0000
0100
1000
0010
0100
0001
0000
0000
0010
0000
0000
0002
0000
,
0000
0000
0000
0000
0003
0000
0100
0000
0100
0000
0001
0100
0001
0000
0100
0000
,
0010
1000
0100
0010
0002
0000
0000
0000
,
0000
0000
0003
0011
0000
0000
0000
0000
,
0000
0000
0000
0000
1010
0000
0110
0000
0000
0000
1000
0010
1000
0001
0100
0001
,
0010
0100
1000
0001
0000
0000
0000
0001
,
0010
1000
0010
0001
0000
0100
0010
0010
,
1000
0001
0100
0010
1000
0001
0100
0001
0010
0000
0001
1000
0100
0000
0010
0001
,
1000
0100
1000
0001
1000
0000
0001
0000
0100
0001
1000
0001
0100
0010
1000
0001
,
1000
0100
0010
0100
0010
0001
1000
0001
0010
0100
1000
0001
1000
0100
0010
0001
,
0100
0010
1000
0001
0010
0000
0011
0000
0000
0000
0000
0000
0000
0000
0000
0000
,
0000
0000
0000
0000
0000
0000
0000
0000
0011
0000
0000
1100
0000
0000
0011
0000
,
0000
0000
0000
1001
0000
0001
1000
0010
,
0100
0001
0100
0110
0010
1000
0001
0100
,
0001
1000
0010
1010
1000
0001
0010
0100
,
0001
0100
0010
0001
1000
0100
1000
0001
,
0010
0000
0000
0001
0000
0000
0100
0000
0000
0010
0000
0000
1000
0100
0010
0001
1000
0001
1000
0000
0000
0010
0000
0000
,
0010
0000
0000
1000
0000
0000
0100
0000
0000
0010
0000
0000
0001
0010
0100
1000
0001
1000
0001
0000
0000
0100
0000
0000
,
0100
0000
0001
0000
0100
0000
0010
0000
1000
0000
0100
1000
0001
0000
0100
0000
,
0001
0000
1000
0000
0100
0000
0010
0000
0001
0000
1000
0100
1000
0000
0001
0000
,
0100
0010
0100
0010
1000
0001
1000
0001
1000
0000
0000
0000
1001
0000
1000
0000
,
0001
0100
0010
0110
0100
1000
0100
0001
,
0010
0001
0100
0101
0001
1000
0100
0001
,
1000
0010
0001
0100
0010
1000
0100
1000
,
0001
0000
0000
0100
0000
0000
0001
0000
0000
1000
0000
0000
0100
1000
0100
0010
0001
0010
0001
0000
0000
0010
0000
0000
,
0010
0000
0000
1000
0000
0000
0010
0000
0000
0001
0000
0000
0010
0001
0010
0100
1000
0100
1000
0000
0000
0100
0000
0000
,
0100
0001
0100
1000
0001
0100
0001
1000
,
0010
0000
0001
0000
0010
0000
0100
0000
0001
0000
0100
1000
0100
0000
0001
0000
,
0010
0100
1000
0000
0101
0000
1100
0000
,
0110
0000
0000
0000
0101
0000
0000
0000
0001
0000
1000
0100
1000
0000
0010
0000
,
0100
0000
0001
0010
0001
0000
0000
0000
0100
0000
0010
1000
0100
0000
0100
0010
,
0001
0000
1000
0010
0100
0001
0100
0010
1000
0100
0010
0001
1000
0000
0010
0000
,
1000
0000
0001
0000
0010
0000
0000
0000
0100
0000
1000
0100
1000
0000
0001
0000
,
0010
0000
0100
0000
0100
0000
0010
0000
0001
0000
0100
0010
0100
0000
0001
0000
,
1000
0000
0010
0000
0100
0000
0001
0000
1000
0000
0100
0010
0001
0000
0010
0000
,
0100
0000
0010
0000
0001
0000
1000
0000
0100
1000
0010
0100
0001
0010
0100
1000
,
0100
0010
0100
0010
0001
1000
0001
0000
0010
0000
0001
1000
0100
0000
0010
0000
,
0001
1000
0001
1000
0001
0000
0100
0000
0010
1000
0100
0010
0001
1000
0001
1000
,
0100
0000
0010
0000
0001
0000
1000
0000
0100
0000
0010
0001
0100
0000
0010
0000
,
1000
0000
1000
0000
0001
0000
0100
0000
0010
1000
0010
0100
0001
0100
0010
1000
,
0010
0000
0100
0001
0010
0000
0100
0000
1000
0000
0001
0100
0001
0000
0100
0000
,
0010
0000
0100
0000
0001
0000
0010
0000
0001
0000
1000
0010
1000
0000
0100
0000
,
1000
0000
0010
0000
0100
0000
0001
0000
0010
0000
0100
1000
0001
0000
0100
0000
,
0001
0000
0001
0000
0100
0000
0100
0000
0001
1000
0010
1000
0001
1000
0100
0010
,
0001
1000
0001
1000
0001
0010
0100
0000
1000
0000
0001
0010
0100
0000
0010
0000
,
0100
1000
0010
0100
0001
0000
1000
0000
0001
1000
0100
0010
0001
0100
0010
0100
,
0001
1000
0010
0100
0001
0100
1000
0100
,
0001
0000
0010
0000
0100
0000
1000
0000
0001
1000
0001
1000
0001
0100
0010
0100
,
0010
0000
0000
0000
0001
1000
1010
0000
,
0100
0010
0110
0000
1000
0001
0101
0000
,
0010
1000
1100
0000
0010
0001
0011
0000
,
0010
0000
0100
0000
1001
0000
0000
0000
0001
1000
0010
0100
0001
0100
0010
1000
,
0100
1000
0001
0010
0100
1000
0001
0100
0010
0100
0010
0100
0010
0000
0110
0000
,
0000
0000
0100
0000
0001
0000
1000
0000
0001
0100
0001
0100
0001
0000
0101
0000
,
0100
0000
0010
0000
1000
0000
0100
0010
0001
0000
0010
0000
0100
0000
1000
0100
,
0010
0000
0001
0000
0100
0000
0001
0000
0100
0000
0010
1000
0100
0000
0001
0000
,
0100
0000
1000
0000
0001
0000
0000
0000
0100
0000
0001
1000
0100
0000
0010
0000
,
0100
1000
0001
0100
0101
0101
1010
0101
,
0011
0000
0000
0000
;
