#TITLE:最強女神†ウーサペコラ;
#SUBTITLE:;
#ARTIST:兎田ぺこら;
#TITLETRANSLIT:Saikyou Megami†Uusa Pekora;
#SUBTITLETRANSLIT:;
#ARTISTTRANSLIT:Usada Pekora;
#GENRE:;
#CREDIT:;
#MUSIC:Saikyou Megami†Uusa Pekora.ogg;
#BANNER:;
#BACKGROUND:;
#CDTITLE:;
#SAMPLESTART:79.973;
#SAMPLELENGTH:18.162;
#SELECTABLE:YES;
#OFFSET:0.135;
#BPMS:0.000=185.000;
#STOPS:;
#BGCHANGES:;
#FGCHANGES:;

//--------------- dance-single - Pax_Vesania ----------------
#NOTES:
     dance-single:
     Pax_Vesania:
     Beginner:
     4:
     0,0,0,0,0:
0000
0000
0000
0000
,
0000
0000
0000
0000
,
0000
0000
0000
0000
,
0000
0000
0000
0000
,
0000
0000
0000
0000
,
0000
0000
0000
0000
,
0000
0000
0000
0000
,
0000
0000
0000
0000
,
0000
0000
0000
0000
,
0000
0000
0000
0000
,
0000
0000
0000
0000
,
0000
0000
0000
0000
,
0000
0000
0000
0000
,
0000
0000
0000
0100
,
0000
0000
0000
0010
,
0000
0000
0000
1000
,
0000
1000
0000
0001
,
0000
0001
0000
1000
,
0000
0000
0000
0100
,
0000
0000
0000
1000
,
0000
1000
0000
0001
,
0000
0001
0000
0001
,
0000
0000
0100
0000
,
0100
0000
0100
0000
,
0010
0000
0010
0000
,
0010
0000
0000
0000
,
1000
0000
1000
0000
,
1000
0000
0100
0000
,
0100
0000
0100
0000
,
0000
0000
0000
0002
,
0000
0000
0000
0000
0000
0000
0000
0003
0000
0000
0000
0000
0002
0000
0000
0000
,
0000
0000
0000
0000
0000
0000
0000
0003
0000
0000
0000
0000
0100
0000
0000
0000
,
0000
0100
0000
0010
,
0000
0010
0000
2000
,
0000
0000
0000
0000
0000
0000
0000
3000
0000
0000
0000
0000
2000
0000
0000
0000
,
0000
0000
0000
0000
0000
0000
0000
3000
0000
0000
0000
0000
0001
0000
0000
0000
,
0000
0001
0000
0000
,
0000
0000
0000
0100
,
0000
0100
0000
0010
,
0000
0010
0000
0000
,
0000
0000
0000
0000
,
0000
0000
0000
1000
,
0000
1000
0000
0001
,
0000
0001
0000
0000
,
0000
0000
0000
0000
,
0000
0000
0020
0000
0000
0030
0010
0000
,
0000
0010
0000
0100
,
0000
0100
0000
0000
,
0000
0000
0000
0000
,
0000
0000
0000
0001
,
0000
0001
0000
0100
,
0000
0100
0000
0000
,
0000
0000
0000
0000
,
0000
0000
0000
1000
,
0000
1000
0000
1000
,
0000
1000
0000
0100
,
0000
0100
0000
0100
,
0000
0100
0000
0010
,
0000
0010
0000
0001
,
0000
0001
0000
0000
,
0000
0000
0000
0000
,
0000
0000
0000
0100
,
0000
0100
0000
1000
,
0000
1000
0000
0010
,
0000
0010
0000
0001
,
0000
0001
0000
0002
,
0000
0000
0000
0000
,
0000
0000
0000
0003
0200
0000
0000
0000
0000
0000
0000
0000
0300
0000
0000
0000
,
0100
0000
0000
0000
,
0000
0000
0000
0001
,
0000
0001
0000
1000
,
0000
1000
0000
0100
,
0000
0100
0000
0010
,
0000
0010
0000
0001
,
0000
0001
0000
0010
,
0000
0010
0000
1000
,
0000
0100
0000
1000
,
0000
0001
0000
0020
,
0000
0030
0002
0000
0000
0003
0001
0000
,
0000
0000
0000
0100
,
0000
0000
0000
0010
,
0000
0000
0000
1000
,
0000
1000
0000
0001
,
0000
0001
0000
0010
,
0000
0000
0000
0100
,
0000
0000
0000
1000
,
0000
1000
0000
0001
,
0000
0001
0000
0100
,
0000
0100
0000
0010
,
0000
0010
0000
1000
,
0000
1000
0000
0001
,
0000
0001
0000
1000
,
0000
0001
0000
0100
,
0000
0010
0000
2000
,
0000
0000
0000
3000
0002
0000
0000
0000
0000
0000
0000
0003
0000
0000
0000
0000
,
0000
0000
0000
1001
,
0000
1001
0000
1001
,
0000
1001
0000
1001
,
0000
1001
0000
1000
,
0000
0001
0000
1001
,
0000
1001
0000
1001
,
0000
1001
0000
1001
,
0000
1001
0000
0000
,
0000
0000
0000
1000
,
0000
1001
0000
0001
,
0000
1001
0000
1000
,
0000
1001
0000
0001
,
0000
1001
0000
2000
,
0000
0000
0000
0000
0000
0000
0000
0000
0000
0000
0000
3000
0200
0000
0000
0000
,
0000
0000
0000
0300
0020
0000
0000
0000
0000
0000
0000
0030
0002
0000
0000
0000
,
0000
0000
2000
0000
0000
3003
1001
0000
;

//--------------- dance-single - Pax_Vesania ----------------
#NOTES:
     dance-single:
     Pax_Vesania:
     Easy:
     8:
     0,0,0,0,0:
0000
0000
0000
0000
,
0000
0000
0000
0000
,
0000
0000
0000
0000
,
0000
0000
0000
0000
,
0000
0000
0000
0000
,
0000
0000
0000
0000
,
0000
0000
0000
0000
,
0000
0000
0000
0000
,
0000
0000
0000
0000
,
0000
0000
0000
0000
,
0000
0000
0000
0000
,
0000
0000
0000
0000
,
0000
0000
0000
0000
,
0000
0000
0000
1000
,
1000
0010
0010
0100
,
0100
0001
0001
1000
,
1000
0001
0001
1001
,
0000
0110
0000
0100
,
0100
0010
0010
1000
,
1000
0001
0001
0100
,
0100
0010
0010
0110
,
0000
1001
0000
1000
,
0010
0100
0001
0000
,
1000
0010
1000
0000
,
0001
0100
0001
0000
,
0010
0100
0100
0000
,
1000
0001
0010
0000
,
0001
1000
0100
0000
,
0010
0100
1000
0000
,
0001
0010
0001
0200
,
0000
0000
0000
0000
0000
0000
0000
0300
0010
0000
0000
0000
0020
0000
0000
0000
,
0000
0000
0000
0000
0000
0000
0000
0030
1000
0000
0000
0000
0001
0000
0000
0000
,
0001
0000
0100
0010
0000
0010
0000
0000
,
2000
0000
0000
3000
0200
0000
0000
0300
0020
0000
0000
0030
0002
0000
0000
0000
,
0000
0000
0000
0000
0000
0000
0000
0003
1000
0000
0000
0000
2000
0000
0000
0000
,
0000
0000
0000
0000
0000
0000
0000
3000
0000
0000
0000
0000
0010
0000
0000
0000
,
0010
0000
1000
0001
0000
0001
0000
0000
,
0000
0000
0000
0110
,
0000
1001
0000
0110
,
0000
0001
1000
0001
,
0001
1000
1000
0100
,
0100
0010
0010
0110
,
0000
1001
0000
0110
,
0000
0001
0001
0100
,
0000
0000
0010
0000
1000
0100
0000
0100
,
0010
0001
0001
1001
,
0000
0110
0000
1001
,
0000
0010
0010
1000
,
1000
0010
0010
0100
,
0100
0001
0001
1001
,
0000
0110
0000
1001
,
0000
0001
0001
1000
,
0000
0000
0010
0000
0100
0010
0000
0010
,
1000
0001
0001
1000
,
1000
0010
0010
0100
,
0100
0001
0001
1000
,
1000
0100
0100
0010
,
0010
0001
0001
1000
,
0001
0010
0100
0010
,
0001
0000
1000
0000
0100
0000
1000
1000
,
0000
0010
0010
0000
0100
0000
0001
0000
,
0000
0000
0000
1000
,
0100
0001
0010
1000
,
0100
0010
0000
0100
,
1000
0001
0010
0001
,
0100
0010
0000
1000
,
0001
0100
0001
1000
,
0010
0100
0000
0001
,
0010
0000
0001
0001
0000
1000
0000
1000
,
0010
0010
0000
0100
,
0010
1000
0001
0010
,
0100
0010
0000
0001
,
0100
1000
0100
0001
,
0010
0100
0000
1000
,
0010
0001
0010
1000
,
0100
0010
0000
0100
,
0100
1000
1000
0001
,
0001
0100
0100
0010
,
1000
0100
0010
0001
,
0000
0000
0000
1000
,
0010
1000
0010
0100
,
0010
0100
0001
0100
,
0010
1000
0001
0010
,
0100
0010
0000
0000
0000
0000
0001
0000
,
0100
0001
0100
0010
,
1000
0010
0100
0001
,
1000
0100
0010
0100
,
0010
0001
0000
0000
0000
0000
1000
0000
,
0000
1001
0000
0001
,
0000
1001
0000
0100
,
0000
0110
0000
0010
,
0000
0110
0000
0001
,
0001
1000
1000
0010
,
0010
0100
0100
0001
,
0010
0001
0000
0100
0010
0000
0010
0000
,
0000
0000
0000
1001
,
0000
1001
0000
0110
,
0000
0110
0000
1001
,
0000
1001
0000
0100
,
0100
0010
0010
0110
,
0000
0110
0000
1001
,
0000
1001
0000
0110
,
0000
1001
0000
0110
,
0000
0000
0000
1010
,
1010
1010
1010
1010
,
1010
0000
1010
0000
2020
3030
0101
0000
,
0101
0101
0101
0101
,
0101
0000
0202
0000
0000
0303
0001
0000
,
0001
1000
1000
0001
,
0001
0100
0100
0010
,
0010
0000
0100
0100
0200
0000
0310
0000
,
0000
0000
0000
0000
0000
0000
0000
0000
0000
0000
0000
0000
2000
0000
0000
3000
,
0020
0000
0000
0030
0200
0000
0000
0300
0002
0000
0000
0003
0020
0000
0000
0030
,
0200
0000
0000
0300
2000
0000
0000
3000
0002
0000
0000
0003
0100
0000
0000
0000
,
0010
1000
0100
0010
;

//--------------- dance-single - Pax_Vesania ----------------
#NOTES:
     dance-single:
     Pax_Vesania:
     Medium:
     11:
     0,0,0,0,0:
0000
0000
0000
0000
,
0000
0000
0000
0000
,
0000
0000
0000
0000
,
0000
0000
0000
0000
,
0000
0000
0000
0000
,
0000
0000
0000
0000
,
0000
0000
0000
0000
,
0000
0000
0000
0000
,
0000
0000
0000
0000
,
0000
0000
0000
0000
,
0000
0000
0000
0000
,
0000
0000
0000
0000
,
0000
0000
0000
0000
0000
0000
1000
0010
,
1000
0010
0100
0001
0010
0000
0100
0000
,
0100
0000
1000
0000
0010
0000
0000
0100
0000
0000
0100
0000
0001
0000
0000
0000
,
0001
0000
1000
0000
0100
0000
0000
0010
0000
0000
0010
0000
0100
0000
1000
0000
,
0001
0000
0000
0000
0100
0000
0010
0000
1000
0000
0002
0000
0000
0003
1000
0000
,
0100
0000
0020
0000
0000
0000
0000
0030
0000
0000
0000
0000
0100
0000
0000
0000
,
0100
0000
1000
0000
0010
0000
0000
0100
0000
0000
0100
0000
0010
0000
0000
0000
,
0010
0000
0100
0000
0001
0000
0000
0010
0000
0000
0010
0000
0001
0000
1000
0000
,
0001
0000
0000
0000
0100
0000
0010
0000
0100
0000
0002
0000
0000
0003
1000
0000
,
0010
0000
0200
0000
0000
0000
0000
0300
0000
0000
0000
0000
1001
0000
0000
0000
,
0001
0000
1000
0100
0010
0000
0110
0000
,
0010
0000
0001
0100
0010
0000
0101
0000
,
0100
0000
0010
1000
0100
0000
1100
0000
,
0100
0000
0010
0001
0100
0000
1001
0000
,
1000
0000
0100
0010
0001
0000
0011
0000
,
0001
0000
0100
0010
0100
0000
0101
0000
,
0100
0000
0010
1000
0010
1000
0000
0001
,
0001
0100
0001
0000
0010
0000
0200
0000
,
0000
0000
0000
0000
0000
0000
0000
0300
2000
0000
0000
3000
0020
0000
0000
0000
,
0000
0000
0000
0000
0000
0000
0000
0030
0200
0000
0000
0300
0002
0000
0000
0003
,
0020
0000
0000
0030
0001
0000
0020
0000
0000
0030
0200
0000
0000
0000
0000
0300
,
1000
1000
0010
0010
0100
0100
0001
0000
,
1000
1000
0001
1000
,
0010
0010
0100
0010
,
1000
0000
0100
0010
0000
1001
0000
0000
,
0000
0000
0000
0001
,
0100
1000
0100
0001
,
0010
0000
0100
0100
1000
0000
0010
0000
,
0100
1000
0100
0001
,
0010
0000
0001
0001
0100
0000
0010
0000
,
1000
0010
0001
0010
,
1000
0000
0010
0010
1000
0100
0010
0000
,
0100
0000
1000
0000
0001
0010
0000
0001
,
1000
0010
0100
0001
,
0010
0100
0001
0100
,
1000
0000
0001
0001
0100
0000
0010
0000
,
1000
0010
0100
1000
,
0100
0000
0010
0010
0100
0000
0001
0000
,
0010
1000
0010
0001
,
1000
0000
0001
0001
1000
0010
0100
0000
,
0001
0000
0100
0000
0010
0001
0000
0010
,
1000
0001
0010
0000
0001
0000
0100
0000
,
0010
1000
0010
0001
,
1000
0100
0001
0100
,
1000
0100
0010
1000
,
0100
0000
0010
0000
0001
0000
1000
0010
,
0100
0001
0010
0000
0001
0010
0100
1000
,
0001
1000
0100
0010
0001
0000
0000
0000
,
0000
0000
0000
0000
,
0000
0000
0000
0000
0000
0000
1000
0100
,
1000
0000
0001
0100
0001
0000
1000
0010
,
1000
0000
0001
0010
0001
0000
0010
0001
,
0100
0000
0010
1000
0100
0000
1000
0001
,
0010
0001
0100
0000
0010
0000
1000
0001
,
1000
0000
0010
0100
0010
0000
0100
0001
,
0100
0000
0010
1000
0010
0000
1000
0001
,
1000
0010
0100
0001
0000
0010
0000
0001
,
0001
0100
0010
0000
0000
0000
1000
0100
,
0010
0000
0001
0010
0100
0000
1000
0010
,
0100
0000
0001
0100
0010
0000
0100
0001
,
1000
0000
0001
0010
0100
0000
1000
0100
,
1000
0001
0010
0000
0001
0000
1000
0010
,
0001
0000
0010
1000
0001
0000
1000
0100
,
0001
0000
0100
1000
0001
0000
0100
0000
,
0001
1000
0010
0100
,
0001
0000
1000
0001
0100
0010
1000
0100
,
1000
0000
0100
1000
0010
0100
0001
0000
,
0000
0000
0000
0000
0000
0000
1000
0010
,
1000
0000
0010
0000
0100
0000
0000
0001
0000
0000
0100
0000
0001
0000
0100
0000
,
0010
0000
1000
0000
0001
0000
0000
0010
0000
0000
0100
0000
1000
0000
0001
0000
,
0010
0000
0000
0000
0100
0000
1000
0000
0001
0000
2000
0000
0000
3000
0100
0000
,
0010
0000
0002
0000
0000
0000
0000
0003
0000
0000
0000
0000
0100
0000
0010
0000
,
0100
0000
0001
0000
1000
0000
0000
0001
0000
0000
0100
0000
0010
0000
1000
0000
,
0001
0000
0010
0000
0100
0000
0000
0010
0000
0000
0001
0000
0001
0000
0100
0000
,
0010
0000
0000
0000
1000
0000
0010
0000
1000
0000
0002
0000
0000
0003
1000
0000
,
0100
0000
0020
0000
0000
0000
0000
0030
0000
0000
0000
0000
0011
0000
0000
0000
,
0000
1100
0000
0011
,
0000
1100
0000
0101
,
0000
1010
0000
0101
,
0000
1010
0000
1000
,
1010
0010
0110
0100
,
0101
0000
0001
0000
0011
0000
0001
1000
,
0001
1000
0100
0100
0010
0010
0000
0000
,
0000
0000
0000
1100
,
1100
1010
1010
0110
,
0110
0101
0101
0011
,
0011
1100
1100
1001
,
1001
0110
0110
0011
,
0101
0011
0101
0110
,
1010
0110
1010
1100
,
1001
1100
1001
0000
,
0000
0000
0000
1010
,
1100
0110
0101
0011
,
0101
0011
1001
0110
,
1001
1100
0110
0011
,
1010
0110
0101
0100
,
0110
0010
1010
1000
,
1001
0000
0001
0000
0011
0000
0001
0001
,
1000
1000
0010
0010
0200
0000
0301
0000
,
0000
0000
0000
0000
0000
0000
0000
0000
0000
0000
0000
0000
2000
0000
0000
3000
,
0020
0000
0000
0030
0002
0000
0000
0003
2000
0000
0000
3000
0200
0000
0000
0300
,
0002
0000
0000
0003
0200
0000
0000
0300
0002
0000
0000
0003
0010
0000
0000
0000
,
0100
1000
0001
0100
;

//--------------- dance-single - Pax_Vesania ----------------
#NOTES:
     dance-single:
     Pax_Vesania:
     Hard:
     14:
     0,0,0,0,0:
0000
0000
0000
0000
,
0000
0000
0000
0000
,
0000
0000
0000
0000
,
0000
0000
0000
0000
,
0000
0000
0000
0000
,
0000
0000
0000
0000
,
0000
0000
0000
0000
,
0000
0000
0000
0000
,
0000
0000
0000
0000
,
0000
0000
0000
0000
,
0000
0000
0000
0000
,
0000
0000
0000
0001
,
0000
0000
1000
0000
0000
0000
1000
0010
,
0100
0001
1000
0100
0010
0000
0001
0010
,
0001
0000
1000
0000
0100
0000
0000
0010
0000
0000
0010
0000
0100
0000
1000
0000
,
0001
0000
1000
0000
0100
0000
0000
0010
0000
0000
0010
0000
0001
0000
0100
0000
,
0010
1000
0100
0010
0001
1000
0010
1000
,
0001
0100
0001
0001
0100
0100
0010
1000
,
0100
0000
1000
0000
0001
0000
0000
0010
0000
0000
0010
0000
0100
0000
1000
0000
,
0010
0000
0100
0000
0001
0000
0000
0010
0000
0000
0010
0000
0001
0000
1000
0000
,
0100
0000
0010
0000
0100
0000
0000
1000
0000
0000
0010
0000
0000
0000
0100
0000
,
0010
0100
0001
0100
1000
0100
0001
0010
,
0100
0010
0001
0010
1000
0010
0001
0100
,
0010
1000
0100
0010
0100
1000
0001
0100
,
1000
0100
0001
0010
0100
0001
0100
0010
,
0001
1000
0100
0010
1000
0010
0100
1000
,
0001
0100
0010
1000
0001
1000
0100
0010
,
0100
1000
0001
0010
0100
0010
0001
1000
,
0010
0001
0010
1000
0100
0001
0100
1000
,
0001
1000
0010
1000
0100
0010
0001
0100
,
0010
0100
0001
0010
0100
1000
0000
1000
,
0100
0010
0000
1000
0100
0010
0000
0001
,
0010
0100
0000
1000
0000
0001
0000
0100
,
0010
0100
0010
0000
1000
0000
0001
0000
,
1001
0110
0001
1000
,
0110
1001
1000
1100
,
1010
0000
0100
0110
0000
0101
0000
0000
,
0001
1000
0001
0000
1001
0000
0100
0001
,
0100
0010
1000
0010
1000
0100
1000
0001
,
0010
0000
0001
0000
0100
0000
0010
1000
0010
0000
0100
0000
0001
0000
0010
0000
,
0100
0010
0100
1000
0001
1000
0010
0001
,
1000
0000
0100
0000
0001
0000
1000
0001
1000
0000
0100
0000
0010
0000
0001
0000
,
0010
0001
1000
0100
1000
0100
0001
0100
,
0010
0000
0001
0000
0100
0000
0001
1000
0001
0000
1000
0000
1100
0000
0000
0000
,
1100
0000
0101
0000
1000
1010
0000
0001
,
0011
0000
1000
0000
0100
0000
0010
0001
,
1000
0100
0010
0100
0001
0100
1000
0001
,
0100
0000
1000
0000
0100
0000
0001
0010
0001
0000
0100
0000
0010
0000
1000
0000
,
0010
1000
0001
0100
0001
0100
0010
1000
,
0100
0000
0010
0000
0001
0000
1000
0100
1000
0000
0010
0000
0100
0000
0001
0000
,
0100
0010
1000
0010
1000
0100
0001
0100
,
1000
0000
0010
0000
0100
0000
0001
0010
0001
0000
1000
0000
1010
0000
0000
0000
,
1100
0000
0011
0000
1000
1001
0000
0010
,
1000
0100
0001
0001
0100
0100
1000
0100
,
0010
0000
0001
0010
0100
0000
1000
0010
,
0100
0000
0001
0100
0010
0000
1000
0010
,
0001
0000
1000
0100
0001
0000
0010
0100
,
1000
0000
0001
0010
0100
0000
1000
0001
,
0010
0001
1000
0100
0001
0100
0010
0001
,
0100
0010
1000
0001
0010
0000
0001
0101
,
0000
0101
1010
0000
1100
0000
0011
0000
,
1000
0000
0001
0000
0020
0000
0000
0000
0000
0030
0000
0000
0001
0000
0100
0000
,
1000
0100
0001
0010
0100
0010
0001
0010
,
1000
0010
0100
0001
0100
1000
0001
0100
,
0001
0100
0010
1000
0010
1010
0000
1000
,
0010
0000
0100
0000
0001
0010
0001
0000
1000
0100
1000
0000
0010
0000
0100
0000
,
0010
0100
0001
1000
0001
1000
0010
0100
,
1000
0100
0001
0010
1000
0010
0001
1000
,
0100
0000
0010
0000
0001
0000
1001
0000
0000
0000
0110
0000
0000
0000
0100
0001
,
1000
0000
1010
0000
0101
0000
0000
0000
1001
0000
0000
0000
0001
1000
0100
0000
,
0010
0000
0001
0000
1000
0001
0010
0000
0100
0000
1000
0000
0001
0100
0010
0000
,
1000
0000
0100
0000
1000
0000
0001
0100
0001
0000
0010
0000
0100
0000
1000
0000
,
0100
1000
0001
0010
0001
0011
0000
1000
,
0010
0000
1000
0000
0001
0000
0010
0100
1000
0000
0010
0000
1000
0000
0010
0000
,
0001
0010
1000
0100
0001
0100
1000
0001
,
0100
0000
0010
0000
0100
0000
0001
0010
0100
0000
0010
0000
0001
0000
0010
0001
,
1000
0000
0100
0000
0010
0000
0100
1000
0001
0000
0100
0000
0001
0000
1000
0100
,
0010
0100
0010
0001
0100
0010
1000
0010
,
0001
1000
0100
0001
0100
0010
0001
0000
,
0000
0000
0000
0000
1000
0000
0000
0000
0001
1000
0001
1000
0001
0000
0100
0000
,
0010
0000
1000
0000
0100
0000
0000
0100
0000
0000
0010
0000
0001
0000
1000
0000
,
0100
0000
1000
0000
0001
0000
0000
0010
0000
0000
0010
0000
0100
0000
1000
0000
,
0001
0010
1000
0001
0100
1000
0001
1000
,
0100
0000
1000
0000
0001
0000
0010
0000
0001
0100
0001
0100
0001
0000
0100
0000
,
0010
0000
1000
0000
0100
0000
0000
0001
0000
0000
0001
0000
0100
0000
1000
0000
,
0001
0000
0100
0000
0001
0000
0000
0010
0000
0000
0010
0000
0100
0000
1000
0000
,
0010
0100
0001
0010
1000
0010
0100
1000
,
0001
0000
0010
0000
0001
0000
1000
0010
1000
0010
1000
0000
1010
0000
0000
0000
,
1000
1100
0100
0101
,
0001
0011
1000
1100
,
0001
0101
1000
1100
,
0001
0011
1000
1001
,
0110
1001
0011
1100
,
0011
0000
0101
0000
1010
0000
1000
0100
,
1000
0000
0001
0000
1000
0010
1000
0000
0001
0100
0001
0000
1000
0000
0010
0100
,
0001
0000
0010
0000
0000
0000
0001
0100
0001
0100
0001
0000
0010
0000
0100
0000
,
1000
0000
0001
0100
0010
0000
0001
0010
,
0100
0000
0001
0010
0100
0000
1000
0010
,
0100
0000
1000
0100
0010
0000
0100
0000
,
0101
0000
0000
0000
0001
0000
0100
0010
1000
0000
0100
0000
1000
0000
0001
0000
,
0010
0000
0001
1000
0100
0000
0001
0100
,
1000
0000
0010
0100
0001
0000
1000
0010
,
0001
0000
0000
0000
0010
0000
0100
0000
1000
0000
0000
0000
0100
0000
0010
0100
,
0001
0000
0010
0000
0000
0000
0001
1000
0001
1000
0001
0000
1001
0000
0000
0000
,
1100
0000
0000
0000
1010
0000
0000
0110
0000
0000
0101
0000
0000
0000
1000
0000
,
1001
0000
0001
0000
0011
0000
0000
0110
0000
0000
1000
0000
1010
0000
0010
0000
,
0110
0000
0000
0000
1010
0000
0000
0110
0000
0000
0101
0000
0000
0000
0001
0000
,
1001
0000
0000
0000
1000
0000
0100
1000
0001
0000
0010
0000
0100
0000
1000
0000
,
0100
0000
1000
0000
0010
0000
0100
0000
0010
0000
1000
0001
0010
0000
0001
0000
,
0100
0000
0001
0000
0010
0100
1000
0000
0010
0000
1000
0010
0100
0000
0001
0100
,
0010
0000
1000
0100
1000
0001
1000
0001
2000
0000
0000
0000
3010
0000
0000
0000
,
0000
0000
0000
0000
0000
0000
0000
0000
0000
1000
0010
0100
,
0001
1000
0100
0010
0001
1000
0100
0010
0100
0010
0001
0010
,
0100
1000
0001
0100
0010
1000
0001
0010
0100
1000
0000
0000
,
0010
1000
0100
0010
;

//--------------- dance-single - Pax_Vesania ----------------
#NOTES:
     dance-single:
     Pax_Vesania:
     Challenge:
     18:
     0,0,0,0,0:
0000
0000
0000
0000
,
0000
0000
0000
0000
,
0000
0000
0000
0000
,
0000
0000
0000
0000
,
0000
0000
0000
0000
,
0000
0000
0000
0000
,
0000
0000
0000
0000
,
0000
0000
0000
0000
,
0000
0000
0000
0000
,
0000
0000
0000
0000
,
0000
0000
0000
0000
,
0000
0000
0000
0101
,
0000
0000
0000
0000
1010
0000
0000
0000
0000
0000
0000
0000
1000
0010
0100
0010
,
1000
0010
0100
0001
1000
0100
0010
0001
0020
0000
0000
0030
0001
0000
0010
0000
,
0001
0100
0001
0010
0001
0100
0001
1000
,
0100
1000
0010
1000
0100
1000
0010
0100
,
0010
1000
0100
1000
0001
0100
0001
1000
,
0100
0000
0010
0000
0001
0010
0001
0000
1000
0010
1000
0001
0010
0000
0100
0000
,
1000
0001
0010
1000
0010
0001
0100
1000
,
0100
0001
1000
0100
0001
0100
1000
0010
,
0001
0010
1000
0100
1000
0010
1000
0001
,
0100
0000
0010
0000
1000
0100
0010
0001
1000
0001
0010
0100
1000
0000
0100
0000
,
0010
0100
1000
0100
0001
0100
0010
0001
,
1000
0010
0001
0010
1000
0001
1000
0010
,
1000
0001
1000
0100
0001
0100
1000
0001
,
0100
0000
0010
0000
1000
0000
0100
0000
1000
0001
1000
0000
0010
0000
0100
0000
,
0010
1000
0010
0100
0001
0010
1000
0010
,
0100
1000
0010
0001
0010
0100
0001
1000
,
0001
0100
0010
1000
0100
0010
1000
0010
,
0001
0000
0100
0000
0010
0100
0001
1000
0100
0010
0001
0010
0100
0000
1000
0000
,
1100
0100
0010
0001
0011
0010
0001
1000
,
1010
0010
0100
0001
0101
0100
0010
1000
,
1001
0001
0100
0010
0110
0100
0001
0010
,
0011
0000
0001
0000
1000
0000
0100
0000
1000
0010
0100
0001
0010
0000
0001
0000
,
0010
0001
0100
0001
0100
0010
1000
0100
,
1000
0010
0100
0010
1000
0001
0101
0000
,
1010
0000
0000
0000
0110
0000
0101
0000
0000
0000
0011
0000
0000
0000
1000
0100
,
1000
0000
0001
0000
0001
0000
0000
0000
1001
0000
0000
0000
1000
0100
1000
0000
,
0001
0010
0001
0000
1000
0100
1000
0000
0010
0100
0010
0000
1000
0100
0010
0000
,
0100
0010
0001
0000
1000
0010
1000
0001
0100
0000
0100
0000
0001
0100
0001
0000
,
1000
0010
1000
0000
0001
0010
0100
0000
0010
0100
1000
0000
0100
1000
0001
0000
,
0010
0001
1000
0000
0100
0010
0100
1000
0001
0000
0001
0000
1000
0010
0100
0000
,
0010
0100
0001
0000
0100
0010
1000
0000
0001
0100
0010
0000
1000
0100
0010
0000
,
0001
0010
0100
0000
1000
0001
0010
0001
0100
0000
0100
0000
0101
0000
0000
0000
,
1100
0000
1010
0000
0110
0101
0000
0011
,
1001
0000
0000
0000
1000
0001
0010
0001
1000
0001
0010
0001
1000
0100
1000
0000
,
0001
0010
0001
0000
0100
0010
0100
0000
0001
1000
0100
0000
0010
0001
1000
0000
,
0100
1000
0010
0000
0100
0001
0010
0001
1000
0000
1000
0000
0100
0010
0001
0000
,
1000
0100
0010
0000
0001
0010
0100
0000
1000
0100
0010
0000
0100
1000
0100
0000
,
0010
0001
0010
0000
0001
1000
0100
1000
0001
0000
0001
0000
1000
0010
0001
0000
,
0010
0100
1000
0000
0100
0001
0010
0000
0001
0010
1000
0000
0001
0100
1000
0000
,
0001
1000
0001
0000
0100
0010
0100
0001
0100
0000
0100
0000
0101
0000
0000
0000
,
0011
0000
1100
0000
1010
0101
0000
1001
,
1000
0000
0100
0000
0010
0001
0010
0100
1000
0001
0100
0010
1000
0000
0100
0000
,
0010
0000
0100
0000
0010
0000
0001
0000
1000
0100
0010
0000
0001
0100
1000
0000
,
0100
0001
1000
0000
0100
0001
0100
0000
0010
0001
1000
0000
0010
0001
0010
0000
,
0100
1000
0100
0000
0001
0100
0001
0000
1000
0010
0001
0000
1000
0100
0001
0000
,
1000
0100
0010
0000
0100
0010
0001
0000
1000
0100
1000
0001
1000
0100
0010
0001
,
0100
0010
1000
0010
0100
0001
0010
0100
1000
0001
1000
0100
0010
0001
1000
0010
,
0100
0001
1000
0100
0010
0100
0010
0001
0100
0010
1000
0000
0001
0000
0011
0000
,
0000
1010
0101
0000
1100
0000
0011
0000
,
1000
0001
0020
0000
0000
0030
0010
0001
,
0010
0001
0100
0010
0100
0010
1000
0010
,
1000
0000
0010
0000
0100
0000
0001
0010
0001
0000
1000
0000
0001
0000
0100
0000
,
0001
0100
0010
1000
0010
1000
0001
1000
,
0100
0000
0010
0000
0001
0000
1000
0001
1000
0010
1000
0001
0100
0000
0001
0000
,
0100
1000
0100
0001
0010
0001
0010
1000
,
0010
0001
1000
0100
0010
0100
0001
0100
,
1000
0000
0010
0000
0100
0000
0001
0000
0000
0000
1001
0000
0000
0000
1000
0001
,
1000
0000
1001
0000
0110
0000
0000
0000
2000
0000
0000
3000
0001
0010
0100
1000
,
0100
0010
0001
0010
0100
0010
0001
1000
0100
0010
0100
1000
0001
0010
0100
1000
,
0100
0010
0100
0010
0001
0000
1000
0001
0010
0000
0100
0000
0010
0000
0001
0000
,
0100
0001
1000
0100
1000
0010
0100
0001
,
1000
0000
0100
0000
0010
0000
0001
0010
0001
1000
0001
0000
1000
0010
0100
0001
,
1000
0100
0010
0100
1000
0001
0100
0010
1000
0001
0010
0100
0010
0001
1000
0100
,
0010
0100
0010
0001
0010
0000
0001
1000
0100
0000
0010
0000
0010
0000
0100
1000
,
0100
0000
0010
0001
0010
0000
0001
1000
0100
0000
0010
0001
1000
0000
0100
1000
,
0010
0000
0100
0001
0010
0100
1000
0001
0100
0010
1000
0100
1000
0010
1000
0001
,
1000
0100
0010
0100
0010
0001
1000
0100
0010
0001
0100
0010
0100
0000
0000
0000
,
0000
0000
0000
0000
0000
0000
0000
0000
1000
0010
0100
0001
0010
0000
0001
0000
,
0100
0010
1000
0100
1000
0001
0010
0100
,
1000
0001
0100
0001
0010
1000
0010
0001
,
0100
0010
1000
0100
0010
0100
0001
0100
,
0010
0000
0001
0000
1000
0000
0100
0000
0010
0001
0010
0100
0010
0000
0001
0000
,
1000
0010
0001
0010
0100
0001
0100
0001
,
0010
1000
0010
0001
1000
0100
1000
0001
,
0100
1000
0100
0010
0100
0001
1000
0010
,
0100
0000
0001
0000
0010
0000
0100
1000
0100
0010
0001
0010
0100
0000
1000
0000
,
0010
1000
1010
0000
1000
0000
0110
0000
,
0001
0000
0110
0000
1000
0000
1001
0001
,
1000
0010
0110
0000
0001
0000
1100
0000
,
0100
0000
0000
0000
0011
0000
0001
0010
0100
1000
0100
0000
1100
0000
0000
0000
,
1010
0011
0101
0110
,
1001
0000
0101
0000
1010
0000
1000
1000
,
0001
0000
0001
0000
1000
0100
0010
0001
1000
0001
0010
0100
1000
0000
0001
0100
,
0001
0000
1000
0000
0000
0000
0001
0100
0010
1000
0100
0000
1000
0000
0001
0100
,
0001
0000
1000
0010
1000
0000
0001
0010
0001
0000
1000
0100
1000
0000
0010
0100
,
0010
0000
1000
0001
1000
0000
0010
0100
0010
0000
1000
0100
0010
0000
0001
0010
,
0100
0000
1000
0010
0100
0000
0001
0100
0010
0000
1000
0001
0010
0000
0100
1000
,
0001
0000
1000
0100
0010
0000
0001
0100
0001
1000
0100
0000
0010
0000
0001
1000
,
0100
0000
1000
0100
0001
0000
0100
1000
0001
0000
0100
0010
0001
0000
0010
1000
,
0001
0000
1000
0010
0001
0000
1000
0100
0001
0000
0010
0100
1000
0000
0001
0100
,
1000
0000
0100
0001
0010
0000
0100
0001
0100
0000
1000
0000
0010
0000
1000
0010
,
1000
0000
0001
0000
0000
0000
0001
0010
0100
1000
0100
0000
1100
0000
1000
0000
,
1010
1000
1001
0001
0101
0001
0011
0001
,
0101
0100
0110
0010
1010
1100
1100
1000
,
1010
0010
0110
0100
0101
0001
1001
1000
,
1010
0000
1000
0000
1001
0000
0001
1000
0010
0000
0100
0010
0100
0000
0100
0000
,
0001
0000
0001
0000
1000
0000
1000
0000
0010
0000
1000
0100
0010
0000
0001
0000
,
0001
0000
0100
0000
0010
1000
0001
0000
0100
0000
0001
1000
0100
0010
0100
1000
,
0001
0010
0100
0010
0001
1000
0010
1000
0002
0000
0000
0000
0013
0000
0000
0000
,
0000
0000
0000
0000
0000
0000
0000
0000
0000
1000
0010
0001
,
0010
1000
0100
0001
0100
1000
0010
0100
0001
0010
0100
0001
,
0100
1000
0001
0100
1000
0001
0010
1000
0001
1000
0000
0000
,
0010
0100
0001
0010
;
