#TITLE:Sacred world;
#SUBTITLE:;
#ARTIST:RAISE A SUILEN;
#TITLETRANSLIT:;
#SUBTITLETRANSLIT:;
#ARTISTTRANSLIT:;
#GENRE:;
#CREDIT:;
#MUSIC:Sacred world.ogg;
#BANNER:;
#BACKGROUND:;
#CDTITLE:;
#SAMPLESTART:53.233;
#SAMPLELENGTH:13.733;
#SELECTABLE:YES;
#OFFSET:-0.417;
#BPMS:0.000=142.000;
#STOPS:;
#BGCHANGES:;
#FGCHANGES:;

//--------------- dance-single - Pax_Vesania ----------------
#NOTES:
     dance-single:
     Pax_Vesania:
     Beginner:
     4:
     0,0,0,0,0:
0000
0000
0000
0000
,
0000
0000
0000
0000
,
0000
0000
0000
0000
0000
0000
0000
0000
2000
0000
0000
0000
0000
0000
0000
3000
,
0200
0000
0000
0000
0000
0300
0020
0000
0000
0000
0000
0000
0000
0000
0000
0000
,
0000
0000
0000
0000
0000
0000
0000
0030
0000
0000
0000
0000
0000
0000
0000
0000
,
0000
0000
0001
0000
,
0001
0000
0010
0200
,
0000
0000
0000
0300
0000
0000
0000
0000
1000
0000
0000
0000
0000
0000
0000
0010
,
0000
0000
0100
0001
,
1000
0100
0010
0000
,
0010
0000
0100
2000
,
0000
0000
0000
3000
0000
0000
0000
0000
0001
0000
0000
0000
0000
0000
0000
0100
,
0000
0000
0010
0100
,
0000
0000
0010
0000
,
1000
1000
0001
0000
,
0100
0001
0001
0000
,
0100
0010
0000
1000
,
0000
0001
0010
0000
,
0010
0001
1000
0000
,
1000
0100
0010
0000
,
0010
0001
0100
0000
,
0010
0100
0000
0010
,
0000
0010
0000
1000
,
0000
0010
0100
0000
,
0100
0000
0002
0000
,
0003
0000
1000
0000
,
0100
0000
0010
0000
,
0001
0001
1000
0000
,
0100
0100
0010
0000
,
0001
0001
0100
0000
,
0010
0000
1001
0000
,
0000
0000
0000
0000
,
0000
0000
0000
0000
,
1000
0001
0000
0000
,
0000
0000
0000
0000
,
0000
0000
0001
0000
,
1000
0000
0010
0000
,
0100
0100
0001
0000
,
1000
0000
0100
0000
,
0010
0001
0002
0000
,
0000
0000
0000
0003
0000
0000
0000
0000
,
1000
0001
1001
0000
,
1000
0000
0001
1000
,
0000
0001
0000
0000
0100
0000
0000
0010
,
0000
0000
0100
0000
0100
0000
0000
0001
,
0000
0001
1001
0000
,
1000
0000
0000
0000
1000
0000
0000
0000
1000
0000
0000
0000
0000
0000
0000
0001
,
0000
0000
0000
0000
1000
0000
0000
0100
,
0000
0010
0010
0000
,
0001
0000
0001
0000
,
0010
0000
0100
0000
,
1000
0000
0010
0000
,
0100
0001
1001
0000
;

//--------------- dance-single - Pax_Vesania ----------------
#NOTES:
     dance-single:
     Pax_Vesania:
     Easy:
     7:
     0,0,0,0,0:
0000
0000
0000
0000
,
0000
0000
0000
0000
,
0000
0000
0000
0000
0000
0000
0000
0000
0200
0000
0000
0000
0000
0000
0000
0300
,
0020
0000
0000
0000
0000
0030
0002
0000
0000
0000
0000
0000
0000
0000
0000
0000
,
0000
0000
0000
0000
0000
0000
0000
0003
1000
0000
0000
0000
0000
0000
0000
0000
,
0010
0100
0001
0100
,
0001
0010
0100
1000
,
1000
0000
0000
0000
0001
0000
0000
0000
1000
0000
0000
0000
0010
0000
0000
0010
,
0000
0000
0000
0100
0001
0000
0001
0000
,
0010
0110
0010
0001
,
0100
0010
1000
0100
,
0001
0000
0000
0000
0100
0000
0000
0000
1000
0000
0000
0000
0001
0000
0000
0001
,
0000
0000
0000
0010
0100
0000
1000
0000
,
0001
0000
0100
0100
,
0010
0010
1000
1000
,
0001
0001
0100
0010
,
1000
0000
0001
0000
0000
0010
0000
0100
,
0000
1000
1000
0000
0001
0000
1000
0000
,
0010
0001
0010
1000
,
0100
0010
0001
0100
,
0001
0000
0100
0000
0000
0010
0000
0100
,
0000
0010
1000
0000
0100
0000
0100
0000
,
0100
1000
1000
1000
,
0010
0000
0000
0000
0010
0000
0000
0000
0100
0000
0000
0001
0000
0000
0000
0000
,
0010
0000
0000
0100
0000
0000
1000
0000
2000
0000
0000
0000
0000
0000
0000
0000
,
3000
0000
0000
0000
0000
0000
0000
0000
2000
0000
0000
0000
0000
0000
0000
3000
,
0200
0000
0000
0000
0000
0000
0000
0300
0020
0000
0000
0000
0000
0000
0000
0030
,
0002
0000
0000
0000
0000
0000
0000
0003
1000
0000
0000
0000
0100
0000
0000
0000
,
1000
0010
0100
0010
,
0100
0001
0010
0011
,
0001
1000
1001
0000
,
0000
0000
0010
0000
,
0100
0000
0001
0000
,
1000
0100
1000
0000
0010
0000
0000
0000
,
1000
0000
0100
0000
,
0010
0000
0000
0000
0002
0000
0000
0003
0100
0000
0000
0000
0100
0000
0000
0000
,
0001
0100
0010
0010
,
1000
0001
1000
0100
,
0010
0001
1000
0010
,
0100
0001
0020
0000
,
0000
0000
0000
0030
0001
0000
1000
0000
,
0001
0100
0010
0000
1010
0000
0010
0000
,
1010
0000
0000
0000
1000
0000
0000
0000
0001
0000
0000
0000
0010
0000
0000
0100
,
0000
0010
0010
0001
,
1000
0000
0100
0000
1000
0000
0000
0001
,
0000
0001
1001
1000
,
1001
0000
0000
0000
0100
0000
0000
0000
0010
0000
0000
0000
1000
0000
0000
0100
,
0000
1000
1000
0100
,
0001
0100
1000
0000
,
0001
0100
0010
0010
,
1000
1000
0100
0100
,
0010
0000
0001
0000
0011
0000
0000
0001
,
0100
0000
0000
0010
0000
0000
0000
0000
1001
0000
0000
0000
0000
0000
0000
0000
;

//--------------- dance-single - Pax_Vesania ----------------
#NOTES:
     dance-single:
     Pax_Vesania:
     Medium:
     11:
     0,0,0,0,0:
0000
0000
0000
0000
,
0000
0000
0000
0000
,
0000
0000
0000
0000
0000
0000
0000
0000
2200
0000
0000
0000
0000
0000
0000
3300
,
2020
0000
0000
0000
0000
3030
0220
0000
0000
0000
0000
0000
0000
0000
0000
0000
,
0000
0000
0000
0000
0000
0000
0000
0330
0110
0000
0000
0000
0100
0000
0000
0000
,
0010
1000
0001
0100
,
0001
0000
0000
0010
0000
0010
0000
0000
0100
0000
0100
0000
1000
0000
0000
1000
,
0000
0000
0000
0000
0000
0000
0000
0000
0100
0000
1000
0000
0010
0100
0000
0010
,
0000
0100
0000
0010
0100
0001
0010
0000
,
0100
1100
1000
0010
,
1000
0000
0000
0100
0000
0100
0000
0000
0001
0000
0001
0000
0100
0000
0000
0100
,
0000
0000
0000
0000
0000
0000
0000
0000
0010
0000
0001
0000
0100
0010
0000
0100
,
0000
0010
0000
0100
0001
0001
0010
0000
,
0001
0000
0000
0010
0200
0000
0300
0000
1000
0000
0100
0000
0010
0000
0100
0000
,
1000
1000
0001
0010
0001
0010
0100
0010
,
0001
0001
0100
0010
1000
0100
0001
0100
,
0001
0100
1000
0001
1000
0010
0001
0010
,
1000
0001
0002
0003
0100
0010
1000
0010
,
0100
0100
0001
1000
0100
0001
0100
0010
,
0100
0000
0100
0000
1000
0000
0010
0000
0100
0000
0001
0000
0001
0000
1000
0100
,
0000
1000
0100
0000
0010
0000
0100
0000
1000
0000
0001
0000
1000
0000
0001
0000
,
1000
0010
1000
0001
0100
0000
0010
0000
,
0100
0001
0010
0100
,
1000
0000
0000
0000
1000
0000
0000
0000
0010
0000
0000
0010
0100
0000
0000
0000
,
0100
0000
0000
0100
0001
0000
0000
0000
0010
0000
0000
0010
0100
0000
0000
0000
,
1000
0000
0100
1000
0100
0000
0000
0000
0100
0000
0010
0000
0001
0000
0010
0000
,
0100
0000
0010
0000
0001
0100
0010
1000
,
0100
0010
0001
0100
0010
0000
0100
0001
,
0100
0001
1000
0100
1000
0100
0010
0100
,
0010
0100
0010
0001
0010
0001
0100
0001
,
1000
0001
0010
0001
1001
0000
0000
0000
,
0000
0000
0001
0000
,
1000
0000
0010
0000
,
1000
0100
0010
0000
0001
0000
0000
0000
,
0100
0000
0010
0000
,
0000
0000
0100
0000
0220
0000
0000
0330
0010
0000
1000
0000
0010
0000
1000
0000
,
0001
0100
0001
0100
0010
0100
0010
0100
,
0001
0100
0001
0100
0001
0010
0100
1000
,
1000
0000
0000
0010
0000
0000
0100
0000
0001
0000
0000
1000
0000
0000
0010
0000
,
0001
0000
0000
0010
0000
0000
1000
0000
0100
0000
0000
0000
0100
0000
1000
0000
,
0000
0001
0010
0000
0010
0001
0001
0001
,
0100
0100
0101
0000
0001
0000
1001
0000
,
1000
0000
0000
0010
0000
0000
0100
0000
0100
0000
0001
0000
0010
0100
0000
1000
,
0000
0000
0100
0000
1000
0000
0100
0000
0010
0000
0000
0100
0000
0000
1000
0000
,
0000
0001
0100
0000
0110
0000
0000
0101
,
0000
0011
0100
1001
,
0001
0000
0010
0000
0001
0000
1000
0000
0100
0000
0100
0000
1000
0000
0000
1000
,
0000
0000
0100
0000
0001
0000
0100
0000
1000
0000
0000
0001
0000
0000
0100
0000
,
0000
0010
0010
0100
0001
0000
0000
0000
,
1000
0000
1010
0000
0010
0100
0010
0000
,
0100
0000
0101
0000
0001
0010
0100
0000
,
0010
0000
0000
0011
0000
0000
0010
0000
0100
0000
0000
0000
0000
0000
1000
0000
,
0001
0000
0000
1001
0000
0000
1100
0000
0110
0000
0000
0000
0000
0000
0000
0000
;

//--------------- dance-single - Pax_Vesania ----------------
#NOTES:
     dance-single:
     Pax_Vesania:
     Hard:
     14:
     0,0,0,0,0:
0000
0000
0000
0000
,
0000
0000
0000
0000
,
0000
0000
0000
0000
0000
0000
0000
0000
2020
0000
0000
0000
0000
0000
0000
3030
,
0220
0000
0000
0000
0000
0330
0202
0000
0000
0000
0000
0000
0000
0000
0000
0000
,
0000
0000
0000
0303
0001
0000
1000
0000
,
0001
1000
0010
1000
0100
0000
1000
0000
,
1000
0000
0001
0100
0000
0001
0010
0001
0010
0000
0100
0000
1000
0000
0000
1000
,
0000
0000
0000
0000
0000
0000
0000
0000
0001
0000
0001
0000
0100
0010
0000
0100
,
0000
0001
0000
0000
0010
0010
0001
0100
,
0010
1000
0100
0010
0001
0000
0010
0000
,
0001
0000
1000
0010
0000
1000
0100
1000
0100
0000
0010
0000
0100
0000
0000
1000
,
0000
0000
0000
0000
0000
0000
0000
0000
0010
0000
0010
0000
0100
0001
0000
0100
,
0000
1000
0000
0000
0100
0001
0100
0010
,
0001
0000
0010
0000
0100
0000
0000
0000
0001
0000
1000
0010
1000
0000
0100
0010
,
0000
0001
0010
0000
0100
0000
0100
0000
1000
0000
0001
0100
0001
0000
0010
0100
,
0000
1000
0100
0000
0010
0000
0001
0000
0100
0000
0010
0100
0010
0000
1000
0010
,
0000
0001
0010
0000
1000
0000
1000
0000
0010
0000
0100
0000
0001
1000
0001
1000
,
0010
0000
0100
0000
0100
0000
0000
0000
0100
0000
0001
1000
0001
0000
1000
0100
,
0000
0001
0100
0000
0010
0000
0010
0000
0001
0000
0100
1000
0100
0000
0001
0010
,
0000
0100
1000
0000
0100
0000
0010
0000
0100
0000
1000
0100
1000
0000
0010
0100
,
0000
0001
0010
0000
0001
0000
0001
0000
0100
0000
0010
0000
1000
0010
0100
0001
,
0010
0000
0100
0000
0100
0000
0000
0000
0010
0000
0010
0001
0000
0000
0001
0010
,
0000
0000
0010
0100
0000
0000
0100
1000
0000
0000
0100
0010
0000
0000
0100
0001
,
0000
0000
0100
1000
0000
0000
0000
0000
1000
0000
0000
0010
0000
0000
0100
0000
,
0001
0000
0000
0010
0000
0000
0100
0000
2000
0000
0000
0000
0000
0000
0000
0000
,
3000
0000
0000
0000
0000
0000
0000
0000
0001
1000
0010
1000
0001
0000
0020
0000
,
0000
0000
0000
0000
0030
0000
0001
0000
0001
0010
0100
1000
0001
0000
0020
0000
,
0000
0000
0000
0000
0000
0030
0000
0000
0101
0000
0000
0000
0100
0000
0001
0000
,
0100
1000
0100
0010
1000
0100
0010
0001
,
0010
0000
1000
0000
0010
0000
0001
0000
1000
0000
0100
0010
0001
0000
0010
0100
,
1000
0000
0100
0010
0001
0000
0010
0000
0011
0000
0000
0000
0000
0000
0000
0000
,
0000
0000
0101
0000
,
1100
0000
0110
0000
,
1000
0100
0010
0000
0011
0000
0000
0000
,
1010
0000
0101
0000
,
1000
0000
0001
0010
0200
0000
0000
0300
0010
0000
0001
0010
0001
0010
0001
0000
,
0010
0000
0100
1000
0100
1000
0100
0000
1000
0000
0001
0100
0001
0100
0001
0000
,
0100
0000
0010
1000
0010
1000
0010
0000
1000
0000
0000
0010
0000
0000
0100
0000
,
0001
0000
0000
1000
0000
0000
0100
0000
0010
0000
0000
0001
0000
0000
0100
0000
,
0010
0000
0000
1000
0000
0000
0100
0000
0010
0000
0001
0000
0010
0000
1000
0000
,
0010
0000
0001
0000
0100
0000
0010
0000
0001
0000
0010
0000
0100
0001
0100
0001
,
1000
1000
0011
0000
0101
0000
1010
0000
,
0101
0000
0000
0001
0000
0010
0100
1000
0100
0000
0100
0000
1000
0010
0000
0010
,
0000
0000
0100
0000
0001
0000
0100
0000
0010
0000
0000
1000
0000
0000
0100
0000
,
0000
0100
0010
0000
0001
0010
0100
0000
0110
0000
0000
0011
0000
0000
1100
0000
,
0000
1010
0011
1100
,
0011
0000
0010
0001
0000
1000
0100
0010
0001
0000
0001
0000
0100
0010
0000
0010
,
0000
0000
1000
0000
0001
0000
1000
0000
0010
0000
0000
0100
0000
0000
0001
0000
,
0000
0000
1000
0000
0010
0001
0010
0100
0020
0000
0000
0000
0030
0000
0000
0000
,
0100
0000
0001
0100
0001
0100
0001
1000
0001
0000
0010
0000
0100
0000
0010
0001
,
1000
0000
0010
0000
0100
0000
0010
0100
0001
0000
0001
0000
1000
0000
1000
0000
,
0001
0000
0000
0100
0000
0000
0010
0000
0200
0000
0000
0000
0300
0000
0001
1000
,
0010
0000
0000
0110
0000
0000
0101
0000
0011
0000
0000
0000
0000
0000
0000
0000
;

//--------------- dance-single - Pax_Vesania ----------------
#NOTES:
     dance-single:
     Pax_Vesania:
     Challenge:
     16:
     0,0,0,0,0:
0000
0000
0000
0000
,
0000
0000
0000
0000
,
0000
0000
0000
0000
0000
0000
0000
0000
2020
0000
0000
0000
0000
0000
0000
3030
,
0202
0000
0000
0000
0000
0303
0011
0000
0001
0010
0001
0010
0100
1000
0100
1000
,
0010
1000
0001
1000
0100
0010
0001
1000
0001
0000
0000
0000
1000
0000
0000
0000
,
0001
0100
0001
0100
0001
0010
0100
1000
0010
1000
0010
1000
0010
0100
0010
0100
,
0001
0100
0001
0100
0001
0010
0001
0010
0100
1000
0100
1000
0100
1000
0100
1000
,
0001
1000
0001
1000
0001
1000
0001
1000
0001
0000
1000
0000
0100
0001
0000
0100
,
0000
0000
1000
0000
0000
0000
0001
0000
1000
0001
1000
0001
1000
0001
0100
0001
,
0100
0001
1000
0010
1000
0100
0010
0001
1000
0010
1000
0010
1000
0001
0100
0001
,
0100
0010
0100
0010
0100
0001
0010
0001
1000
0100
1000
0100
1000
0100
1000
0100
,
1000
0010
1000
0010
1000
0010
1000
0010
1000
0000
0001
0000
0100
1000
0000
0100
,
0000
0000
0001
0000
0000
0000
0010
0000
0001
0010
0001
0100
0001
1000
0001
0010
,
0100
1000
0010
0100
0001
1000
0100
0010
0001
0000
1000
0100
0010
0100
1000
0001
,
0000
0100
0010
0000
0101
0000
1010
0000
1000
0000
0100
0010
0001
0010
0100
0010
,
0000
0100
0010
0000
0110
0000
0011
0000
0010
0000
0001
0100
0010
1000
0100
0001
,
0000
0100
1000
0000
1010
0000
1100
0000
0100
0000
0010
0100
1000
0100
0001
0100
,
1000
0000
0001
0000
2002
0000
3003
0000
0001
0000
1000
0010
0001
0010
1000
0100
,
0000
0010
0001
0000
0101
0000
0110
0000
0010
0000
1000
0100
0010
0001
0100
0010
,
0000
1000
0001
0000
1010
0000
0101
0000
0100
0000
0010
1000
0001
0100
1000
0100
,
0000
0001
0010
0000
0110
0000
1100
0000
1000
0000
0010
0001
0010
0100
1000
0100
,
0010
0000
1000
0000
0001
0000
0000
0000
0001
0000
0100
0010
0100
0000
0001
0100
,
0001
0000
0010
0100
1000
0000
0001
0010
0100
0000
1000
0100
0010
0000
0001
0100
,
0010
0000
1000
0010
0100
0000
0001
0100
1000
0000
1000
0100
0001
0000
1000
0010
,
0001
0000
0001
0010
1000
0000
0001
0010
0100
0000
1000
0010
0001
0000
1000
0100
,
0001
0000
1000
0100
0010
0000
0100
0010
0001
0010
0100
1000
0001
1000
0001
0100
,
0010
1000
0100
0010
0100
1000
0001
0010
0100
0010
0001
1000
0010
1000
0001
0100
,
0001
1000
0100
0010
0001
0100
0010
0100
0001
0000
0000
0000
1010
0000
1000
0000
,
1100
0100
0110
0010
0011
1001
1100
1010
,
0110
0000
0101
0000
0011
0000
1001
0000
1000
0100
0010
0100
1000
0100
0010
0001
,
0010
0100
0010
0001
1000
0001
0010
0000
0110
0000
0000
0000
0000
0000
0000
0000
,
0000
0000
0011
0000
,
1100
0000
1001
0000
,
0100
0000
0010
0000
0001
0000
0000
0000
0001
0010
1000
0010
0000
0000
0100
0000
,
0100
0000
0010
0001
0000
0000
0000
0000
1000
0010
0100
0010
0000
0000
1000
0000
,
0100
0000
0010
0001
0020
0000
0000
0030
0100
1000
0100
1000
0010
1000
0010
1000
,
0001
0010
0100
1000
0001
0010
0001
0010
0001
0100
0001
0100
0001
1000
0100
0010
,
0001
0010
0100
0010
0001
0010
0100
1000
0001
1000
0001
0100
0010
0100
0010
0100
,
0001
0100
0001
0010
0001
0010
0001
1000
0100
0010
0100
0010
0001
1000
0100
0010
,
0001
0100
0010
1000
0100
0010
0001
0010
0001
0100
0001
1000
0001
0100
0001
0010
,
0001
1000
0010
1000
0100
1000
0010
1000
0001
1000
0100
0010
0100
1000
0001
0010
,
0100
0010
0001
0000
0011
0000
0000
0000
0101
0000
0000
0000
1100
0000
0000
0000
,
0101
0000
0000
0001
0000
0100
1000
0100
0001
0000
0011
0000
0001
1000
0000
1100
,
0000
0000
1000
0010
0100
0001
0010
0001
1000
0001
0100
0001
1000
0010
1000
0001
,
0100
0010
1000
0010
0100
0010
1000
0001
0010
0100
0010
0100
1000
0001
0010
0100
,
1000
0010
0100
0001
1000
0000
0000
0000
1010
0000
0000
0000
0011
0000
0000
0000
,
1010
0000
0010
0100
0000
0010
0001
0010
1000
0000
1010
0000
0010
0100
0000
0110
,
0000
0000
0010
0100
0001
1000
0100
1000
0001
0010
0001
0100
0010
1000
0100
0010
,
0001
0100
0010
0100
0001
1000
0001
0010
0100
1000
0010
0100
0010
1000
0100
0010
,
0001
0000
0010
0001
0100
0010
1000
0100
0010
0001
0010
0001
0100
0001
0100
0001
,
0010
0100
1000
0100
1000
0001
1000
0001
0010
0001
0100
0010
0100
0001
1000
0100
,
0010
0100
1000
0001
0010
0100
0010
0001
1000
0100
0010
0001
0010
0100
1000
0010
,
0001
0010
1000
0010
0001
1000
0100
0001
0010
0000
0000
0000
0000
0000
0000
0000
;
