#TITLE:マイロア;
#SUBTITLE:;
#ARTIST:常闇トワ;
#TITLETRANSLIT:My Roar;
#SUBTITLETRANSLIT:;
#ARTISTTRANSLIT:Tokoyami Towa;
#GENRE:;
#CREDIT:;
#MUSIC:My Roar.ogg;
#BANNER:Scream-bn.png;
#BACKGROUND:;
#CDTITLE:;
#SAMPLESTART:47.734;
#SAMPLELENGTH:18.571;
#SELECTABLE:YES;
#OFFSET:-0.020;
#BPMS:0.000=105.000;
#STOPS:;
#BGCHANGES:;
#FGCHANGES:;

//--------------- dance-single - Pax_Vesania ----------------
#NOTES:
     dance-single:
     Pax_Vesania:
     Beginner:
     3:
     0,0,0,0,0:
0000
0000
0000
0000
,
0000
0000
0000
0000
,
0000
0000
0000
0000
,
0000
0000
0000
0000
,
0000
0000
0000
0000
,
0010
0000
0000
1000
,
1000
0000
0000
0001
,
0001
0000
0000
0100
,
0100
0000
0010
0010
,
0010
0000
1000
0000
,
0001
0000
0001
0000
,
0010
0000
0010
0000
,
0100
0000
1000
1000
,
1001
0000
0000
0001
,
0000
0001
0000
0100
,
0110
0000
0010
0000
,
0010
0000
0000
0000
,
1000
0000
0000
0000
,
0001
0000
0000
0000
,
0001
0000
1000
0000
,
0010
0000
0000
0110
,
0100
0100
0000
0001
,
0001
0000
0000
1000
,
1000
0000
0000
0100
,
0100
0000
0000
0010
,
0010
0010
0000
1000
,
1000
0000
0000
0001
,
0001
0000
0000
0010
,
0010
0010
0000
1000
,
1000
0000
0000
0000
0000
0000
0000
1001
0000
0000
1001
0000
0000
0000
0000
0000
,
0000
0000
0000
0000
,
0010
0000
0000
0000
0000
0000
0000
0110
0000
0000
0110
0000
0000
0000
0000
0000
,
0000
0000
0000
0000
,
1000
0000
0000
0000
0000
0000
0000
0010
0000
0000
0000
0000
1000
0000
0000
0000
,
1000
0000
0000
0000
0000
0000
0000
0010
0000
0000
0000
0000
0100
0000
0000
0000
,
0100
0000
0000
0000
0000
0000
0000
0010
0000
0000
0000
0000
0100
0000
0000
0000
,
0100
0000
1000
1000
,
0000
0000
0000
0000
,
0110
0000
0000
0000
0000
0000
0000
1001
0000
0000
0000
0000
0000
0000
0000
0000
,
0000
0000
0000
0000
,
1001
0000
0000
0000
0000
0000
0000
0110
0000
0000
0000
0000
0000
0000
0000
0000
,
0000
0000
0000
0000
0200
0000
0000
0300
0000
0000
0000
0000
0020
0000
0030
0000
,
0110
0000
0000
0000
0000
0000
0000
1001
0000
0000
0000
0000
0000
0000
0000
0000
,
0000
0000
0000
0000
,
1001
0000
0000
0000
0000
0000
0000
0110
0000
0000
0000
0000
0000
0000
0000
0000
,
0000
0000
0000
0000
2000
0000
0000
3000
0000
0000
0000
0000
0002
0000
0000
0003
,
0000
0000
0000
0000
,
0000
0000
0000
0000
,
0100
0000
0000
0000
0000
0001
0000
0002
,
0000
0000
0000
0000
0000
0003
0000
0000
0000
0000
0000
0000
0000
0000
0000
0000
,
0020
0000
0000
0000
0000
0000
0000
0000
0000
0000
0000
0000
0000
0000
0000
0030
,
2000
0000
0000
0000
0000
0000
0000
0000
0000
0000
0000
3000
0000
0000
0000
0000
,
0100
0000
0000
0100
,
0100
0000
0000
0000
,
0010
0000
0000
0001
,
0001
0000
0000
0100
,
0100
0000
0000
0010
,
0010
0000
0000
0001
,
0002
0000
0000
0000
0000
0000
0000
0003
0200
0000
0000
0000
0000
0000
0000
0300
,
0002
0000
0000
0003
0001
0000
0000
0000
,
2000
0000
0000
0000
0000
0000
0000
3000
0020
0000
0000
0000
0000
0000
0000
0030
,
2000
0000
0000
3000
0100
0000
0100
0000
,
0200
0000
0000
0000
0000
0000
0000
0300
0020
0000
0000
0000
0000
0000
0000
0030
,
0200
0000
0000
0300
0100
0000
0000
0000
,
2000
0000
0000
0000
0000
0000
0000
3000
0002
0000
0000
0000
0000
0000
0003
0000
,
0001
0000
0001
0001
;

//--------------- dance-single - Pax_Vesania ----------------
#NOTES:
     dance-single:
     Pax_Vesania:
     Easy:
     7:
     0,0,0,0,0:
0000
0000
0000
0000
,
0000
0000
0000
0000
,
0000
0000
0000
0000
,
0000
0000
0000
0000
,
0000
0000
0000
0000
,
1000
0000
0000
0000
0010
0000
0000
0010
0000
0000
0000
0000
0100
0000
0100
0000
,
0001
0000
0000
0000
0010
0000
0000
0010
0000
0000
0100
0000
0100
0000
0000
0000
,
1000
0000
0000
0000
0001
0000
0000
0001
0000
0000
0000
0000
0100
0000
0100
0000
,
0010
0000
0000
0000
1000
0000
0000
1000
0000
0000
0100
0000
0100
0000
0000
0000
,
1000
0100
1000
0001
,
0010
0100
0001
0000
,
0100
0010
1000
0001
,
0010
0000
0001
0000
0100
0010
0010
0000
,
2000
0000
0000
3000
0010
0000
0000
0000
0100
0000
0000
0000
0100
0000
0000
0000
,
0001
0100
0001
1000
,
0200
0000
0000
0300
0010
0000
0000
0000
0010
0000
0000
0000
0100
0000
0000
0000
,
0100
0000
0000
0000
1000
0000
0002
0000
0000
0000
0000
0003
0000
0000
0000
0000
,
1001
0000
0000
0000
,
0110
0000
0000
0000
,
1001
1000
0010
0010
,
0000
0000
0000
0000
,
1000
0000
0000
0000
0010
0000
0000
0010
0000
0000
0000
0000
0100
0000
0001
0000
,
0100
0000
0000
0000
0001
0000
0000
0001
0000
0000
0000
0000
1000
0000
0100
0000
,
1000
0000
0000
0000
0010
0000
0000
0010
0000
0000
0000
0000
0110
0000
0000
0000
,
0100
0000
0000
0000
0100
0000
0000
0010
0000
0000
1000
0000
1000
0000
0000
0000
,
1000
0000
0000
0000
0100
0000
0000
0100
0000
0000
0000
0000
0010
0000
0001
0000
,
0010
0000
0000
0000
0100
0000
0000
0100
0000
0000
0000
0000
0100
0000
1000
0000
,
0100
0000
0000
0000
0010
0000
0000
0001
0000
0000
0000
0000
0011
0000
0000
0000
,
0001
0000
0000
0000
0100
0000
0000
0100
0000
0000
0000
0000
0110
0000
0000
0000
,
1000
0000
0000
0001
0000
0000
0000
1000
0000
0000
1001
0000
0000
0000
0000
0000
,
0000
0000
0000
0000
,
0001
0000
0000
1000
0000
0000
0000
0001
0000
0000
1001
0000
0000
0000
0000
0000
,
0000
0000
0000
0000
,
0100
0000
0010
0000
0100
0000
0001
0001
,
1000
0000
0010
0000
1000
0000
0001
0001
,
0010
0000
0100
0000
0010
0000
0001
0001
,
0010
0000
0010
0000
0100
0000
0100
0100
,
0000
0000
0000
0000
,
1001
0000
0000
1000
0000
0000
0000
0001
0000
0000
1000
0000
0000
0000
0000
0000
,
0000
0000
0000
0000
,
0110
0000
0000
0010
0000
0000
0000
0100
0000
0000
0010
0000
0010
0000
0010
0000
,
0000
0000
0000
0000
2020
0000
0000
3030
0000
0000
0000
0000
0202
0000
0303
0000
,
0011
0000
0000
0010
0000
0000
0000
0001
0000
0000
0010
0000
0000
0000
0000
0000
,
0000
0000
0000
0000
,
1100
0000
0000
0100
0000
0000
0000
1000
0000
0000
0100
0000
0100
0000
0100
0000
,
0000
0000
0000
0000
0220
0000
0000
0330
0000
0000
0000
0000
0022
0000
0000
0033
,
0000
0000
0000
0000
,
0000
0000
0000
0000
0000
0000
0000
1000
,
0002
0000
0000
0003
1000
0000
0000
0001
0000
0000
0020
0000
0000
0030
0200
0000
,
0000
0000
0000
0000
0000
0300
0000
0000
0000
0000
0000
0000
0000
0000
0000
0000
,
0220
0000
0000
0000
0000
0000
0000
0330
,
2200
0000
0000
0000
0000
0000
0000
3300
,
1000
0000
0000
0000
0010
0000
0000
0010
0000
0000
0000
0000
0110
0000
0000
0000
,
0100
0000
0000
0000
0001
0000
0000
0010
0000
0000
0000
0000
0000
0000
0000
0000
,
0001
0000
0000
0000
1000
0000
0000
0100
0000
0000
0000
0000
0010
0000
0001
0000
,
0010
0000
0000
0000
0001
0000
0000
0100
0000
0000
0000
0000
0010
0000
1000
0000
,
0010
0000
0000
0000
1000
0000
0000
0100
0000
0000
0000
0000
0110
0000
0000
0000
,
0010
0000
0000
0000
0001
0000
0000
0010
0000
0000
0000
0000
0011
0000
0000
0000
,
1001
0001
0001
0100
,
0110
0010
1000
1000
,
1010
1000
1000
0010
,
0110
0100
0100
0010
,
0011
0000
0001
0010
0001
0000
0011
0000
,
0101
0000
0100
0001
0100
0000
0101
0000
,
0110
0000
0010
0100
0010
0000
0110
0000
,
1010
0000
0000
0000
;

//--------------- dance-single - Pax_Vesania ----------------
#NOTES:
     dance-single:
     Pax_Vesania:
     Medium:
     11:
     0,0,0,0,0:
0000
0000
0000
0000
,
0000
0000
0000
0000
,
0000
0000
0000
0000
,
0000
0000
0000
0000
,
0000
0000
0000
0000
,
1000
0010
0000
0010
1000
0000
0001
0100
0000
0100
0001
0000
0010
0000
0001
0000
,
0100
0010
0000
0010
0100
0000
0001
1000
0000
1000
0001
0000
0100
0000
0000
0000
,
0010
0100
0000
0100
0010
0000
1000
0001
0000
0001
1000
0000
0100
0000
0010
0000
,
0001
0100
0000
0100
0001
0000
1000
0100
0000
0100
1000
0000
0010
0000
1000
0000
,
2000
0000
0000
3000
0001
0000
0100
0000
0001
0000
0010
0000
0100
0000
0000
0000
,
0010
0000
0001
0000
1000
0000
0010
0000
0200
0000
0000
0300
0000
0000
1000
0000
,
0200
0300
0100
0001
0010
0001
1000
0000
,
0001
1000
0010
0001
0010
0100
0002
0003
,
0010
0002
0000
0003
1000
0000
0010
0000
0100
0000
0010
0000
0010
0000
0000
0000
,
0100
0000
0001
0100
1000
0100
0010
0000
,
1000
0200
0000
0300
0010
0000
0001
0000
0100
0000
0001
0000
1000
0000
0100
0000
,
2000
0000
0000
3000
0001
0000
0200
0000
0020
0330
0020
0030
0020
0030
0020
0030
,
1000
0000
0000
1010
0000
0000
0000
0000
0000
0000
0000
0000
0000
0000
0000
0000
,
0010
0000
0000
0011
0000
0000
0000
0000
0000
0000
0000
0000
0000
0000
0000
0000
,
0001
0100
0001
0100
0010
1000
0010
1000
,
0100
0000
1000
0000
0010
0100
0000
0001
0010
0000
0001
0000
1001
0000
0000
0000
,
0001
0000
0001
0000
1000
0000
1000
0200
0000
0300
0010
0000
0001
0000
0100
0000
,
0010
0000
0010
0000
0100
0000
0100
0002
0000
0003
0001
0000
1000
0000
0100
0000
,
0001
0000
0100
0000
1000
0000
1000
0020
0000
0030
0010
0000
0100
0000
0100
0000
,
0001
0000
0010
0000
0001
0000
1000
0100
0000
0100
1000
0000
0010
0000
0010
0000
,
0010
0000
1000
0000
0100
0000
0100
0020
0000
0030
0001
0000
0100
0000
0010
0000
,
1000
0000
0010
0000
0001
0000
0010
0200
0000
0300
0001
0000
1000
0000
0100
0000
,
0001
0000
0100
0000
0010
0000
0010
0001
0000
0001
0010
0000
0001
0000
1000
0000
,
0010
0000
0100
0000
0010
0000
1000
0001
0000
0010
0100
0000
1000
0000
1000
0000
,
1000
0000
0010
0100
0000
0001
0000
0011
0000
0000
0101
0000
0000
0000
0000
0000
,
1000
0000
0000
0000
0010
0000
0000
1000
0000
0000
1000
0000
0010
0000
0000
0000
,
0100
0000
0001
0010
0000
0001
0000
1001
0000
0000
1100
0000
0000
0000
0000
0000
,
0100
0000
0000
0000
0001
0000
0000
0100
0000
0000
0100
0000
0001
0000
0000
0000
,
0110
0000
0100
0010
0000
0100
0000
0001
0000
0100
0010
0000
1000
0000
1000
0000
,
0001
0000
1000
0100
0000
0010
0000
0100
0000
1000
0100
0000
0010
0000
0010
0000
,
0001
0000
0010
0001
0000
0100
0000
0001
0000
0010
0001
0000
0100
0000
0100
0000
,
0001
0001
0001
0001
0100
0100
0100
0100
,
0000
0000
0000
0000
,
1000
0000
0010
1000
0000
0010
0000
0100
0000
0010
0100
0000
0000
0000
0000
0000
,
0000
0000
0000
0000
,
0001
0000
0100
0001
0000
0010
0000
0001
0000
0100
0010
0000
0010
0000
0010
0000
,
0000
0000
0000
0000
0220
0000
0000
0330
0000
0000
0000
0000
2002
0000
0000
3003
,
1000
0000
0001
1000
0000
0010
0000
1000
0000
0001
1000
0000
0000
0000
0000
0000
,
0000
0000
0000
0000
,
0001
0000
1000
0001
0000
0100
0000
0001
0000
1000
0001
0000
0001
0000
0001
0000
,
0000
0000
0000
0000
2020
0000
0000
3030
0000
0000
0000
0000
0202
0000
0000
0303
,
0000
0000
0000
0000
,
1000
1000
0001
0001
1000
1000
0010
0010
,
0200
0000
0000
0300
0010
0000
0000
1000
0000
0000
0002
0000
0000
0003
0020
0000
,
0000
0030
0000
0000
,
0202
0000
0000
0000
0000
0000
0000
0303
,
2200
0000
0000
0000
0000
3300
0000
0000
,
0001
0000
1000
0000
0010
0000
0100
0001
0000
0001
0010
0000
0001
0000
0010
0000
,
0100
0000
0100
0000
1000
0000
0010
1000
0000
0000
0020
0030
0020
0030
0020
0030
,
0100
0000
0100
0000
0001
0000
1000
0100
0000
0100
1000
0000
0010
0000
0100
0000
,
0001
0000
0001
0000
0010
0000
0001
0010
0000
0010
0001
0000
1000
0000
0100
0000
,
0001
0000
0100
0000
1000
0000
1000
0010
0000
0010
1000
0000
0001
0000
0100
0000
,
1000
0000
0100
0000
0001
0000
0010
0001
0000
0100
0001
0000
0010
0000
0100
0000
,
1000
0000
0000
1000
0100
0000
0001
0000
0100
0000
1000
0000
0001
0000
0010
0000
,
0100
0000
0000
1000
0010
0000
0001
0000
0020
0000
0000
0030
0000
0000
0000
0000
,
0001
0000
0000
0100
0010
0000
0001
0000
0010
0000
0100
0000
1000
0000
0100
0000
,
0001
0000
0000
0010
0100
0000
1000
0000
0001
0000
0001
0000
0200
0000
0000
0300
,
0010
0000
0000
1000
0010
0000
0100
0000
0001
0000
0010
0000
1000
0000
0001
0000
,
0100
0000
0000
1000
0001
0000
0100
0000
0020
0000
0000
0030
0000
0000
0000
0000
,
1000
0000
0000
0100
0010
0000
1000
0000
0010
0000
0100
0000
1000
0000
0001
0000
,
0010
0000
0000
0100
0001
0000
0010
0000
0001
0000
1000
0000
1000
0000
0000
0000
;

//--------------- dance-single - Pax_Vesania ----------------
#NOTES:
     dance-single:
     Pax_Vesania:
     Hard:
     14:
     0,0,0,0,0:
0000
0000
0000
0000
,
0100
0000
0001
1000
0001
0000
1000
0010
1000
0001
1000
0010
1000
0000
0001
0100
,
0001
0000
0100
0010
0100
0000
0001
1000
0001
0100
0001
1000
0010
0000
0100
0001
,
0010
0000
0100
1000
0001
0000
1000
0100
0010
0100
1000
0100
0001
0000
0100
1000
,
0010
0000
0000
0000
0000
0000
0010
0000
0000
0100
0000
0000
0001
0000
0000
0000
0000
0000
1000
0000
0000
0100
0000
0000
1000
0000
0000
0001
0000
0000
1000
0000
0000
0001
0000
0000
0200
0000
0300
0000
0000
0000
0000
0000
0000
0000
0000
0000
,
0100
0010
0000
1000
0001
0000
0100
0010
0000
1000
0001
0000
1100
0000
1010
0000
,
1000
0100
0010
0100
1000
0100
0001
0100
1000
0001
0010
0100
0010
0001
0010
1000
,
0010
0001
0000
1000
0100
0000
0001
0010
0000
1000
0100
0000
0110
0000
0101
0000
,
0001
1000
0000
0100
0001
0000
0100
1000
0000
0010
0100
0000
0101
0000
0000
0000
,
0010
0000
0010
1000
0001
0100
0010
1000
0100
0000
1000
0001
0010
0000
0100
1000
,
0100
0000
1000
0010
0100
0001
0010
0100
1000
0010
1000
0001
1000
0000
0010
0100
,
0010
0000
0100
0001
0010
0100
0010
0100
1000
0010
0100
0010
1000
0000
1000
0100
,
0010
0000
0001
0100
0010
0000
1000
0100
1000
0010
1000
0001
0010
0001
1000
0001
,
0100
0200
0000
0300
0010
0000
1000
0100
1000
0001
1000
0100
0010
0100
1000
0001
,
1000
0000
0010
0100
0010
1000
0001
0100
0001
0010
0100
1000
0100
1000
0001
0100
,
0001
0002
0000
0003
0100
0001
0100
0010
0100
1000
0100
0001
0010
0100
0001
0100
,
1000
0000
0001
0100
0010
0000
0100
0010
0001
0010
0100
0001
1000
0100
1000
0010
,
0110
0000
0000
1001
0000
0000
0000
0000
2000
0000
3100
0100
0001
0010
0010
1000
,
1100
0000
0000
0101
0000
0000
0100
0001
0100
0010
1000
0100
1000
0001
0010
0000
,
1010
0000
0010
0100
0010
1000
0010
0100
0001
0000
1000
0001
1000
0100
0010
0001
,
1000
0000
0010
0000
0100
1000
0000
0100
0001
0000
0010
0000
0011
0000
0000
0000
,
0100
0000
0010
0000
0100
0001
1000
0100
0000
0010
0100
0000
0010
0000
0001
0000
,
0100
0000
1000
0000
0100
0010
0100
1000
0000
0100
0010
0000
0100
0000
0001
0000
,
0010
0000
1000
0000
0010
0100
1000
0001
0000
0100
0010
0000
0100
0000
0001
0000
,
0010
0000
0010
0000
0100
0000
1000
0001
0000
0100
0010
0000
1000
0001
0010
0100
,
1000
0000
0010
0000
0100
0001
0100
0010
0000
0001
0010
0000
1000
0000
0001
0000
,
0010
0000
0001
0000
0100
1000
0100
0001
0000
0100
0001
0000
0010
0000
0001
0000
,
0100
0000
1000
0000
0100
0010
1000
0100
0000
0001
0100
0000
0010
0000
0100
0000
,
1000
0000
1000
0000
0010
0000
1000
0001
0000
0001
0100
0000
0010
1000
0100
1000
,
0010
0000
1000
0100
0000
0010
0000
0110
0000
0000
1001
0000
0001
0000
1000
0000
,
0010
0010
1000
0010
0100
0100
0001
0100
0010
0010
1000
0010
0100
0100
0001
0100
,
0010
0000
1000
0100
0000
0010
0000
0101
0000
0000
1010
0000
1000
0000
0001
0000
,
0010
0000
0000
0001
0100
0000
0000
0010
0000
0000
1000
0000
0100
0000
0000
0000
,
0010
0000
0100
1000
0000
0010
0000
0100
0000
1000
0100
0000
0001
0000
0001
0000
,
1000
0000
0100
1000
0000
0001
0000
0010
0000
0100
0001
0000
0100
0000
0100
0000
,
0010
0000
0001
1000
0000
0010
0000
0100
0000
0001
0100
0000
1000
0000
1000
0000
,
0100
0000
0010
0000
0100
0000
0001
0000
0010
0001
0100
0001
1000
0100
0010
0001
,
0100
0000
0000
0110
,
1000
0000
0010
1000
0000
0010
0000
0100
0000
0001
0100
0000
0001
0000
0001
0000
,
0100
0000
0010
0000
1000
0000
0100
1000
0001
0000
0010
0001
1000
0000
0010
0000
,
0010
0000
0100
0001
0000
0010
0000
0100
0000
0010
0001
0000
1000
0000
1000
0000
,
0010
0000
1000
0000
0100
0000
0010
0000
0100
0000
0010
0001
1000
0000
0010
0000
,
0100
0000
0001
0100
0000
1000
0000
0100
0000
0001
0100
0000
0010
0000
0010
0000
,
1000
0000
0010
0000
0001
0000
1000
0100
0001
0000
0010
0001
0100
0000
0001
0000
,
1000
0000
0010
0001
0000
0010
0000
0100
0000
1000
0100
0000
0010
0000
0001
0000
,
0010
0000
0000
0000
0220
0000
0000
0330
0100
0000
0000
0000
2002
0000
0000
3003
,
0001
0000
1000
0100
0010
0000
0001
0010
0100
1000
0001
1000
0100
0000
0000
0000
,
0010
0001
1000
0100
0010
0100
1000
0100
0001
0100
1000
0001
0010
0100
0010
0001
,
0010
0000
0001
1000
0100
0000
0010
0100
1000
0001
1000
0001
0010
0000
0000
0000
,
0001
0010
0100
1000
0010
0100
0001
0010
0100
1000
0001
1000
0100
0000
0000
0000
,
0020
0000
0000
0000
0100
0000
0000
1000
0000
0000
0100
0000
0100
0000
1030
0000
,
0002
0000
0000
0000
1000
0000
0000
0100
0000
0003
0001
1000
0001
0000
1000
0000
,
0010
0000
0100
0010
0100
0010
1000
0100
0010
0001
0010
0001
1000
0100
1000
0001
,
0010
0000
0100
1000
0001
1000
0100
1000
0001
0010
0001
0010
0100
1000
0100
1000
,
0001
0000
0100
0000
1000
0100
0010
1000
0000
0100
0010
0000
0001
0000
0100
0000
,
0010
0000
0001
0000
0010
0001
0010
1000
0000
0100
0001
0000
0100
0000
0010
0000
,
0001
0000
0100
0000
0010
1000
0100
0001
0000
0100
0010
0000
0001
0000
1000
0000
,
0010
0000
0010
0000
0001
0000
0010
0001
0000
0010
1000
0000
0100
0001
0100
1000
,
0010
0000
1000
0000
0010
0000
0100
0010
0000
0100
0001
0000
0010
0000
0010
0000
,
0001
0000
0100
0000
0001
0000
0010
0001
0000
1000
0100
0000
0010
0100
1000
0001
,
0010
0000
0001
0000
1000
0000
0100
1000
0000
0001
0010
0000
0100
0000
0001
0000
,
0100
0000
0010
0000
0001
0000
1000
0100
0000
0001
0100
0000
1000
0010
1000
0001
,
0010
0000
0100
0000
0010
0001
1000
0100
0010
0000
0100
0000
1000
0001
0100
0010
,
0100
0000
0001
0000
0010
0001
0100
0010
1000
0000
0100
0000
0001
0100
1000
0100
,
0010
0000
0001
0000
0100
0010
0001
0010
1000
0100
0010
0000
0100
1000
0001
0010
,
0100
0000
0000
0000
0000
0000
0000
0000
0000
0000
0000
0000
0000
0000
0000
0000
2000
3000
0002
0003
2000
3000
0002
0003
2000
3000
0000
0000
0000
0000
0000
0000
;
