#TITLE:ミッドナイト・ランナウェイ;
#SUBTITLE:;
#ARTIST:常闇トワ;
#TITLETRANSLIT:Midnight Runaway;
#SUBTITLETRANSLIT:;
#ARTISTTRANSLIT:Tokoyami Towa;
#GENRE:;
#CREDIT:;
#MUSIC:Midnight Runaway.ogg;
#BANNER:;
#BACKGROUND:;
#CDTITLE:;
#SAMPLESTART:33.390;
#SAMPLELENGTH:15.305;
#SELECTABLE:YES;
#OFFSET:-0.180;
#BPMS:0.000=128.000;
#STOPS:;
#BGCHANGES:;
#FGCHANGES:;

//--------------- dance-single - Pax_Vesania ----------------
#NOTES:
     dance-single:
     Pax_Vesania:
     Beginner:
     4:
     0,0,0,0,0:
0000
0000
0000
0000
,
0000
0000
0000
0000
,
0001
0000
0001
0000
,
1000
0000
1000
0000
,
0100
0000
0100
0000
,
0010
0000
0010
0000
,
0001
0000
0001
0000
,
0100
0000
0100
0000
,
0010
0000
0010
0000
,
0001
0000
0001
0000
,
1000
0000
0100
0000
,
1000
0000
0010
0000
,
0100
0000
0010
0000
,
0100
0000
0001
0000
,
1000
0000
0010
0000
,
1000
0000
0100
0000
,
0010
0000
0001
0000
,
0010
0000
0001
0000
,
0020
0000
0000
0000
0000
0000
0000
0000
0000
0000
0000
0000
0000
0000
0000
0030
,
0002
0000
0000
0000
0000
0000
0000
0000
0000
0000
0000
0000
0000
0000
0000
0003
,
2000
0000
0000
0000
0000
0000
0000
0000
0000
0000
0000
0000
0000
0000
0000
3000
,
0200
0000
0000
0000
0000
0000
0000
0000
0000
0000
0000
0000
0000
0000
0000
0300
,
0020
0000
0000
0000
0000
0000
0000
0000
0000
0000
0000
0000
0000
0000
0000
0030
,
0200
0000
0000
0000
0000
0000
0000
0000
0000
0000
0000
0000
0000
0000
0000
0300
,
0020
0000
0000
0000
0000
0000
0000
0000
0000
0000
0000
0000
0000
0000
0000
0030
,
0002
0000
0000
0000
0000
0000
0000
0000
0000
0000
0000
0000
0000
0000
0000
0003
,
0000
0000
0000
0000
,
0001
0000
1001
0000
,
1000
0000
1001
0000
,
0001
0000
1000
0000
,
0100
0000
0010
0000
,
0100
0000
0100
0000
,
1000
0000
0001
0001
,
0002
0000
0000
0000
0000
0000
0000
0003
2000
0000
0000
0000
0000
0000
0000
3000
,
0200
0000
0000
0000
0000
0000
0000
0300
0020
0000
0000
0000
0000
0000
0000
0030
,
0010
0000
0010
0000
,
0001
0000
0001
0000
,
1000
0000
1000
0000
,
0010
0000
0010
0000
,
0100
0000
0100
0000
,
0001
0000
0001
0000
,
1000
0000
1000
0000
,
0010
0000
0001
0001
,
0000
0000
0000
0000
,
0000
0000
0000
0000
,
0000
0000
0000
0000
,
0000
0000
0000
0000
,
0001
0000
0001
0000
1000
0000
2000
3000
,
1000
0000
0010
0000
,
1000
0000
0001
0000
,
0100
0000
0100
0000
,
0010
0000
0010
0000
,
1000
0000
0100
0000
,
0001
0000
0010
0000
,
0100
0000
1000
0000
,
0001
0000
0010
0000
,
1000
0000
0010
0000
,
0100
0000
0001
0000
,
0001
0000
1000
0000
,
0100
0000
0010
0000
,
1001
0000
1001
0000
,
0110
0000
0110
0000
,
1001
0000
0110
0000
,
1001
0000
0110
0000
,
1001
0000
1001
0000
,
0110
0000
0110
0000
,
1000
1000
0001
0001
,
1000
1000
0001
0001
,
1000
1000
0001
0000
;

//--------------- dance-single - Pax_Vesania ----------------
#NOTES:
     dance-single:
     Pax_Vesania:
     Easy:
     7:
     0,0,0,0,0:
0000
0000
0000
0000
,
0000
0000
0000
0000
,
1010
0000
0101
0000
,
0110
0000
1000
1000
,
1100
0000
1010
0000
,
0110
0000
0001
0001
,
0011
0000
1010
0000
,
0110
0000
0010
0010
,
1010
0000
0110
0000
,
0101
0000
0100
0100
,
0010
0000
1000
0000
,
0001
0000
0100
0010
,
0100
0000
0010
0000
,
0001
0000
1000
0100
,
1000
0000
0010
0000
,
0100
0000
0001
0100
,
0001
0000
1000
0000
,
0100
0000
0010
0001
,
0020
0000
0000
0000
0000
0000
0000
0030
0002
0000
0000
0000
0000
0000
0000
0003
,
0200
0000
0000
0000
0000
0000
0000
0300
0020
0000
0000
0000
0000
0000
0000
0030
,
2000
0000
0000
0000
0000
0000
0000
3000
0020
0000
0000
0000
0000
0000
0000
0030
,
0200
0000
0000
0000
0000
0000
0000
0300
0002
0000
0000
0000
0000
0000
0000
0003
,
0200
0000
0000
0000
0000
0000
0000
0300
0020
0000
0000
0000
0000
0000
0000
0030
,
2000
0000
0000
0000
0000
0000
0000
3000
0002
0000
0000
0000
0000
0000
0000
0003
,
0020
0000
0000
0000
0000
0000
0000
0030
2000
0000
0000
0000
0000
0000
0000
3000
,
0020
0000
0000
0000
0000
0000
0000
0030
0001
0000
0000
0000
0001
0000
0000
0000
,
0000
0000
0000
0000
,
1001
0000
0110
0000
,
1001
0000
0110
0000
,
0001
0000
0000
0002
0000
0000
0000
0003
1000
0000
0000
2000
0000
0000
0000
3000
,
0100
0000
0000
0200
0000
0000
0000
0300
0010
0000
0000
0000
0110
0000
0000
0000
,
0001
0000
0000
0000
0010
0000
0000
0000
0020
0000
0000
0000
0000
0000
0000
0030
,
0100
0000
0000
0000
1000
0000
0000
0000
0001
0000
0000
0000
0002
0000
0000
0003
,
0200
0000
0000
0000
0000
0000
0000
0300
0020
0000
0000
0000
0000
0000
0000
0030
,
2000
0000
0000
0000
0000
0000
0000
3000
0002
0000
0000
0000
0000
0000
0000
0003
,
0001
0000
0100
0100
,
0010
0000
1000
1000
,
0100
0000
0001
0001
,
0010
0000
1000
1000
,
0010
0000
0100
0100
,
0010
0000
0001
0001
,
1000
0000
0100
0100
,
0001
0000
0110
1001
,
0000
0000
0000
0000
,
0002
0000
0000
0000
0000
0000
0000
0003
0020
0000
0000
0000
0000
0000
0000
0030
,
0200
0000
0000
0000
0000
0000
0000
0300
2000
0000
0000
0000
0000
0000
0000
3000
,
0002
0000
0000
0000
0000
0000
0000
0003
2000
0000
0000
0000
0000
0000
0000
3000
,
0200
0000
0000
0000
0000
0000
0000
0300
0020
0000
0000
0000
0000
0000
0000
0030
,
0001
0010
0001
0000
,
1000
0100
1000
0000
,
0001
0001
0100
0100
,
0010
0010
0010
0000
,
1000
0001
1000
0000
,
0010
0100
0010
0000
,
1000
1000
0100
0100
,
0010
0010
0001
0010
,
0001
0100
0001
0000
,
1000
0010
1000
0000
,
0001
0100
0001
1000
,
1000
0000
0100
0010
,
0110
0000
1001
0000
,
0101
0000
1000
0010
,
1010
0000
0110
0000
,
0101
0000
0001
0100
,
0110
0000
1010
0000
,
1100
0000
0001
0100
,
0100
0010
1000
0001
,
0100
0010
1000
0001
,
0100
0010
1000
0000
;

//--------------- dance-single - Pax_Vesania ----------------
#NOTES:
     dance-single:
     Pax_Vesania:
     Medium:
     11:
     0,0,0,0,0:
0000
0000
0000
0000
,
0000
0000
0000
0000
,
1000
0020
0030
0000
0100
0002
0003
0000
,
0100
0020
0030
0000
1000
0001
0010
0001
,
0100
0020
0030
0000
1000
0200
0300
0000
,
0010
0002
0003
0000
0010
0100
0010
0001
,
1000
0020
0030
0000
0100
0002
0003
0000
,
1000
0200
0300
0000
0010
0100
1000
0100
,
1000
0020
0030
0000
0100
0002
0003
0000
,
0010
0002
0003
0000
0100
0010
1000
0001
,
0010
0000
0000
0010
0000
0000
0000
0000
0100
0000
0000
0100
0000
0000
0000
0000
,
1000
0000
0000
1000
0000
0000
0000
0000
0010
0000
0100
0000
0010
0000
0000
0000
,
0100
0000
0000
0100
0000
0000
0000
0000
0010
0000
0000
0010
0000
0000
0000
0000
,
1000
0000
0000
1000
0000
0000
0000
0000
0001
0000
0010
0000
0001
0000
0000
0000
,
0100
0000
0000
0100
0000
0000
0000
0000
0010
0000
0000
0010
0000
0000
0000
0000
,
1000
0000
0000
1000
0000
0000
0000
0000
0001
0000
0100
0000
0001
0000
0000
0000
,
0100
0000
0000
0100
0000
0000
0000
0000
0001
0000
0000
0001
0000
0000
0000
0000
,
1000
0000
0000
1000
0000
0000
0000
0000
0100
0000
0010
0000
0100
0000
0000
0000
,
0010
0001
1000
0000
0100
1000
0001
0000
,
0010
0100
1000
0000
0010
0100
0001
0010
,
0100
1000
0001
0000
0100
0001
0100
0000
,
0010
1000
0100
0000
0010
0001
0010
0100
,
1000
0100
0010
0000
0001
0100
0010
0000
,
1000
0010
0100
0000
0001
0100
0001
0010
,
0100
1000
0100
0000
0010
0001
1000
0000
,
0100
0010
0001
1000
0001
0100
0001
0010
,
0000
0000
0000
0000
,
1000
0000
0100
2000
0000
3000
0100
0000
0100
0000
0001
0020
0000
0030
0001
0000
,
0100
0000
0100
0002
0000
0003
0010
0000
0100
0000
0100
2000
0000
3000
0001
0000
,
0200
0000
0300
0020
0000
0030
1000
0000
0200
0000
0300
0020
0000
0030
0100
0000
,
0020
0000
0030
0002
0000
0003
0010
0000
0100
0000
1000
0000
1000
0000
1000
0000
,
0010
0000
0100
0000
0010
0000
1000
0000
0020
0000
0000
0000
0000
0000
0000
0030
,
1010
0000
0000
0000
0110
0000
0000
0000
0101
0000
0000
0000
0022
0000
0000
0033
,
0001
0010
0001
0000
1000
0100
1000
0000
,
0010
0000
0100
0000
0010
0000
0000
0000
0100
0000
0001
0000
0020
0000
0000
0030
,
0001
1000
0100
0000
0010
0100
1000
0000
,
0001
0100
0010
0000
1000
0001
0010
0100
,
0010
0001
1000
0000
0100
0010
0100
0000
,
0010
0001
1000
0000
0010
1000
0010
0100
,
0001
1000
0100
0000
0100
0001
0010
0000
,
0100
1000
0010
0000
0010
0001
0010
0100
,
1000
0001
0100
0000
0010
1000
0010
0000
,
0100
0001
1000
0010
1000
0100
0010
0001
,
0000
0000
0000
0000
,
0020
0000
0000
0000
0000
0000
0000
0030
0200
0000
0000
0000
0000
0000
0000
0300
,
0002
0000
0000
0000
0000
0000
0000
0003
2000
0000
0000
0000
0000
0000
0000
3000
,
0020
0000
0000
0000
0000
0000
0000
0030
0200
0000
0000
0000
0000
0000
0000
0300
,
0002
0000
0000
0000
0000
0000
0000
0003
0020
0000
0000
0000
0000
0000
0000
0030
,
0001
0000
0010
0001
0000
0000
1000
0000
0100
0000
1000
0100
0000
0000
0010
0000
,
0001
0000
0010
0001
0000
0000
0010
0000
0001
0000
0010
0000
0100
0000
0000
0000
,
1000
0000
0010
1000
0000
0000
0010
0000
0100
0000
0010
0100
0000
0000
0001
0000
,
0010
0000
0001
0010
0000
0000
0001
0000
0001
0000
0000
0000
0000
0000
0000
0000
,
0100
0000
0001
0100
0000
0000
0001
0000
0100
0000
0010
0100
0000
0000
0001
0000
,
1000
0000
0010
0100
0000
0000
0001
0000
0010
0000
0100
0000
1000
0000
0000
0000
,
0100
0000
1000
0100
0000
0000
0010
0000
0100
0000
0010
0100
0000
0000
0010
0000
,
0001
0000
0010
0001
0000
0000
0010
0000
0001
0000
1000
0000
0100
0000
0000
0000
,
1000
0000
0001
0010
0000
0000
0001
0000
1000
0000
0100
1000
0000
0000
0010
0000
,
0100
0000
0001
0010
0000
0000
0001
0000
0001
0000
0000
0000
0000
0000
0000
0000
,
0100
0000
0010
0100
0000
0000
0010
0000
1000
0000
0001
1000
0000
0000
0010
0000
,
0100
0000
0001
0010
0000
0000
0001
0000
1000
0000
0100
0000
0010
0000
0001
0000
,
0011
0000
0000
0001
0000
0000
0000
0000
0101
0000
0000
0100
0000
0000
0000
0000
,
0110
0000
0000
0010
0000
0000
0000
0000
1000
0000
0100
0000
1000
0000
0010
0000
,
0110
0000
0000
0100
0000
0000
0000
0000
0101
0000
0000
0001
0000
0000
0000
0000
,
0011
0000
0000
0010
0000
0000
0000
0000
0100
0000
1000
0000
0100
0000
0010
0000
,
0011
0000
0000
0001
0000
0000
0000
0000
1100
0000
0000
1000
0000
0000
0000
0000
,
1010
0000
0000
0010
0000
0000
0000
0000
0100
0000
0010
0000
0100
0000
0001
0000
,
0101
0000
0000
0100
0000
0000
0000
0000
0110
0000
0000
0010
0000
0000
0000
0000
,
1010
0000
0000
1000
0000
0000
0000
0000
0101
0000
0000
0001
0000
0000
0000
0000
,
1100
0000
0000
1000
0000
0000
0000
0000
0011
0000
0000
0001
0000
0000
0000
0000
;

//--------------- dance-single - Pax_Vesania ----------------
#NOTES:
     dance-single:
     Pax_Vesania:
     Hard:
     13:
     0,0,0,0,0:
0000
0000
0000
0000
,
0000
0000
0000
0000
,
0110
0000
0100
0010
0000
0000
0000
0000
0101
0000
0001
0010
0000
0000
0000
0000
,
0110
0000
0100
1000
0000
0000
0000
0000
1001
0000
1000
0000
0010
0000
0000
0000
,
1100
0000
0100
0010
0000
0000
0000
0000
0011
0000
0001
0100
0000
0000
0000
0000
,
0101
0000
0100
0010
0000
0000
0000
0000
0101
0000
0001
0000
0100
0000
0010
0000
,
1000
0000
0100
0010
0000
0100
1000
0000
0001
0000
0100
0010
0000
0001
0010
0000
,
1000
0000
0100
0010
0000
0100
1000
0000
1010
0000
1000
0000
0001
0000
0100
0000
,
0001
0000
0100
0010
0000
0010
1000
0000
0001
0000
1000
0100
0000
0001
0100
0000
,
0010
0000
0001
1000
0000
0100
0010
0000
0001
0000
0010
0000
1000
0000
0010
0000
,
0001
0000
0000
0011
0000
0000
0000
0000
1000
0000
0000
1100
0000
0000
0000
0000
,
0001
0000
0000
0101
0000
0000
0000
0000
0001
0000
0001
0000
0100
0010
0000
0000
,
0100
0000
0000
0110
0000
0000
0000
0000
0010
0000
0000
1010
0000
0000
0000
0000
,
0100
0000
0000
0101
0000
0000
0000
0000
0010
0000
0010
0000
1000
0010
0000
0000
,
0100
0000
0001
0010
0000
0000
0100
0000
1000
0000
0100
0001
0000
0000
0100
0000
,
1000
0000
0010
0100
0000
0000
0000
0000
0010
0000
1000
0000
1000
0100
0000
0000
,
0010
0000
0001
0010
0000
0000
0001
0000
0100
0000
0100
0010
0000
0000
1000
0000
,
0100
0000
0100
0001
0000
0000
0000
0000
0100
0000
1000
0000
0001
0010
0000
0000
,
0100
0000
1000
0100
0000
0010
0100
0000
0010
0000
0001
0000
0010
0000
1000
0000
,
0010
0000
0100
1000
0000
0001
0010
0000
0100
0000
1000
0000
0100
0000
0001
0000
,
0100
0000
0010
0100
0000
0010
0001
0000
0100
0000
0010
0000
1000
0000
0001
0000
,
0010
0000
0100
0010
0000
0001
0010
0000
0100
0000
1000
0000
0100
0000
0001
0000
,
0100
0000
0010
0100
0000
1000
0001
0000
0100
0000
0010
0000
0001
0000
0010
0000
,
1000
0000
0010
1000
0000
0001
0100
0000
0001
0000
0010
0000
0100
0000
1000
0000
,
0010
0000
0100
0010
0000
0100
0001
0000
1000
0000
0010
0000
0100
0000
0001
0000
,
1000
0000
0010
0001
0000
0010
0100
0000
0001
0000
1000
0000
0100
0010
0001
0000
,
0000
0000
0000
0000
,
0010
1000
0100
1000
0000
0000
0001
0000
0100
0010
0100
0001
0000
0000
0010
0000
,
0100
1000
0010
1000
0000
0000
0100
0000
0010
0001
0100
0001
0000
0000
1000
0000
,
0200
0000
0300
0020
0000
0030
0001
0000
2000
0000
3000
0020
0000
0030
0001
0000
,
2000
0000
3000
0200
0000
0300
0001
0000
0010
0000
0001
0000
0010
0100
1000
0000
,
0100
0000
1000
0100
1000
0000
0010
0000
0100
0000
0010
0000
1000
0000
1000
0000
,
0100
0000
0000
0000
1000
0000
0000
0000
0010
0000
0000
0000
0100
0000
0000
0000
0001
0000
0000
0000
0010
0000
0000
0000
0001
0000
0000
0100
0000
0000
0001
0000
0000
0000
0000
0000
0022
0000
0000
0000
0000
0000
0000
0000
0000
0033
0000
0000
,
0010
0000
0001
0010
0001
0000
1000
0000
0100
0010
0100
0010
0100
0000
0010
0000
,
0001
0000
1000
0000
0010
0000
0100
0000
0001
0000
1000
0001
2000
0000
0000
3000
,
0010
0000
1000
0100
0000
0010
0100
0000
1000
0000
0001
0000
0100
0000
0010
0000
,
0100
0000
0001
0010
0000
0100
0010
0000
0001
0000
0010
0000
1000
0000
0010
0000
,
0100
0000
0100
1000
0000
0100
0010
0000
0001
0000
1000
0000
0100
0000
0010
0000
,
0100
0000
0010
0001
0000
1000
0100
0000
0001
0000
0100
0000
1000
0000
0001
0000
,
0100
0000
0001
1000
0000
0100
0010
0000
0001
0000
0010
0000
1000
0000
0010
0000
,
0001
0000
0100
0010
0000
1000
0001
0000
1000
0000
0001
0000
0010
0000
0100
0000
,
0010
0000
0100
1000
0000
0001
0010
0000
0100
0000
0010
0000
0001
0000
0100
0000
,
0010
0000
1000
0100
0000
0010
0001
0000
1000
0000
0010
0000
0001
0000
0100
0000
,
0000
0000
0000
0000
,
0020
0000
0000
0000
0000
0000
0000
0030
2000
0000
0000
0000
0000
0000
0000
3000
,
0200
0000
0000
0000
0000
0000
0000
0300
2000
0000
0000
0000
0000
0000
0000
3000
,
0020
0000
0000
0000
0000
0000
0000
0030
0200
0000
0000
0000
0000
0000
0000
0300
,
0002
0000
0000
0000
0000
0000
0000
0003
0020
0000
0000
0000
0000
0000
0000
0030
,
0100
0000
1000
0100
0000
1000
0010
1000
0010
0000
0100
0001
0000
0010
0001
0010
,
0001
0000
1000
0100
0000
0010
0001
1000
0001
0000
0010
0000
0110
0000
0000
0000
,
1000
0000
0100
0010
0000
0100
1000
0010
1000
0000
0100
0010
0000
0001
0010
0001
,
0100
0000
0010
1000
0000
0100
0010
0000
0002
0000
0003
0000
0000
0000
0000
0000
,
0010
0000
0001
0100
0000
0010
0100
0010
1000
0000
0010
0100
0000
0001
0100
0001
,
0010
0000
0100
1000
0000
0100
0010
0100
0010
0000
0100
0000
1100
0000
1000
0000
,
0200
0000
0300
0020
0000
0030
0001
0000
2000
0000
3000
0020
0000
0030
0001
0000
,
2000
0000
3000
0200
0000
0300
0001
0000
0100
0000
0001
0000
0010
0000
0000
0000
,
0100
0000
1000
0010
0000
0100
0001
0100
0001
0000
0010
0100
0000
1000
0001
1000
,
0001
0000
0100
0010
0000
0100
0001
0100
0010
0000
0100
0000
0110
0000
0000
0000
,
0001
0000
1000
0100
0000
1000
0010
1000
0100
0000
0010
0001
0000
0100
0001
0010
,
0001
0000
0001
0100
0000
0000
0010
0000
1000
0000
0100
0000
0020
0000
0000
0030
,
0011
0000
0010
0001
0000
1000
0100
0000
1010
0000
0010
1000
0000
0001
0100
0000
,
0101
0000
0100
0001
0000
0010
0100
0000
1100
0000
0100
0000
1000
0000
0100
0000
,
0110
0000
0010
0100
0000
0010
0001
0000
0101
0000
0100
0010
0000
1000
0001
0000
,
1001
0000
0001
1000
0000
0100
0010
0000
0001
0010
0001
0000
1000
0000
0100
0000
,
0110
0000
0010
0001
0000
0010
0001
0100
0001
0000
1000
0100
0000
1000
0100
1000
,
0010
0000
0100
0010
0000
0100
0010
1000
0001
0000
0101
0000
0110
0000
0100
0000
,
1010
0000
1000
0010
0000
0100
0001
0000
0101
0000
0100
0001
0000
1000
0100
0000
,
1100
0000
0100
0010
0000
0001
0010
0000
0011
0000
0010
0100
0000
1000
0001
0000
,
1001
0000
1000
0010
0000
0100
0010
0000
0110
0000
0100
0001
0100
0010
0100
0010
;

//--------------- dance-single - Pax_Vesania ----------------
#NOTES:
     dance-single:
     Pax_Vesania:
     Challenge:
     16:
     0,0,0,0,0:
0000
0000
0000
0000
0000
0000
0000
0000
0001
0010
0100
0001
0100
1000
0100
0010
,
0100
0010
0001
0010
0002
0000
0000
0003
0001
0010
0100
1000
0100
0000
0000
0000
,
0010
0000
0100
1000
0000
1000
0100
1000
0100
0000
0010
0100
0000
0010
0100
0010
,
0100
0000
0010
0001
0000
0000
0001
0010
0001
0010
0100
1000
0100
1000
0010
1000
,
0001
0000
1000
0100
0000
1000
0010
0100
0010
0000
0100
0001
0000
0100
0010
0100
,
0001
0000
1000
0100
0000
0000
0010
0100
1000
0100
1000
0010
1000
0100
1000
0001
,
0100
0000
0001
1000
0000
0100
0010
0100
1000
0000
0100
0010
0000
0100
1000
0001
,
0010
0000
0100
1000
0000
0000
0010
0100
1000
0100
0001
0010
1000
0010
0001
1000
,
0100
0000
0010
0001
0000
1000
0100
1000
0001
0000
0100
0010
0000
1000
0100
0010
,
0100
0000
0010
0001
0000
0000
0010
1000
0010
0001
0100
1000
0100
0001
0010
0000
,
0100
0000
1000
0100
0000
0100
1000
0000
0001
0000
0010
0001
0000
0001
0010
0000
,
0100
0000
1000
0001
0000
0000
0000
0000
0100
0000
0010
0000
1000
0001
0000
0000
,
0010
0000
0100
1000
0000
0100
0010
0000
0001
0000
0010
0100
0000
0010
0001
0000
,
0100
0000
0010
1000
0000
0000
0000
0000
0001
0000
1000
0000
0100
0010
0000
0000
,
0100
0000
1000
0010
0000
0001
0010
0000
0100
0000
1000
0100
0000
0001
0010
0000
,
0100
0000
1000
0001
0000
0000
0000
0000
0010
0000
0001
0000
1000
0100
0000
0000
,
0010
0000
0100
1000
0000
0100
0001
0000
0100
0000
0010
0001
0000
1000
0100
0000
,
1000
0000
0001
0010
0000
0000
0000
0000
0100
0000
1000
0000
0001
0010
0000
0000
,
0100
0000
1000
0010
0000
0100
0001
0000
1000
0001
0010
0100
1000
0100
1000
0001
,
0100
0000
0010
1000
0000
0001
0100
0000
0010
1000
0010
0100
0001
0010
0001
1000
,
0100
0000
0010
0001
0000
1000
0100
0000
0010
0001
0010
0100
1000
0001
1000
0010
,
0100
0000
0001
1000
0000
0100
0010
0000
0001
1000
0100
0010
0100
1000
0001
0010
,
0001
0000
0100
0010
0000
1000
0100
0000
0010
0001
1000
0100
1000
0010
0100
0001
,
0010
0000
0100
1000
0000
0001
0010
0000
0100
1000
0001
1000
0100
0010
0100
1000
,
0001
0000
0100
0010
0000
1000
0001
0000
0100
0010
0100
0001
1000
0100
1000
0001
,
0010
0000
0100
1000
0000
0001
0010
0000
0100
1000
0001
0000
0100
0001
0010
0000
,
0100
1000
0000
0001
0000
0100
0010
1000
0000
0010
0000
1000
0100
1000
0010
1000
,
0001
0010
0100
0020
0000
0030
0001
0000
1000
0010
0100
0020
0000
0030
0100
0000
,
0001
0010
0100
0002
0000
0003
0100
0000
1000
0001
1000
0200
0000
0300
0010
0000
,
0002
0000
0003
2000
0000
3000
0100
0000
0020
0000
0030
0200
0000
0300
0010
0000
,
0002
0000
0003
2000
0000
3000
0100
0000
1000
0000
0010
0000
0100
0001
0100
0000
,
0010
0100
1000
0100
0001
0010
0100
0001
0200
0000
0000
0300
0010
0100
0010
0000
,
0001
0000
0000
0000
1000
0000
0000
0000
0010
0000
0000
0000
0001
0000
0000
0000
1000
0000
0000
0000
0100
0000
0000
0000
0001
0000
0000
0010
0000
0000
0001
0000
0000
0000
0000
0000
0022
0000
0000
0000
0000
0000
0000
0000
0000
0033
0000
0000
,
0001
0000
1000
0100
1000
0100
0010
0000
0001
0010
0001
1000
0001
0100
0001
0010
,
0001
1000
0100
0010
0100
0010
0001
1000
0100
0010
0001
0100
0020
0000
0000
0030
,
0100
0000
0001
1000
0000
0100
0010
0000
0001
0100
0010
1000
0001
0010
0100
1000
,
0100
0000
0010
0001
0000
1000
0100
0000
0010
0100
1000
0001
0010
0001
1000
0100
,
0010
0000
0001
1000
0000
0100
0010
0000
0001
1000
0001
0100
0010
1000
0001
0010
,
0100
0000
1000
0010
0000
0100
0001
0000
0100
0010
0100
0001
1000
0001
0100
0010
,
0100
0000
0001
1000
0000
0100
0010
0000
0001
1000
0100
0010
0100
0010
0001
0100
,
0001
0000
0010
0100
0000
1000
0100
0000
0010
0100
1000
0001
0010
0100
0010
0001
,
0010
0000
0001
0100
0000
0010
1000
0000
0100
0010
0100
1000
0001
0010
0001
1000
,
0100
0000
0010
0100
0000
0010
0001
0000
0100
0010
1000
0000
0001
0100
0010
0000
,
0100
0001
0000
1000
0000
0100
0010
0001
0000
1000
0000
0100
0010
0000
0000
0000
,
0002
0000
0000
0000
0000
0000
0000
0003
2000
0000
0000
0000
0000
0000
0000
3000
,
0020
0000
0000
0000
0000
0000
0000
0030
0200
0000
0000
0000
0000
0000
0000
0300
,
0020
0000
0000
0000
0000
0000
0000
0030
2000
0000
0000
0000
0000
0000
0000
3000
,
0012
0000
0000
0000
0010
0000
0003
0000
0201
0000
0000
0000
0020
0000
0030
0300
,
0010
0000
1000
0100
0000
0010
0001
0100
0001
0000
0010
0100
0000
1000
0001
1000
,
0010
0000
0100
0001
0100
0010
1000
0001
0010
0100
0010
0001
1000
0000
0100
1000
,
0100
0000
0010
0001
0000
1000
0010
0100
0001
0000
0010
0100
0000
1000
0100
1000
,
0001
0010
0001
1000
0100
0010
0001
0100
0010
0100
0001
0100
0001
0010
0100
1000
,
0001
0000
1000
0100
0000
0010
0100
1000
0001
0000
0100
0010
0000
1000
0001
1000
,
0010
0000
0100
0001
0010
0100
1000
0001
1000
0010
0100
0001
1000
0100
1000
0001
,
0010
0000
0100
1000
0000
0001
1000
0010
1000
0000
0001
0010
0000
0100
1000
0100
,
0010
0001
1000
0001
1000
0100
0010
0100
1000
0001
0010
0100
0010
0001
1000
0001
,
0010
0000
0100
0010
0000
0001
0010
0001
1000
0000
0100
0010
0000
0100
1000
0001
,
0100
0010
0100
0001
1000
0100
0010
0001
0100
0010
0100
0001
0010
0100
1000
0001
,
1000
0000
0100
1000
0000
0001
0010
0000
0100
0000
1000
0100
0000
0001
0100
0000
,
1000
0000
0010
0001
0000
0010
1000
0000
0001
0010
0100
1000
0001
1000
0001
0010
,
0100
0000
1000
0100
0000
1000
0010
1000
0001
0010
0100
0001
0000
0100
1000
0001
,
0010
0100
1000
0001
0000
1000
0100
1000
0010
0001
0010
1000
0001
1000
0100
0010
,
0001
0000
0010
0100
0000
1000
0010
0100
0001
1000
0100
0010
0000
0001
1000
0010
,
0100
0001
0010
0001
0000
0010
1000
0010
0001
0100
0010
1000
0100
0001
0100
0010
,
0001
0000
1000
0100
0000
0010
0100
1000
0001
0100
0010
1000
0000
0010
0100
0001
,
1000
0100
1000
0001
0000
0010
0100
0010
0001
0010
1000
0010
0001
0100
0010
1000
,
0001
0000
0010
0100
1000
0100
0010
0001
1000
0001
0010
0100
0010
0001
1000
0100
,
0010
0100
1000
0001
0100
0010
1000
0001
1000
0100
0010
0100
1000
0001
0010
0100
,
1000
0010
0100
0001
1000
0100
1000
0001
1000
0010
0100
0001
0010
0100
1000
0001
;
