#TITLE:マラソン;
#SUBTITLE:;
#ARTIST:花澤香菜;
#TITLETRANSLIT:Marathon;
#SUBTITLETRANSLIT:;
#ARTISTTRANSLIT:Hanazawa Kana;
#GENRE:;
#CREDIT:;
#MUSIC:Marathon.ogg;
#BANNER:;
#BACKGROUND:;
#CDTITLE:;
#SAMPLESTART:56.802;
#SAMPLELENGTH:27.882;
#SELECTABLE:YES;
#OFFSET:-0.332;
#BPMS:0.000=170.000;
#STOPS:;
#BGCHANGES:;
#FGCHANGES:;

//--------------- dance-single - Pax_Vesania ----------------
#NOTES:
     dance-single:
     Pax_Vesania:
     Beginner:
     3:
     0,0,0,0,0:
0000
0000
0000
0000
,
0000
0000
0000
0000
,
0000
0000
0000
0000
,
0000
0000
0000
0000
,
0000
0000
0000
0000
,
0000
0000
0000
0000
,
0000
0000
0000
0000
,
0000
0000
0200
0000
,
0300
0100
0000
0000
,
0000
0000
0000
1000
,
0000
1000
0000
0000
,
0000
0000
0000
0010
,
0000
0010
0000
0000
,
0000
0000
0000
0001
,
0000
0001
0000
0000
,
0000
0000
0000
1001
,
0000
0000
0000
0000
,
0000
0000
0000
0000
,
1000
0000
0000
0000
0000
2000
0000
0000
,
0000
0000
3000
0000
,
0000
0000
0000
0000
,
0000
0000
0000
0001
,
0000
0000
0000
0020
,
0000
0000
0000
0030
0000
0000
0000
0000
,
0000
0100
0000
0100
,
0000
1000
0000
1000
,
0000
0010
0000
0010
,
0000
0100
0000
0100
,
0000
0000
0000
0000
,
0020
0000
0000
0000
0000
0000
0030
0000
2000
0000
0000
0000
0000
3000
0000
0000
,
1000
0000
0000
0010
,
0010
0000
0000
0000
,
1001
0000
0000
0000
,
0001
0000
0001
0000
,
1001
0000
0000
0000
,
0100
0000
0100
0000
,
0110
0000
0000
0000
,
0010
0000
0010
0000
,
1001
0000
0000
0000
,
1000
0000
1000
0000
,
2000
0000
0000
0000
0000
0000
0000
3000
,
2000
0000
0000
0000
0000
0000
0000
3000
,
0200
0000
0000
0300
0200
0000
0000
0300
,
0010
0010
0000
0000
,
0000
0001
0000
0001
,
0000
0000
0000
0000
,
1000
0000
1000
0000
,
0010
0000
0010
0000
,
0000
0010
0000
0010
,
0000
0100
0000
0100
,
0000
0001
0000
0001
,
0000
0000
1000
0000
,
2000
0000
0000
0000
,
0000
3000
0000
0000
0001
0000
0000
0000
,
0002
0000
0000
0000
,
0000
0000
0000
0003
0000
0000
0000
0000
,
0000
0100
0000
0100
,
0000
0010
0000
0010
,
0000
1000
0000
1000
,
0000
0000
0001
0001
,
0000
0010
0000
0100
,
0000
1000
0000
0010
,
0000
0100
0000
0001
,
0000
0001
0000
0001
,
0001
0000
0000
0000
,
0000
0000
1000
1000
,
0000
0000
0000
0000
,
0000
0000
0000
0000
,
0000
0000
0000
0000
,
0000
0000
0000
0000
,
1000
0000
1000
0000
,
0100
0000
0100
0000
,
0010
0000
0010
0000
,
0001
0000
0001
0000
,
0200
0000
0000
0300
0100
0000
0000
0010
,
0000
0000
0000
0000
0010
0000
0000
0100
,
0000
0000
0000
0000
0001
0000
0000
1000
,
0000
1000
0000
0000
,
0000
0000
0010
0000
0000
0010
0000
0010
,
0000
0000
0000
0100
0000
0000
0100
0000
,
0100
0000
0000
0001
0000
0000
0002
0000
,
0000
0000
0000
0000
0000
0000
0000
0003
,
0020
0000
0000
0000
0030
0000
0020
0000
0000
0000
0000
0030
2000
0000
0000
0000
,
0000
0000
0000
0000
0000
0000
0000
3000
,
0002
0000
0000
0000
0003
0000
0002
0000
0000
0000
0000
0003
0200
0000
0000
0000
,
0000
0000
0300
0000
;

//--------------- dance-single - Pax_Vesania ----------------
#NOTES:
     dance-single:
     Pax_Vesania:
     Easy:
     5:
     0,0,0,0,0:
0000
0000
0000
0000
,
0000
0000
0000
0000
,
0000
0000
0000
0000
,
0000
0000
0000
0000
,
0000
0000
0000
0000
,
0000
0000
0000
0000
,
0000
0000
0000
0000
,
0000
0000
0020
0230
,
0310
0000
1000
0000
0000
0010
0000
0010
,
0000
0000
0000
1000
0000
0000
1000
0000
,
0000
0000
0001
0000
0000
0100
0000
0100
,
0000
0000
0000
0001
0000
0000
0001
0000
,
0100
0000
0010
0000
0000
1000
0000
1000
,
0000
0000
0000
0010
0000
0000
0010
0000
,
0000
0000
1000
0000
0000
0001
0000
0001
,
0000
0000
0000
1000
0000
0000
1000
0000
,
0000
0000
0000
0000
,
0000
0000
0000
0000
,
0001
0000
0000
0100
0000
0020
0000
0000
,
0000
0000
0030
0000
,
0000
0000
0000
0000
,
0000
0000
0000
1000
,
0010
0000
0000
0010
0000
0000
0200
0000
,
0000
0300
0000
0000
,
0001
0001
0000
0001
,
0100
0100
0000
0100
,
1000
1000
0000
1000
,
0010
0010
0000
0010
,
0100
0000
0000
0001
0000
0001
0000
0000
,
0020
0000
0000
0000
0000
0000
0030
0000
0200
0000
0000
0000
0000
0300
0000
0000
,
0000
0000
0000
0000
,
0000
0000
0000
0000
,
1000
0000
0001
0000
,
1000
1000
0001
0000
,
0100
0000
0010
0000
,
0100
0010
0010
0000
,
1001
0000
0001
0000
,
0100
0010
0010
0000
,
0110
0000
0001
0000
,
1000
0010
1000
0001
,
2000
0000
0000
0000
0000
0000
0000
0000
0000
0000
0000
0000
0000
0000
0000
3000
,
0200
0000
0000
0000
0000
0000
0000
0000
0000
0000
0000
0000
0000
0000
0000
0300
,
0020
0000
0000
0000
0000
0000
0000
0030
0020
0000
0000
0000
0000
0000
0000
0030
,
0001
0001
0000
0000
,
0000
0100
0100
0010
,
0000
0000
1000
1000
,
0001
0000
0110
0000
,
1001
0000
0110
0000
,
0100
0000
0001
0001
,
1000
0000
0010
0010
,
0100
0000
0001
0001
,
0000
0000
1000
0100
,
0020
0000
0001
0000
,
0001
0030
0000
0000
0001
0000
0010
0000
,
0200
0000
1000
0000
,
1000
0300
0000
0000
1000
0000
0020
0000
,
0000
0030
0200
0000
0000
0300
0000
0000
,
0200
0000
0000
0300
0002
0000
0000
0000
,
0000
0003
0020
0000
0000
0000
0000
0000
,
0000
0000
0130
1000
,
0010
0000
0100
0000
,
0001
0000
0010
0000
,
0100
0000
1000
0000
,
0010
0000
0001
0000
,
0010
0000
0000
1000
0000
0000
0100
0000
,
0000
0000
1000
1000
,
1001
0000
0000
0000
,
0000
0000
0000
0000
,
0110
0000
0000
0000
,
0000
0000
0000
0000
,
1000
0000
0010
0000
,
0100
0100
0001
0001
,
1001
0000
1001
0000
,
0110
0000
0110
0000
,
0002
0000
0000
0000
0000
0000
0000
0003
0100
0000
0000
0000
0000
0000
0001
0000
,
0000
0000
1000
0000
1000
0000
0000
0001
,
0000
0000
0100
0000
0100
0000
0000
0010
,
0000
0200
0000
0000
,
0300
0000
0001
0000
0000
0001
0000
0100
,
0000
0001
0000
1000
0000
0000
0001
0000
,
0010
0000
0000
0100
0000
0000
2000
0000
,
0000
0000
0000
0000
0000
0000
0000
3000
,
0002
0000
0000
0000
0000
0003
2000
0000
0000
0000
0000
3000
0200
0000
0000
0000
,
0000
0000
0000
0000
0000
0000
0000
0000
0000
0000
0000
0000
0000
0000
0000
0300
,
0020
0000
0000
0000
0000
0030
0200
0000
0000
0000
0000
0300
2000
0000
0000
0000
,
0000
0000
3000
0000
;

//--------------- dance-single - Pax_Vesania ----------------
#NOTES:
     dance-single:
     Pax_Vesania:
     Medium:
     9:
     0,0,0,0,0:
0000
0000
0000
0000
,
0000
0000
0000
0000
,
0000
0000
0000
0000
,
0000
0000
0000
0000
,
0001
0000
0001
0000
1000
0000
1000
0010
,
0000
0010
0100
0010
0000
0100
0001
0000
,
0100
0000
0100
0000
0001
1000
0001
1000
,
0000
0100
0010
0000
0000
0000
0000
0000
,
1001
0000
1000
0010
0000
0010
0000
0010
,
0000
0100
0000
0100
0000
0001
0100
0000
,
0000
0000
0001
0010
0000
0010
0000
0010
,
0000
0100
0000
0100
0000
1000
0100
0000
,
1001
0000
0001
0100
0000
0100
0000
0100
,
0000
0010
0000
0010
0000
0100
0001
0000
,
0000
0000
0100
0010
0000
0010
0000
0010
,
0000
1000
0000
0100
0000
0010
0001
0000
,
1000
0000
0000
0010
0000
0000
0100
0000
,
0010
0000
0000
1000
0000
0000
0110
0000
,
0010
0000
1000
0001
1000
0002
0000
0000
,
0000
0000
0003
0000
,
0001
0000
0000
0100
0000
0000
1000
0000
,
0100
0000
0000
0001
0000
0000
0000
1000
,
0001
0000
0001
0100
0000
0100
0020
0000
,
0000
0030
0000
0000
,
1000
0000
0001
0000
1000
0001
1000
0000
,
0100
0000
0010
0000
0001
0010
0001
0000
,
0010
0000
0100
0000
1000
0100
1000
0000
,
0010
0000
0100
0001
0000
0001
1000
0000
,
0010
1000
0010
0000
0100
0001
0100
0000
,
0001
1000
0001
0000
0100
0010
0100
0000
,
1001
0000
0000
0101
0000
0000
0110
0000
,
1010
0000
0000
0000
,
1000
0000
0000
0001
0010
0000
0000
0000
,
0001
1000
0000
1000
0100
0000
0001
0000
,
0100
0000
0000
0100
1000
0000
0000
0010
,
1000
0010
0000
0100
0001
0000
0010
0000
,
0110
0000
0100
1000
0100
0000
0010
0000
,
0010
0001
0000
0001
0010
0000
0100
0000
,
1100
0000
0100
1000
0001
0000
0100
0000
,
0100
0010
0010
0100
,
0020
0000
0000
0000
0000
0000
0000
0000
0000
0000
0000
0000
0000
0000
0000
0030
,
2000
0000
0000
0000
0000
0000
0000
0000
0000
0000
0000
0000
0000
0000
0000
3000
,
0200
0000
0000
0000
0000
0000
0000
0300
0020
0000
0000
0000
0000
0000
0000
0030
,
0002
0000
0000
0003
0011
0000
0000
0000
0000
0000
0000
0000
1001
0000
0000
0000
,
1000
0100
0010
0001
,
0000
0000
0001
0100
,
0010
1000
1010
0010
,
0110
0100
0101
0002
,
0000
0003
0200
0000
0010
0000
0010
0000
,
0000
0310
1000
0002
,
0000
0003
0020
0000
0001
0000
0001
0000
,
0000
0031
1000
0010
,
0001
0000
0010
0000
1000
0010
1000
0000
,
0001
0000
0100
0000
0001
0100
0001
0000
,
0010
0000
0100
0000
0010
0001
1000
0000
,
0010
0000
0100
0000
0010
1000
0100
0000
,
0100
0000
0010
0000
0100
0010
0001
0000
,
0200
0000
0000
0300
0002
0000
0000
0000
,
0000
0003
0020
0000
0000
0000
0001
0000
,
0000
0000
0031
0000
0000
0000
0000
0001
,
1000
0001
1000
0001
0000
0100
0000
1000
,
0000
0100
0000
0001
0000
0000
1001
0000
,
0001
0100
0001
1000
,
0100
1000
0100
0000
0010
0001
0010
0000
,
0001
0000
0000
1000
0000
0000
0100
0000
,
0000
0000
1001
1001
,
1000
0001
1000
0001
,
0100
0010
0100
0010
,
1000
0010
0001
0010
,
1000
0100
0001
0100
,
1000
0000
0000
1000
0100
0000
0000
1000
,
0001
0010
0000
0001
1000
0000
0100
0000
,
0010
0001
0100
0001
,
1000
0010
1000
0010
1000
0001
1000
0001
,
0002
0000
0000
0000
0000
0000
0000
0003
0100
0000
0001
0000
1000
0000
0001
0000
,
0000
0001
1000
0000
0100
0010
0100
1000
,
0000
0010
1000
0000
0010
0100
0010
1000
,
0000
0001
0002
0000
0000
0000
0000
0000
,
0003
0000
0001
0010
0000
0010
0000
0100
,
0000
1000
0000
0100
0000
1000
0010
0000
,
0010
0100
0010
0000
0100
0001
0100
0000
,
0001
0100
0000
0010
0000
1000
0100
0000
,
0100
0010
0100
1000
,
0001
0100
1000
0100
,
0002
0000
0000
0023
0000
0000
0230
0000
,
0000
0000
0300
0000
;

//--------------- dance-single - Pax_Vesania ----------------
#NOTES:
     dance-single:
     Pax_Vesania:
     Hard:
     11:
     0,0,0,0,0:
0000
0000
0000
0000
,
0000
0000
0000
0000
,
0000
0000
0000
0000
,
0000
0000
0000
0000
,
0000
0000
0000
0000
,
0000
0000
0000
0000
,
0000
0000
0000
0000
,
0000
0000
0000
0000
0001
0010
0100
1000
,
0001
0000
0100
0100
0000
0010
0000
1000
,
0000
0001
0000
0100
0000
0010
0010
0000
,
1100
0000
1000
1000
0000
0001
0000
0010
,
0000
0100
0000
1000
0000
0100
0100
0000
,
0011
0000
0001
0001
0000
0100
0000
0010
,
0000
1000
0000
0100
0000
0001
0100
0000
,
1010
0000
0001
0001
0000
1000
0000
0010
,
0000
0100
0000
0010
0000
1000
0100
0000
,
1100
0000
0000
0101
0000
0000
1010
0000
,
0011
0000
0000
0110
0000
0000
0002
0003
,
1000
0010
0001
0010
1000
0200
0000
0000
,
0000
0000
0300
0000
,
1010
0000
0000
1100
0000
0000
0110
0000
,
1001
0000
0000
0110
0000
0010
1000
0100
,
0001
0100
1000
0001
0000
0100
0020
0000
,
0000
0000
0030
0000
1000
0010
0100
0001
,
0100
0000
0010
0000
1000
0100
0010
0000
,
0100
0000
0010
0000
0001
0010
0100
0000
,
1000
0000
0001
0000
0100
1000
0100
0000
,
0010
0100
0101
0001
0000
0100
0110
0000
,
0001
0010
0000
0001
0000
0100
0000
0000
,
0020
0000
0000
0000
0000
0000
0000
0030
2000
0000
0000
0000
0000
0000
3000
0000
,
0011
0000
0001
0101
0000
0100
0110
0000
,
1010
0000
0000
0001
0000
0010
0100
1000
,
0100
0000
0000
1000
0010
0000
0000
0010
,
1000
0000
0100
0010
0000
0000
0100
0000
,
0010
0000
0000
0001
0010
0000
0000
0001
,
0100
0000
0100
0001
0000
0010
0100
0000
,
1100
0000
1000
0100
0010
0001
0010
0100
,
1000
0001
0010
0100
1000
0001
0100
0000
,
0011
0000
0001
0100
0010
1000
0001
0100
,
0010
1000
0100
0010
0100
1000
0001
0000
,
2000
0000
0000
0000
0010
0000
0000
0000
0010
0000
0000
0000
0010
0000
0000
3000
,
0200
0000
0000
0000
0001
0000
0000
0000
0001
0000
0000
0000
0001
0000
0000
0300
,
0010
0001
1000
0100
0010
0001
0100
0010
,
0100
0001
1000
0000
0100
0000
0010
0000
,
0011
1000
0100
0010
,
0000
0000
0001
0100
,
0010
0000
1000
0100
1000
0100
0010
0100
,
1000
0001
0010
0100
0010
0001
0010
0100
,
1000
0000
0100
0000
1000
0001
0010
0000
,
0001
0000
0010
0000
0001
1000
0100
0000
,
0010
0000
0100
0000
0010
0001
0100
0010
,
0010
1000
1100
0000
1000
0000
0100
0000
,
0020
0000
0001
0100
,
0001
0030
0001
1000
,
0200
0000
1000
0010
,
1000
0000
0300
0000
1000
0010
0100
0000
,
0101
0000
0001
0000
0100
0010
1000
0000
,
0100
0000
1000
0000
0001
0001
0010
0000
,
0001
0000
0100
0000
0010
1000
0010
0000
,
0100
0000
0001
0010
0010
0100
0100
1000
,
0001
1000
0001
0100
1000
0100
0001
0010
,
0100
1000
0100
0010
0000
0000
0000
0001
,
0001
0100
0010
1000
0010
0001
0010
1000
,
0001
0010
0000
0100
0000
0000
0000
0000
,
2000
0000
0000
0000
0000
3000
0200
0000
0000
0000
0000
0300
0020
0000
0000
0000
,
0000
0000
0000
0000
0000
0000
0000
0030
0100
0000
0010
0000
0100
0000
0000
0000
,
1001
0001
0001
1000
,
1000
1000
0010
0010
,
0100
0100
0001
0001
,
0010
0000
0010
0001
0000
0010
0100
0000
,
1100
0000
0000
0100
1000
0000
0000
1000
,
0001
1000
0100
0010
0100
0010
0000
0000
,
0001
0100
0001
1000
0001
1000
0010
1000
,
0001
0100
0001
1000
0100
0001
0100
0010
,
0020
0000
0000
0000
0000
0000
0000
0030
0100
0000
1000
0000
1000
0000
0010
0000
,
0000
0100
0100
0000
0001
0010
0001
0011
,
0000
0010
0100
0000
1000
1000
1000
0001
,
0000
0010
0020
0000
0000
0000
0000
0000
,
0030
0000
0001
0011
0000
0101
0000
0110
,
0000
1010
0000
1100
0000
1000
0100
0000
,
0010
0100
1000
0001
0010
0100
0010
0002
,
0000
0000
0000
0000
0000
0000
0000
0003
,
0002
0000
0000
0000
0000
0000
2000
0000
0000
0000
0000
0003
0200
0000
0000
0000
,
0000
0000
0000
3300
,
0002
0000
0000
0000
0000
0000
0020
0000
0000
0000
0000
0003
0200
0000
0000
0000
,
0000
0000
0330
0000
;

//--------------- dance-single - Pax_Vesania ----------------
#NOTES:
     dance-single:
     Pax_Vesania:
     Challenge:
     16:
     0,0,0,0,0:
0000
0000
0000
0000
,
0000
0000
0000
0000
,
0000
0000
0000
0000
,
0000
0000
0000
0000
,
1000
0001
0100
1000
0100
0001
0010
0100
,
1000
0010
0001
0010
1000
0100
0001
0100
,
1000
0010
0100
0001
0010
1000
0010
0001
,
0100
0000
0010
0000
1000
0000
0000
0000
0001
0100
0010
1000
0001
0100
0010
1000
,
0100
0000
0010
0001
0010
0001
1000
0100
,
1000
0010
0100
0001
0010
0001
0010
0000
,
0101
0000
1000
0100
1000
0100
0010
0100
,
0010
0000
0001
0000
0010
0000
0100
0000
0010
0000
0100
0000
1000
0000
0100
0010
,
0001
0000
0001
0010
0001
0100
0001
0010
,
0001
1000
0100
1000
0010
0100
0010
0000
,
1001
0000
0100
0010
0100
0001
1000
0001
,
0010
0000
0100
0000
0010
0000
0001
0000
0010
0100
1000
0001
0010
0000
0000
0000
,
1000
0010
0001
1000
0100
0001
0100
1000
,
0100
0010
0001
0010
0100
1000
2200
3300
,
0010
1000
0100
0010
0100
1000
0001
0100
,
0001
0000
0010
0000
0100
0000
1000
0000
0010
0000
0100
0000
0100
0000
0001
0010
,
0100
1000
0001
0010
0100
0010
1000
0010
,
0001
0100
0010
1000
0001
0100
0220
0330
,
0010
0100
0001
0010
0100
1000
1000
0100
,
0010
0000
0100
0000
1000
0000
0001
0000
0100
0010
1000
0001
0100
0001
1000
0100
,
1000
0000
1100
0000
1000
0010
1010
0000
,
0001
0000
0011
0000
0001
0100
0101
0000
,
0001
0000
0110
0000
0010
1000
1001
0000
,
0001
0001
0011
0010
0000
0001
0101
0000
,
1000
0100
0010
0001
0100
0001
1000
0100
,
0010
0100
0010
0001
0010
0100
1000
0001
,
0101
0100
0100
0110
0010
0010
1010
1000
,
1100
0000
0000
0002
0003
0010
0100
0010
,
0001
0100
0010
1000
0100
0000
0000
0010
,
0100
1000
0010
0100
0001
0010
0001
0000
,
0100
0001
0100
1000
0100
0000
0000
0010
,
1000
0010
0001
0010
1000
0100
0010
1000
,
0010
0100
1000
0001
0100
0001
1000
0010
,
0100
0001
0010
1000
0001
0100
1000
0100
,
0010
0001
0010
0100
0001
0100
0010
0100
,
1000
0100
0010
0100
1000
0001
1000
0000
,
0010
0100
0010
1000
0100
1000
0001
0100
0001
0100
0010
1000
0010
1000
0001
0010
,
0001
0010
0100
1000
0010
0100
0001
0010
0001
1000
0100
0010
0100
1000
0001
0010
,
0100
0010
0001
0100
0010
0100
0001
1000
0010
1000
0010
1000
0100
0010
0001
0100
,
0010
1000
0100
0010
0001
0000
0000
0000
1000
0000
0000
0000
1010
0000
0000
0000
,
1001
0000
1000
0010
1000
0100
0001
0000
,
0100
0000
1000
0000
0010
0100
0001
0000
,
1010
0000
1000
0010
0001
1000
0100
0001
,
0100
0010
0001
0010
0100
1000
0100
0010
,
0110
0000
1000
0000
0100
0010
0011
0000
,
0101
0000
0100
0000
0010
1000
1100
0000
,
0011
0000
0000
0000
1001
0000
0000
0000
0001
0000
0001
0000
1000
0000
0010
0100
,
0010
0000
1000
0000
1000
0000
0100
0010
0001
0000
0010
0000
0100
0000
0010
0000
,
0011
0000
0001
1000
0100
0010
0001
0010
,
0100
0010
0001
1000
0100
0000
0010
0000
,
0110
0000
1000
0001
0010
0100
1000
0010
,
0100
0010
0100
0001
1000
0100
0010
0100
,
1100
0000
1000
0010
1000
0010
0001
0010
,
1000
0100
0001
0100
1000
0010
0001
0010
,
0100
0001
0100
1000
0100
0010
0001
0010
,
1000
0000
0100
0000
1000
0000
0001
0100
1000
0000
0100
0000
0010
0000
1000
0000
,
1000
0001
0001
0100
0001
0010
1000
0001
,
0100
1000
0001
0100
0000
0010
1010
1000
,
0001
0010
0001
0100
1000
0100
0010
0001
,
0010
0100
0001
1000
0010
0100
0001
0100
,
0101
0000
0001
1000
1000
0100
1000
1000
,
0010
0010
0100
0100
0101
0001
1001
0000
,
0110
0000
0001
0010
0100
0010
0001
1000
,
0100
0010
0100
1000
0001
1000
0010
1000
,
0001
0100
0010
0100
0001
0010
0001
0100
,
0001
1000
0100
1000
0001
0010
0001
0010
,
0110
0000
0000
1000
1001
1000
0100
0000
,
0110
0010
0001
1000
1100
0000
0100
0000
,
1000
0100
0010
0001
0010
0100
1000
1100
,
1010
0000
1001
0000
1010
0000
1000
0000
0001
0010
0100
1000
0001
0010
0100
1000
,
0200
0000
0000
0000
0000
0000
0000
0300
1000
0000
0010
0000
0010
0000
0200
0000
,
0000
0300
0001
0000
0001
0000
0010
0000
0010
0000
0100
0000
0100
0000
2000
0000
,
0000
3000
0001
0000
0001
0000
0100
0000
0100
0000
0010
0000
0010
0000
2000
0000
,
0000
3000
0001
0000
0002
0000
0000
0000
0000
0000
0000
0000
0000
0000
0000
0003
,
0000
0000
0010
0011
0001
0101
0100
0110
,
0010
1010
1000
1001
0000
0101
0101
0000
,
0001
0010
1000
0001
0100
1000
0001
0010
,
0100
0000
0010
0000
0001
0000
0001
0010
0100
0000
0010
0100
1000
0000
1000
0000
,
0100
1000
0010
1000
0001
1000
0010
1000
0100
0010
0100
1000
0010
0100
0001
1000
,
0010
0100
0001
0010
0001
1000
0001
0010
0100
0010
0001
0010
0100
0010
0100
1000
,
0010
0100
0001
1000
0100
0010
0001
0100
0001
0100
0010
1000
0001
1000
0010
0100
,
0001
1000
0100
0010
0001
0000
0000
0000
0000
0000
0000
0000
0000
0000
0000
0000
;
