#TITLE:M12;
#SUBTITLE:空の境界 矛盾螺旋;
#ARTIST:梶浦由記;
#TITLETRANSLIT:;
#SUBTITLETRANSLIT:Kara no Kyoukai - Mujun Rasen;
#ARTISTTRANSLIT:Kajiura Yuki;
#GENRE:;
#CREDIT:;
#MUSIC:M12.ogg;
#BANNER:;
#BACKGROUND:;
#CDTITLE:;
#SAMPLESTART:23.561;
#SAMPLELENGTH:19.500;
#SELECTABLE:YES;
#OFFSET:-0.311;
#BPMS:0.000=160.000;
#STOPS:;
#BGCHANGES:;
#FGCHANGES:;

//--------------- dance-single - Pax_Vesania ----------------
#NOTES:
     dance-single:
     Pax_Vesania:
     Hard:
     14:
     0,0,0,0,0:
0000
0000
0000
0000
,
0000
0000
1001
0000
,
0000
0000
1000
0000
,
0000
0000
0001
0000
,
0000
0000
0100
0000
,
0000
0000
0000
0000
0001
0010
0100
1000
,
0001
1000
0010
1000
0100
0010
0001
1000
,
0001
0100
0001
1000
0010
1000
0100
0001
,
0100
0010
0100
1000
0010
0001
0010
0100
,
0001
0000
0100
0000
1000
0000
0100
0000
0001
0000
0000
1000
0100
0000
0000
0010
,
0100
0000
0000
0010
0001
0000
0000
0000
0100
0000
0000
0010
0001
0000
0000
0010
,
1000
0000
0000
0100
0001
0000
0000
0000
0100
0000
0000
1000
0100
1000
0000
0010
,
0100
0000
0000
0100
0001
0000
0000
0000
0010
0000
0000
0001
0100
0001
0000
0010
,
0100
0000
0000
0100
1000
0000
0000
0000
0001
0000
0000
0100
1000
0100
0000
0001
,
1000
0000
0000
0100
0001
0000
0000
0000
0100
0000
0000
1000
0010
0001
0000
1000
,
0100
0000
0000
0001
0100
0000
0000
0000
1001
0000
0000
0000
0000
0000
0000
0000
,
2000
0000
3002
0000
,
0000
0000
0000
0000
0000
0000
0000
0003
0200
0000
0000
0000
0000
0000
0000
0300
,
0020
0000
0000
0000
0000
0000
0000
0030
2000
0000
0000
0000
0000
0000
0000
0000
,
0000
0000
0000
0000
0000
0000
0000
3000
0200
0000
0000
0000
0000
0000
0000
0300
,
0020
0000
0000
0000
0000
0000
0000
0030
0200
0000
0000
0000
0000
0000
0000
0000
,
0000
0000
0000
0000
0000
0000
0000
0300
0002
0000
0000
0000
0000
0000
0000
0003
,
0200
0000
0000
0000
0000
0000
0000
0300
2000
0000
0000
0000
0000
3000
0020
0000
,
0000
0000
0000
0030
0200
0000
0000
0300
0200
0000
0000
0000
0000
0000
0000
0300
,
0002
0000
0000
0000
0000
0000
0000
0003
1000
0000
0010
0100
0001
0000
0100
0000
,
0001
0000
0100
0010
1000
0000
0010
0000
1000
0000
0100
0010
0001
0000
0010
0000
,
0001
0000
0010
0100
1000
0000
0100
0000
0010
0000
0001
0010
0001
0000
0010
0000
,
0100
0000
1000
0100
1000
0000
0010
0000
0100
0000
0001
1000
0001
0000
1000
0000
,
0001
0000
1000
0001
1000
0000
0001
0000
0100
0000
1000
0100
1000
0000
0100
0000
,
0010
0000
0001
0010
0001
0000
0010
0000
1000
0000
0100
0001
0100
0000
0010
0000
,
0001
0000
1000
0010
1000
0010
1000
0000
0001
0000
0100
0001
0100
0001
0100
0000
,
0001
0000
1000
0100
1000
0100
1000
0000
0010
0000
0100
0010
0100
0010
0100
0000
,
0001
0000
1000
0100
0010
0001
0010
0000
0011
0000
0000
0000
0101
0000
0000
0000
,
0110
1010
1100
1001
,
0011
0101
0110
1100
,
0101
1100
1010
0011
,
1010
0101
0011
1010
,
0110
1100
0101
1100
,
0101
0110
1010
1100
,
0101
1010
1100
1010
,
0110
0000
0000
0000
0101
0000
0000
0000
0001
0000
0100
0001
0100
0001
0100
0000
,
0010
0000
1000
0000
0001
0000
0100
0000
0001
0000
1000
0100
1000
0100
1000
0000
,
0001
0010
0100
1000
2000
0000
0000
0000
,
0000
0000
0000
0000
0000
0000
0000
0000
0000
0000
0000
0000
0000
0000
0000
3000
,
2002
0000
0000
0000
,
0000
0000
0000
0000
,
0000
0000
0000
0000
,
0000
0000
0000
0000
,
0000
0000
0000
0000
,
0000
0000
0000
0000
,
0000
0000
0000
0000
0000
3003
0000
0000
0000
0000
0000
0000
0000
0000
0000
0000
;

//--------------- dance-single - Pax_Vesania ----------------
#NOTES:
     dance-single:
     Pax_Vesania:
     Challenge:
     17:
     0,0,0,0,0:
0000
0000
0000
0000
,
0000
0000
0000
0000
0000
0000
0000
0000
1000
0010
1000
0100
1000
0001
0010
0100
,
1000
0010
0100
0001
0100
0010
1000
0100
1000
0001
1000
0100
1000
0001
0010
0100
,
1000
0010
0100
0001
0010
0001
1000
0100
0010
0100
1000
0001
0010
0100
1000
0001
,
1000
0010
1000
0001
0100
0001
0100
0010
0100
0010
1000
0010
1000
0100
0010
0001
,
0010
0100
0010
0001
0010
0001
0100
0001
1000
0001
0010
0100
1000
0100
0010
0100
,
1000
0001
1000
0010
1000
0100
1000
0001
0100
0010
1000
0010
0100
0001
0010
0100
,
1000
0001
1000
0100
0010
0001
1000
0001
1000
0100
1000
0001
0100
0001
1000
0010
,
1000
0100
0010
0001
0010
0001
0010
0100
1000
0001
0010
0100
1000
0100
1000
0100
,
0010
0001
0100
0010
0100
0001
0010
0100
1000
0100
1000
0001
0010
0001
0100
0010
,
0100
0001
0010
0001
1000
0100
0010
0100
0010
0001
0010
0100
0010
0100
1000
0100
,
0010
0001
0010
0100
1000
0001
0010
0100
1000
0010
1000
0010
0100
0001
0100
0001
,
0010
0001
0010
0100
1000
0010
0100
0010
1000
0100
0010
0001
0100
0010
0100
0001
,
0010
0100
1000
0001
1000
0001
0100
0010
0100
0010
1000
0100
0010
0100
1000
0001
,
0010
0100
0010
0001
0100
0010
1000
0100
1000
0001
0100
0010
1000
0010
0100
0001
,
1000
0100
0010
0001
0100
0010
0100
0001
0100
0000
0000
0000
0000
0000
0000
0000
,
2000
0000
0000
0000
3100
0010
0001
1000
0100
0000
0010
0001
0010
0001
0010
0000
,
0001
0000
1000
0010
1000
0010
1000
0000
0001
0000
0100
0010
0100
0010
0100
0000
,
0010
0000
1000
0100
0010
0100
1000
0000
0001
0000
0010
0100
1000
0001
0010
0000
,
0100
0000
1000
0010
1000
0001
1000
0000
0010
0000
0100
0001
1000
0010
0100
0000
,
0001
0000
0001
0010
0100
1000
0100
0000
1000
0000
1000
0100
0010
0001
0010
0000
,
0001
0000
0001
0100
0010
1000
0100
0000
0100
0000
1000
0001
0010
0001
1000
0000
,
0100
0000
0100
0010
0001
0010
0100
0000
0010
0000
0001
0010
0001
1000
0010
0000
,
0100
0000
0001
0100
0010
0100
0001
0000
0010
0000
0100
1000
0010
0100
0001
0000
,
0010
0000
0001
0010
0100
1000
0100
0000
1000
0000
0001
1000
0100
0010
0001
0000
,
0100
0000
0010
0100
0001
0010
0100
0000
1000
0000
0100
0001
0100
1000
0100
0000
,
1000
0000
0010
0001
0010
1000
0100
0000
0001
0000
0100
1000
0100
0001
0100
0000
,
1000
0000
0001
0010
0100
0010
0100
0000
0010
0000
0001
0100
0001
0100
1000
0000
,
0100
0000
0010
0001
0010
0100
1000
0000
0100
0000
0001
1000
0100
0010
0100
0000
,
1000
0000
0010
0001
1000
0100
0001
0000
0010
0000
0001
0010
1000
0001
0100
0000
,
1000
0000
1000
0010
0001
0010
1000
0000
0100
0000
0100
0001
0100
1000
0100
0000
,
1000
0000
0001
0100
1000
0100
0001
0000
0010
0000
0001
1000
0001
0100
0001
0000
,
1000
0000
0010
1000
0001
1000
0010
0000
1000
0100
0010
0100
1000
0001
0010
0100
,
0010
0100
1000
0001
0010
0100
1000
0100
1000
0010
1000
0001
1000
0010
0100
0001
,
0100
0010
1000
0001
0010
0100
1000
0100
0010
0001
0010
0001
0100
0001
1000
0001
,
0100
0010
1000
0010
0100
0001
0010
0100
1000
0001
0010
0100
0010
0001
1000
0001
,
0100
0010
1000
0001
0010
0001
0010
0100
1000
0100
0010
0100
1000
0010
1000
0001
,
0100
0001
1000
0100
1000
0010
0100
0010
1000
0001
0100
0010
0100
0001
0010
0100
,
1000
0001
1000
0100
0010
0001
0100
0010
0100
0010
1000
0100
1000
0001
0010
0001
,
1000
0100
1000
0001
0010
0001
1000
0010
1000
0100
0010
0100
0010
0001
0010
0100
,
1000
0001
0100
0001
0100
0010
1000
0010
1000
0100
0010
0100
1000
0001
0010
0100
,
1000
0001
1000
0010
1000
0001
1000
0010
1000
0100
0010
0100
0010
0001
0100
0001
,
1000
0001
0100
0001
0010
0001
0010
0100
1000
0001
0100
0010
0100
0001
0010
0001
,
0100
0010
1000
0001
0100
0001
0010
0100
1000
0010
0100
0001
0010
0001
0100
0010
,
2000
0000
0000
0000
,
0000
0000
0000
0000
,
0000
0000
0000
0000
,
0000
0000
0000
0000
,
0000
0000
0000
0000
,
0000
0000
0000
0000
,
0000
0000
0000
0000
0000
3000
0000
0000
0000
0000
0000
0000
0000
0000
0000
0000
;
